osu file format v14

[General]
AudioFilename: audio.mp3
AudioLeadIn: 0
PreviewTime: 159124
Countdown: 0
SampleSet: Soft
StackLeniency: 0.5
Mode: 0
LetterboxInBreaks: 0
WidescreenStoryboard: 1

[Editor]
Bookmarks: 448,9859,28683,47506,85153,103977,141183,150742,160448,179271,198095,207506
DistanceSpacing: 1.5
BeatDivisor: 4
GridSize: 4
TimelineZoom: 2.532

[Metadata]
Title:Ai no Sukima
TitleUnicode:哀の隙間
Artist:MIMI feat. Hatsune Miku
ArtistUnicode:MIMI feat. 初音ミク
Creator:theramdans
Version:Hard
Source:osu!
Tags:vocaloid sorrow gap 佐藤主税 sato chiiro Cris- Pyrozen featured artist fa mappers' guild mpg japanese pop jpop j-pop
BeatmapID:2748903
BeatmapSetID:1323207

[Difficulty]
HPDrainRate:5
CircleSize:3.6
OverallDifficulty:6
ApproachRate:8
SliderMultiplier:1.2
SliderTickRate:1

[Events]
//Background and Video events
0,0,"mikuowo.jpg",0,0
//Break Periods
//Storyboard Layer 0 (Background)
//Storyboard Layer 1 (Fail)
//Storyboard Layer 2 (Pass)
//Storyboard Layer 3 (Foreground)
Sprite,Foreground,Centre,"sb\theramdans.png",0,0 M,0,13683,,320,320 S,0,13683,,0.4444444 F,2,13683,14565,0,1 F,4,18095,19271,1,0
//Storyboard Layer 4 (Overlay)
//Storyboard Sound Samples

[TimingPoints]
448,294.117647058824,4,2,1,35,1,0
448,-133.333333333333,4,2,1,35,0,0
9345,-200,4,2,1,50,0,0
9565,-200,4,2,1,20,0,0
9859,-100,4,2,1,60,0,0
10153,-100,4,2,1,60,0,0
28683,-133.333333333333,4,2,1,20,0,0
31036,-133.333333333333,4,2,1,20,0,0
37212,-200,4,2,1,20,0,0
37506,-200,4,2,1,5,0,0
38095,-100,4,2,1,40,0,0
46328,-100,4,2,1,46,0,0
46624,-100,4,2,1,52,0,0
46918,-100,4,2,1,58,0,0
47212,-100,4,2,1,64,0,0
47506,-90.9090909090909,4,2,1,70,0,1
66330,-100,4,2,1,60,0,0
85153,-133.333333333333,4,2,1,40,0,0
87433,-133.333333333333,4,2,1,20,0,0
87506,-133.333333333333,4,2,1,30,0,0
92139,-133.333333333333,4,2,1,20,0,0
92212,-133.333333333333,4,2,1,40,0,0
94565,-100,4,2,1,50,0,0
102800,-100,4,2,1,55,0,0
103242,-100,4,2,1,60,0,0
103683,-100,4,2,1,65,0,0
103977,-90.9090909090909,4,2,1,70,0,1
122359,-90.9090909090909,4,2,1,70,0,0
122800,-100,4,2,1,70,0,1
123095,-100,4,2,1,60,0,1
141624,-166.666666666667,4,2,1,30,0,0
159271,-166.666666666667,4,2,1,38,0,0
159859,-100,4,2,1,60,0,0
160153,-100,4,2,1,65,0,0
160448,-90.9090909090909,4,2,1,70,0,1
178977,-90.9090909090909,4,2,1,70,0,0
179271,-83.3333333333333,4,2,1,80,0,1
197800,-83.3333333333333,4,2,1,80,0,0
198095,-100,4,2,1,70,0,1
198389,-100,4,2,1,70,0,0
207506,-133.333333333333,4,2,1,40,0,0

[Colours]
Combo1 : 81,217,189
Combo2 : 51,143,247
Combo3 : 90,207,157
Combo4 : 57,181,240

[HitObjects]
63,179,448,6,0,L|63:128,2,45.0000017166138,2|2|2,0:0|0:0|0:0,0:0:0:0:
189,265,1036,2,0,L|189:316,2,45.0000017166138,2|2|2,0:0|0:0|0:0,0:0:0:0:
261,243,1477,1,2,0:0:0:0:
298,309,1624,6,0,B|329:324|329:324|385:315,1,90.0000034332277,2|2,0:0|0:0,0:0:0:0:
474,190,2212,1,2,0:0:0:0:
466,113,2359,2,0,L|513:110,2,45.0000017166138,2|2|2,0:0|0:0|0:0,0:0:0:0:
393,87,2800,6,0,B|357:80|357:80|306:94,1,90.0000034332277,2|2,0:0|0:0,0:0:0:0:
372,232,3389,2,0,L|373:283,2,45.0000017166138,0|0|2,0:0|0:0|0:0,0:0:0:0:
254,329,3977,2,0,L|252:381,2,45.0000017166138,0|0|2,0:0|0:0|0:0,0:0:0:0:
223,179,4565,1,2,0:0:0:0:
223,179,5153,6,0,L|176:186,2,45.0000017166138,2|2|2,0:0|0:0|0:0,0:0:0:0:
355,101,5742,2,0,L|361:57,2,45.0000017166138,2|2|2,0:0|0:0|0:0,0:0:0:0:
418,144,6183,1,2,0:0:0:0:
410,220,6330,6,0,P|404:264|370:292,1,90.0000034332277,2|2,0:0|0:0,0:0:0:0:
221,261,6918,1,2,0:0:0:0:
175,322,7065,2,0,L|178:383,2,45.0000017166138,2|2|2,0:0|0:0|0:0,0:0:0:0:
100,304,7506,6,0,P|67:289|53:230,1,90.0000034332277,2|2,0:0|0:0,0:0:0:0:
44,82,8095,2,0,L|-5:94,2,45.0000017166138,0|0|2,0:0|0:0|0:0,0:0:0:0:
196,94,8683,2,0,L|213:43,2,45.0000017166138,0|0|2,0:0|0:0|0:0,0:0:0:0:
224,246,9271,6,0,P|266:264|303:198,1,135.000005149841,2|0,0:0|0:0,0:0:0:0:
290,170,9859,6,0,P|277:131|279:104,1,60,6|2,3:2|0:0,0:0:0:0:
273,28,10153,1,10,0:0:0:0:
426,95,10448,2,0,P|466:88|489:73,2,60,2|2|8,3:2|3:2|0:0,0:0:0:0:
374,161,10889,1,2,3:2:0:0:
290,170,11036,6,0,P|245:125|188:114,1,120,2|8,3:2|0:0,0:0:0:0:
142,274,11624,1,0,0:0:0:0:
201,333,11771,2,0,L|260:333,2,60,2|10|2,3:2|0:0|3:2,0:0:0:0:
142,274,12212,6,0,P|163:327|132:383,1,120,2|8,3:2|0:0,0:0:0:0:
33,248,12800,2,0,P|18:221|13:192,1,60,2|2,3:2|3:2,0:0:0:0:
25,108,13095,2,0,P|30:78|44:52,1,60,10|0,0:0|0:0,0:0:0:0:
140,48,13389,5,2,3:2:0:0:
214,87,13536,1,2,3:2:0:0:
276,31,13683,2,0,L|343:24,1,60,10|0,0:0|0:0,0:0:0:0:
416,49,13977,2,0,L|400:112,1,60,2|0,3:2|3:2,0:0:0:0:
383,189,14271,1,8,0:0:0:0:
191,195,14565,6,0,P|188:227|190:256,1,60,2|2,3:2|0:0,0:0:0:0:
207,336,14859,1,10,0:0:0:0:
365,283,15153,2,0,P|397:280|426:282,2,60,2|2|8,3:2|3:2|0:0,0:0:0:0:
307,220,15595,1,2,3:2:0:0:
318,137,15742,6,0,P|323:78|317:19,1,120,2|8,3:2|0:0,0:0:0:0:
186,124,16330,1,0,0:0:0:0:
223,199,16477,2,0,L|223:259,2,60,2|10|2,3:2|0:0|3:2,0:0:0:0:
186,124,16918,6,0,P|136:96|89:129,1,120,2|8,3:2|0:0,0:0:0:0:
21,281,17506,2,0,B|45:287|45:287|78:277,1,60,2|2,3:2|3:2,0:0:0:0:
140,334,17800,2,0,B|173:324|173:324|198:330,1,60,10|0,0:0|0:0,0:0:0:0:
275,271,18095,5,2,3:2:0:0:
242,193,18242,1,2,3:2:0:0:
273,115,18389,2,0,L|333:111,1,60,10|0,0:0|0:0,0:0:0:0:
402,63,18683,2,0,B|430:89|430:89|433:177,1,120,2|8,3:2|0:0,0:0:0:0:
477,356,19271,6,0,P|432:366|402:357,1,60,2|2,3:2|0:0,0:0:0:0:
359,304,19565,1,10,0:0:0:0:
199,358,19859,2,0,P|179:336|168:308,1,60,2|2,3:2|3:2,0:0:0:0:
126,235,20153,2,0,P|136:207|157:185,1,60,8|2,0:0|3:2,0:0:0:0:
146,101,20448,6,0,P|174:150|242:156,1,120,2|8,3:2|0:0,0:0:0:0:
366,57,21036,1,0,0:0:0:0:
427,113,21183,2,0,L|489:112,2,60,2|10|2,3:2|0:0|3:2,0:0:0:0:
366,57,21624,6,0,B|297:73|297:73|258:44,1,120,2|8,3:2|0:0,0:0:0:0:
342,188,22212,2,0,L|409:193,1,60,2|2,3:2|3:2,0:0:0:0:
455,257,22506,2,0,L|450:324,1,60,10|0,0:0|0:0,0:0:0:0:
357,338,22800,5,2,3:2:0:0:
304,271,22948,1,2,3:2:0:0:
260,343,23095,2,0,P|228:341|204:325,1,60,10|0,0:0|0:0,0:0:0:0:
121,330,23389,2,0,P|121:300|135:274,1,60,2|0,3:2|3:2,0:0:0:0:
192,212,23683,1,8,0:0:0:0:
131,30,23977,6,0,P|153:20|193:18,1,60,2|2,3:2|3:2,0:0:0:0:
237,85,24271,1,10,0:0:0:0:
404,89,24565,2,0,P|402:118|398:148,1,60,2|2,3:2|3:2,0:0:0:0:
377,229,24859,2,0,P|347:227|317:223,1,60,8|2,0:0|3:2,0:0:0:0:
239,192,25153,6,0,P|279:233|275:291,1,120,2|8,3:2|0:0,0:0:0:0:
135,196,25742,1,0,0:0:0:0:
152,113,25889,2,0,L|211:109,2,60,2|10|2,3:2|0:0|3:2,0:0:0:0:
135,196,26330,6,0,B|73:206|73:206|5:180,1,120,2|8,3:2|0:0,0:0:0:0:
84,340,26918,2,0,L|143:345,1,60,2|2,3:2|3:2,0:0:0:0:
217,304,27212,2,0,L|212:245,1,60,10|0,0:0|0:0,0:0:0:0:
203,149,27506,5,2,3:2:0:0:
279,113,27653,1,2,3:2:0:0:
315,188,27800,2,0,L|374:184,1,60,10|0,0:0|0:0,0:0:0:0:
452,151,28095,2,0,L|516:155,2,60,2|0|10,3:2|3:2|0:0,0:0:0:0:
361,37,28683,6,0,P|302:101|315:188,1,180.000006866455,6|0,3:2|0:0,0:0:0:0:
220,271,29565,2,0,P|221:245|213:224,1,45.0000017166138,2|2,0:0|0:0,0:0:0:0:
179,158,29859,6,0,B|142:174|104:148|104:148|126:200|90:250,1,180.000006866455,2|0,0:0|0:0,0:0:0:0:
129,355,30742,2,0,P|154:365|179:367,1,45.0000017166138,2|0,0:0|0:0,0:0:0:0:
255,366,31036,6,0,P|318:309|396:344,1,180.000006866455,2|0,0:0|0:0,0:0:0:0:
492,262,31918,2,0,P|493:229|488:209,1,45.0000017166138,2|2,0:0|0:0,0:0:0:0:
437,163,32212,6,0,B|391:152|364:169|364:169|336:144|336:144|302:155|270:147,1,180.000006866455,2|0,0:0|0:0,0:0:0:0:
232,267,33095,2,0,P|206:275|172:270,1,45.0000017166138,2|2,0:0|0:0,0:0:0:0:
124,235,33389,6,0,P|44:216|56:135,1,180.000006866455,2|0,0:0|0:0,0:0:0:0:
177,101,34271,2,0,P|199:101|220:108,1,45.0000017166138,2|2,0:0|0:0,0:0:0:0:
277,160,34565,6,0,P|277:204|254:242,1,90.0000034332277,2|2,0:0|0:0,0:0:0:0:
139,294,35153,1,2,0:0:0:0:
247,359,35448,1,2,0:0:0:0:
360,301,35742,6,0,P|389:334|397:378,2,90.0000034332277,2|2|2,0:0|0:0|0:0,0:0:0:0:
433,209,36624,1,2,0:0:0:0:
321,165,36918,2,0,L|328:113,1,45.0000017166138,2|2,0:0|0:0,0:0:0:0:
295,49,37212,2,0,B|256:82|256:82|246:158,1,120,2|0,0:0|0:0,0:0:0:0:
295,49,38095,6,0,P|353:54|396:94,1,120,2|2,3:2|0:0,0:0:0:0:
417,169,38536,1,2,0:0:0:0:
349,207,38683,2,0,L|270:220,1,60,2|0,3:2|0:0,0:0:0:0:
227,169,38977,2,0,P|213:195|211:225,1,60,2|2,0:0|0:0,0:0:0:0:
255,311,39271,6,0,P|184:310|139:286,1,120,2|2,3:2|0:0,0:0:0:0:
75,246,39712,1,2,0:0:0:0:
31,181,39859,2,0,P|37:139|54:109,2,60,0|2|2,3:2|0:0|0:0,0:0:0:0:
221,154,40448,6,0,B|273:130|288:178|345:151,2,120,2|2|0,3:2|0:0|3:2,0:0:0:0:
191,251,41183,1,2,0:0:0:0:
191,251,41330,2,0,P|190:280|201:308,1,60,2|2,0:0|0:0,0:0:0:0:
271,263,41624,6,0,P|282:206|268:145,1,120,2|2,3:2|0:0,0:0:0:0:
213,91,42065,1,2,0:0:0:0:
145,129,42212,1,0,3:2:0:0:
174,282,42506,2,0,P|166:310|171:340,1,60,2|2,3:2|0:0,0:0:0:0:
277,352,42800,6,0,P|335:360|398:340,1,120,2|0,3:2|0:0,0:0:0:0:
450,250,43242,1,2,0:0:0:0:
450,250,43389,2,0,P|420:243|391:250,1,60,2|0,3:2|0:0,0:0:0:0:
313,218,43683,2,0,P|294:194|286:165,1,60,2|2,0:0|0:0,0:0:0:0:
316,87,43977,6,0,P|278:126|203:126,2,120,2|2|2,3:2|0:0|3:2,0:0:0:0:
475,35,44859,2,0,P|470:69|471:103,1,60,2|0,0:0|0:0,0:0:0:0:
473,209,45153,6,0,P|478:252|466:339,2,120,2|2|2,3:2|0:0|3:2,0:0:0:0:
329,145,46036,1,2,0:0:0:0:
309,336,46330,6,0,L|251:348,1,60,2|0,3:2|0:0,0:0:0:0:
174,310,46624,2,0,L|116:322,1,60,2|0,3:2|0:0,0:0:0:0:
63,255,46918,2,0,P|44:215|48:184,1,60,2|0,3:2|0:0,0:0:0:0:
88,128,47212,2,0,P|126:105|157:108,1,60,2|0,3:2|0:0,0:0:0:0:
244,86,47506,6,0,B|279:93|296:80|296:80|312:97|312:97|339:83|376:93,1,132.00000402832,6|10,3:2|0:0,0:0:0:0:
451,126,47948,2,0,P|489:179|498:243,1,132.00000402832,2|0,3:2|3:2,0:0:0:0:
466,329,48389,2,0,L|387:337,1,66.0000020141602,10|0,0:0|0:0,0:0:0:0:
296,319,48683,6,0,P|266:307|233:302,1,66.0000020141602,2|0,3:2|0:0,0:0:0:0:
174,373,48977,1,10,0:0:0:0:
83,378,49124,2,0,P|66:315|56:239,1,132.00000402832,2|2,3:2|3:2,0:0:0:0:
50,156,49565,1,10,0:0:0:0:
203,15,49859,6,0,P|255:21|279:20,1,66.0000020141602,2|2,3:2|3:2,0:0:0:0:
336,83,50153,2,0,P|368:82|401:77,1,66.0000020141602,10|2,0:0|0:0,0:0:0:0:
445,158,50448,2,0,P|477:163|510:163,2,66.0000020141602,2|2|10,3:2|3:2|0:0,0:0:0:0:
415,245,50889,1,2,3:2:0:0:
316,206,51036,6,0,P|279:228|284:312,1,132.00000402832,2|10,3:2|0:0,0:0:0:0:
362,352,51477,2,0,P|299:338|258:399,1,132.00000402832,2|0,3:2|3:2,0:0:0:0:
166,378,51918,1,10,0:0:0:0:
22,224,52212,6,0,B|23:197|34:180|34:180|23:163|23:163|40:128|29:88,1,132.00000402832,2|10,3:2|0:0,0:0:0:0:
117,65,52653,2,0,P|175:96|237:80,1,132.00000402832,2|2,3:2|3:2,0:0:0:0:
301,13,53095,2,0,P|322:36|332:67,1,66.0000020141602,10|0,0:0|0:0,0:0:0:0:
335,174,53389,6,0,P|334:206|349:236,1,66.0000020141602,2|0,3:2|0:0,0:0:0:0:
424,288,53683,1,10,0:0:0:0:
424,288,53830,2,0,P|361:269|330:342,1,132.00000402832,2|0,3:2|3:2,0:0:0:0:
256,376,54271,1,10,0:0:0:0:
161,186,54565,6,0,P|129:196|106:219,2,66.0000020141602,2|2|10,3:2|3:2|0:0,0:0:0:0:
241,231,55006,1,2,3:2:0:0:
315,175,55153,2,0,L|320:108,1,66.0000020141602,2|0,3:2|3:2,0:0:0:0:
227,105,55448,2,0,L|216:40,1,66.0000020141602,10|0,0:0|0:0,0:0:0:0:
319,16,55742,6,0,P|381:2|429:43,1,132.00000402832,2|10,3:2|0:0,0:0:0:0:
389,223,56330,2,0,P|364:248|335:258,1,66.0000020141602,2|0,3:2|3:2,0:0:0:0:
249,221,56624,1,10,0:0:0:0:
188,291,56771,1,0,3:2:0:0:
278,346,56918,6,0,B|308:360|337:348|337:348|355:360|355:360|379:346|410:355,1,132.00000402832,2|10,3:2|0:0,0:0:0:0:
442,269,57359,2,0,P|426:207|455:149,1,132.00000402832,2|2,3:2|3:2,0:0:0:0:
463,56,57800,2,0,P|433:71|401:75,1,66.0000020141602,10|0,0:0|0:0,0:0:0:0:
313,42,58095,6,0,B|251:28|251:28|203:49,1,99.0000030212403,2|2,3:2|3:2,0:0:0:0:
190,79,58389,1,10,0:0:0:0:
100,55,58536,2,0,B|46:41|46:41|20:126,1,132.00000402832,2|2,3:2|3:2,0:0:0:0:
12,205,58977,1,10,0:0:0:0:
151,362,59271,6,0,P|192:350|225:353,1,66.0000020141602,2|2,3:2|3:2,0:0:0:0:
306,336,59565,2,0,P|315:305|314:272,1,66.0000020141602,10|2,0:0|0:0,0:0:0:0:
286,186,59859,2,0,P|256:197|223:200,1,66.0000020141602,2|2,3:2|3:2,0:0:0:0:
158,134,60153,2,0,P|154:101|163:69,1,66.0000020141602,10|2,0:0|3:2,0:0:0:0:
253,13,60448,6,0,P|299:15|326:23,1,66.0000020141602,2|0,3:2|0:0,0:0:0:0:
386,82,60742,1,10,0:0:0:0:
324,150,60889,2,0,P|298:210|314:273,1,132.00000402832,2|0,3:2|3:2,0:0:0:0:
372,344,61330,2,0,P|343:360|311:365,1,66.0000020141602,10|0,0:0|0:0,0:0:0:0:
207,343,61624,6,0,P|143:330|85:359,1,132.00000402832,2|10,3:2|0:0,0:0:0:0:
45,276,62065,2,0,B|67:217|67:217|33:155,1,132.00000402832,2|0,3:2|3:2,0:0:0:0:
102,94,62506,2,0,L|102:28,1,66.0000020141602,10|0,0:0|0:0,0:0:0:0:
193,85,62800,6,0,L|193:151,1,66.0000020141602,2|0,3:2|0:0,0:0:0:0:
152,234,63095,1,10,0:0:0:0:
152,234,63242,2,0,P|196:190|252:215,1,132.00000402832,2|0,3:2|3:2,0:0:0:0:
308,288,63683,1,10,0:0:0:0:
502,208,63977,6,0,P|492:151|485:134,1,66.0000020141602,2|2,3:2|3:2,0:0:0:0:
455,57,64271,2,0,P|398:67|381:74,1,66.0000020141602,10|2,0:0|3:2,0:0:0:0:
315,123,64565,2,0,P|258:114|241:107,2,66.0000020141602,2|2|10,3:2|3:2|0:0,0:0:0:0:
387,180,65006,1,2,3:2:0:0:
352,282,65153,6,0,P|299:312|226:298,1,132.00000402832,2|10,3:2|0:0,0:0:0:0:
148,343,65595,2,0,P|188:298|181:225,1,132.00000402832,2|0,3:2|3:2,0:0:0:0:
98,266,66036,2,0,L|17:259,1,66.0000020141602,10|8,0:0|3:2,0:0:0:0:
22,165,66330,6,0,L|39:97,1,60,6|2,3:2|3:2,0:0:0:0:
120,106,66624,1,10,0:0:0:0:
259,201,66918,2,0,L|249:260,2,60,2|2|8,3:2|3:2|0:0,0:0:0:0:
283,121,67359,1,2,3:2:0:0:
353,55,67506,6,0,B|437:43|437:43|485:72,1,120,2|8,3:2|0:0,0:0:0:0:
398,214,68095,1,0,0:0:0:0:
315,201,68242,2,0,P|314:241|322:264,2,60,2|10|2,3:2|0:0|3:2,0:0:0:0:
398,214,68683,6,0,P|420:267|399:322,1,120,2|8,3:2|0:0,0:0:0:0:
231,325,69271,2,0,L|157:334,1,60,2|2,3:2|3:2,0:0:0:0:
120,267,69565,2,0,L|111:193,1,60,10|0,0:0|0:0,0:0:0:0:
105,112,69859,5,2,3:2:0:0:
151,42,70006,1,2,3:2:0:0:
235,47,70153,2,0,B|245:84|245:84|240:118,1,60,10|0,0:0|0:0,0:0:0:0:
204,181,70448,2,0,B|196:227|196:227|226:310,1,120,2|8,3:2|0:0,0:0:0:0:
415,289,71036,6,0,P|434:265|437:228,1,60,2|2,3:2|0:0,0:0:0:0:
445,152,71330,1,8,0:0:0:0:
320,39,71624,2,0,L|259:50,1,60,2|2,3:2|3:2,0:0:0:0:
260,133,71918,2,0,L|227:185,1,60,8|2,0:0|3:2,0:0:0:0:
150,216,72212,6,0,B|209:212|209:212|257:272,1,120,2|8,3:2|0:0,0:0:0:0:
94,329,72800,1,0,0:0:0:0:
26,277,72948,2,0,P|28:242|38:214,2,60,2|10|2,3:2|0:0|3:2,0:0:0:0:
94,329,73389,6,0,B|153:353|157:309|210:333,1,120,2|8,3:2|0:0,0:0:0:0:
367,272,73977,2,0,P|366:242|360:212,1,60,2|2,3:2|3:2,0:0:0:0:
290,166,74271,2,0,P|290:136|296:106,1,60,10|0,0:0|0:0,0:0:0:0:
348,25,74565,5,2,3:2:0:0:
429,45,74712,1,2,3:2:0:0:
462,121,74859,2,0,P|450:148|433:173,1,60,10|0,0:0|0:0,0:0:0:0:
359,212,75153,2,0,P|360:242|367:272,1,60,2|0,3:2|3:2,0:0:0:0:
388,353,75448,1,8,0:0:0:0:
210,278,75742,6,0,L|151:281,1,60,2|2,3:2|0:0,0:0:0:0:
66,278,76036,1,10,0:0:0:0:
114,116,76330,2,0,P|142:123|172:125,1,60,2|2,3:2|3:2,0:0:0:0:
246,84,76624,2,0,P|286:88|321:101,1,60,8|2,0:0|3:2,0:0:0:0:
377,158,76918,6,0,B|383:202|383:202|370:225|370:225|376:273,1,120,2|8,3:2|0:0,0:0:0:0:
231,358,77506,1,0,0:0:0:0:
157,316,77653,2,0,B|132:310|132:310|98:317,2,60,2|10|2,3:2|0:0|3:2,0:0:0:0:
231,358,78095,6,0,B|254:302|254:302|230:247,1,120,2|8,3:2|0:0,0:0:0:0:
392,289,78683,2,0,L|454:283,1,60,2|2,3:2|3:2,0:0:0:0:
503,217,78977,2,0,L|490:152,1,60,10|0,0:0|0:0,0:0:0:0:
439,79,79271,5,2,3:2:0:0:
366,36,79418,1,2,3:2:0:0:
310,98,79565,2,0,P|277:96|246:100,1,60,10|0,0:0|0:0,0:0:0:0:
193,37,79859,2,0,P|173:63|161:91,1,60,2|0,3:2|3:2,0:0:0:0:
144,169,80153,1,8,0:0:0:0:
331,222,80448,6,0,L|402:221,1,60,2|2,3:2|0:0,0:0:0:0:
431,294,80742,1,10,0:0:0:0:
272,349,81036,2,0,P|248:331|218:327,1,60,2|2,3:2|3:2,0:0:0:0:
136,347,81330,2,0,P|123:302|129:284,1,60,8|2,0:0|3:2,0:0:0:0:
44,275,81624,6,0,P|99:258|119:204,1,120,2|8,3:2|0:0,0:0:0:0:
184,48,82212,1,0,0:0:0:0:
260,82,82359,2,0,L|265:5,2,60,2|10|2,3:2|0:0|3:2,0:0:0:0:
184,48,82800,6,0,B|149:96|149:96|185:166,1,120,2|8,3:2|0:0,0:0:0:0:
317,242,83389,2,0,L|321:301,1,60,2|2,3:2|3:2,0:0:0:0:
257,356,83683,2,0,L|181:362,1,60,10|0,0:0|0:0,0:0:0:0:
118,308,83977,6,0,L|58:305,2,60,2|2|10,3:2|3:2|0:0,0:0:0:0:
181,253,84418,1,0,0:0:0:0:
116,199,84565,2,0,P|125:170|145:148,1,60,2|0,3:2|3:2,0:0:0:0:
224,148,84859,2,0,P|244:170|252:199,1,60,8|0,0:0|3:2,0:0:0:0:
263,297,85153,6,0,P|257:326|273:395,2,90.0000034332277,6|2|8,3:2|0:3|0:0,0:0:0:0:
387,161,86036,2,0,P|379:183|377:205,1,45.0000017166138,2|2,3:3|0:0,0:0:0:0:
415,272,86330,6,0,P|425:315|419:359,2,90.0000034332277,2|2|8,0:0|3:3|0:0,0:0:0:0:
468,158,87212,1,2,0:3:0:0:
342,158,87506,6,0,B|324:119|324:119|336:58,2,90.0000034332277,2|2|8,3:2|0:3|0:0,0:0:0:0:
278,205,88242,2,0,B|258:162,2,45.0000017166138,2|2|2,0:0|3:3|0:0,0:0:0:0:
329,263,88683,6,0,B|381:255|381:255|415:272,2,90.0000034332277,2|2|8,0:0|0:3|0:0,0:0:0:0:
237,349,89565,2,0,L|188:338,1,45.0000017166138,2|2,0:3|0:0,0:3:0:0:
119,315,89859,6,0,B|77:302|77:302|32:315,2,90.0000034332277,2|2|8,3:2|0:3|0:0,0:0:0:0:
135,190,90742,2,0,L|186:190,1,45.0000017166138,2|2,3:3|0:0,0:3:0:0:
258,182,91036,6,0,L|262:84,2,90.0000034332277,2|2|8,0:0|3:3|0:0,0:0:0:0:
298,301,91918,1,2,0:3:0:0:
418,259,92212,6,0,B|429:301|429:301|413:344,2,90.0000034332277,2|2|10,3:2|0:3|0:0,0:0:0:0:
467,127,93095,2,0,L|394:126,1,60.0000022888184,2|2,3:3|0:0,0:0:0:0:
374,171,93389,6,0,B|384:128|384:128|368:85,1,90.0000034332277,2|10,3:2|0:0,0:0:0:0:
306,17,93830,1,2,0:0:0:0:
306,17,94271,2,0,L|255:19,1,45.0000017166138,8|8,0:0|0:0,0:0:0:0:
217,113,94565,6,0,L|86:108,2,120,2|2|8,3:2|0:3|3:2,0:0:0:0:
281,188,95300,1,0,0:0:0:0:
281,188,95448,2,0,P|288:223|278:257,1,60,2|2,0:3|0:0,0:0:0:0:
324,319,95742,6,0,P|273:288|216:300,1,120,2|2,3:2|0:3,0:0:0:0:
145,344,96183,1,2,0:0:0:0:
81,289,96330,2,0,P|68:231|99:181,1,120,8|2,3:2|0:3,0:0:0:0:
228,40,96918,6,0,P|285:27|335:58,2,120,2|2|8,3:2|0:3|3:2,0:0:0:0:
215,131,97653,1,2,0:0:0:0:
215,131,97800,2,0,L|218:205,1,60,2|2,0:3|0:0,0:0:0:0:
156,249,98095,6,0,B|213:232|213:232|271:250,1,120,2|2,3:2|0:3,0:0:0:0:
347,283,98536,1,2,0:0:0:0:
405,222,98683,2,0,B|421:164|421:164|403:106,1,120,8|2,3:2|3:3,0:0:0:0:
318,50,99124,1,2,0:0:0:0:
318,50,99271,6,0,B|239:55|239:55|195:13,2,120,2|2|8,3:2|0:3|3:2,0:0:0:0:
387,202,100153,1,2,0:3:0:0:
387,202,100300,1,2,0:0:0:0:
387,202,100448,6,0,P|402:240|364:322,1,120,0|2,3:2|0:3,0:0:0:0:
272,281,100889,1,2,0:0:0:0:
272,281,101036,2,0,P|244:286|212:287,1,60,8|0,3:2|0:0,0:0:0:0:
152,228,101330,2,0,P|162:200|178:175,1,60,2|0,0:3|0:0,0:0:0:0:
275,114,101624,6,0,B|327:98|328:133|404:108,2,120,2|2|10,3:2|0:3|3:2,0:0:0:0:
152,228,102506,2,0,P|181:226|211:230,1,60,2|2,0:3|0:3,0:0:0:0:
292,283,102800,6,0,P|321:288|351:287,2,60,10|2|2,3:2|0:3|0:3,0:0:0:0:
244,352,103242,1,8,0:0:0:0:
162,332,103389,2,0,P|132:336|102:335,1,60,2|2,3:3|3:3,0:0:0:0:
60,262,103683,2,0,P|55:232|56:202,1,60,10|2,0:0|0:3,0:0:0:0:
98,104,103977,6,0,B|132:96|154:111|154:111|172:96|172:96|197:110|237:100,1,132.00000402832,6|10,3:2|0:0,0:0:0:0:
294,46,104418,2,0,P|360:55|414:103,1,132.00000402832,2|0,3:2|3:2,0:0:0:0:
452,177,104859,2,0,P|463:216|462:242,1,66.0000020141602,10|0,0:0|0:0,0:0:0:0:
402,329,105153,6,0,B|366:351|366:351|310:341,1,99.0000030212403,2|2,3:2|3:2,0:0:0:0:
264,330,105448,1,10,0:0:0:0:
205,258,105595,2,0,B|135:243|135:243|81:270,1,132.00000402832,2|0,3:2|3:2,0:0:0:0:
63,179,106036,1,10,0:0:0:0:
233,110,106330,6,0,L|239:181,2,66.0000020141602,2|2|10,3:2|3:2|0:0,0:0:0:0:
220,18,106771,1,2,0:0:0:0:
130,38,106918,2,0,P|89:45|60:59,1,66.0000020141602,2|2,3:2|3:2,0:0:0:0:
13,129,107212,2,0,P|8:170|14:202,1,66.0000020141602,10|2,0:0|3:2,0:0:0:0:
57,289,107506,6,0,P|113:308|136:252,1,132.00000402832,2|10,3:2|0:0,0:0:0:0:
227,268,107948,2,0,B|210:209|210:209|223:130,1,132.00000402832,2|0,3:2|3:2,0:0:0:0:
185,54,108389,2,0,L|250:50,1,66.0000020141602,10|0,0:0|0:0,0:0:0:0:
354,36,108683,6,0,P|414:58|446:115,1,132.00000402832,2|10,3:2|0:0,0:0:0:0:
369,166,109124,2,0,B|344:211|344:211|395:295,1,132.00000402832,2|0,3:2|3:2,0:0:0:0:
407,369,109565,2,0,B|385:384|385:384|340:375,1,66.0000020141602,10|0,0:0|0:0,0:0:0:0:
244,351,109859,6,0,P|184:362|135:309,1,132.00000402832,2|10,3:2|0:0,0:0:0:0:
127,223,110300,2,0,P|157:158|149:89,1,132.00000402832,2|0,3:2|3:2,0:0:0:0:
230,48,110742,1,10,0:0:0:0:
429,118,111036,6,0,P|438:86|439:53,2,66.0000020141602,2|2|10,3:2|3:2|0:0,0:0:0:0:
343,153,111477,1,2,3:2:0:0:
397,227,111624,2,0,L|411:302,1,66.0000020141602,2|2,3:2|3:2,0:0:0:0:
359,369,111918,2,0,L|284:355,1,66.0000020141602,10|0,0:0|3:2,0:0:0:0:
213,287,112212,6,0,B|182:256|182:256|187:168,1,132.00000402832,2|8,3:2|0:0,0:0:0:0:
120,103,112653,1,2,0:0:0:0:
40,149,112800,2,0,L|47:224,1,66.0000020141602,2|0,3:2|3:2,0:0:0:0:
109,282,113095,2,0,L|128:354,1,66.0000020141602,10|0,0:0|3:2,0:0:0:0:
213,287,113389,6,0,B|254:280|274:297|274:297|287:285|287:285|311:298|338:289,1,132.00000402832,2|10,3:2|0:0,0:0:0:0:
386,212,113830,2,0,P|384:148|425:98,1,132.00000402832,2|0,3:2|3:2,0:0:0:0:
383,15,114271,2,0,P|357:34|326:43,1,66.0000020141602,10|0,0:0|3:2,0:0:0:0:
223,15,114565,6,0,P|175:19|135:47,1,99.0000030212403,2|2,3:2|3:2,0:0:0:0:
121,91,114859,1,10,0:0:0:0:
149,177,115006,2,0,P|215:176|268:139,1,132.00000402832,2|0,3:2|3:2,0:0:0:0:
327,67,115448,1,10,0:0:0:0:
369,274,115742,6,0,L|447:267,2,66.0000020141602,2|2|10,3:2|3:2|0:0,0:0:0:0:
312,347,116183,1,2,0:0:0:0:
218,340,116330,2,0,L|152:343,1,66.0000020141602,2|2,3:2|3:2,0:0:0:0:
62,366,116624,2,0,L|28:296,1,66.0000020141602,10|2,0:0|3:2,0:0:0:0:
53,202,116918,6,0,P|65:164|121:217,1,132.00000402832,2|10,3:2|0:0,0:0:0:0:
219,215,117359,2,0,P|262:255|296:208,1,132.00000402832,2|0,3:2|3:2,0:0:0:0:
371,155,117800,2,0,P|370:114|355:81,1,66.0000020141602,10|0,0:0|0:0,0:0:0:0:
273,30,118095,6,0,B|240:39|216:28|216:28|200:42|200:42|175:29|145:39,1,132.00000402832,2|10,3:2|0:0,0:0:0:0:
67,80,118536,2,0,B|53:155|53:155|85:205,1,132.00000402832,2|0,3:2|3:2,0:0:0:0:
146,133,118977,2,0,B|162:155|162:155|165:193,1,66.0000020141602,10|0,0:0|0:0,0:0:0:0:
197,294,119271,6,0,B|237:323|237:323|324:300,1,132.00000402832,2|10,3:2|0:0,0:0:0:0:
401,339,119712,2,0,P|357:291|366:228,1,132.00000402832,2|0,3:2|3:2,0:0:0:0:
457,225,120153,1,10,0:0:0:0:
314,69,120448,6,0,P|324:28|319:-2,2,66.0000020141602,2|2|10,3:2|3:2|0:0,0:0:0:0:
263,146,120889,1,2,3:2:0:0:
182,101,121036,2,0,L|111:100,1,66.0000020141602,2|2,3:2|3:2,0:0:0:0:
61,174,121330,2,0,L|62:239,1,66.0000020141602,10|2,0:0|0:0,0:0:0:0:
167,259,121624,6,0,P|215:294|287:273,1,132.00000402832,2|10,3:2|0:0,0:0:0:0:
332,200,122065,2,0,L|353:342,1,132.00000402832,2|2,3:2|3:2,0:0:0:0:
428,380,122506,2,0,P|444:346|447:313,1,66.0000020141602,10|2,0:0|0:0,0:0:0:0:
472,225,122800,6,0,L|486:102,2,120,6|10|2,3:2|0:0|3:2,0:0:0:0:
393,194,123536,1,2,0:0:0:0:
376,111,123683,2,0,L|377:50,1,60,10|2,0:0|0:0,0:0:0:0:
281,59,123977,6,0,L|280:-2,2,60,2|2|10,3:2|3:2|0:0,0:0:0:0:
224,121,124418,1,2,3:2:0:0:
277,188,124565,2,0,B|292:223|292:223|265:300,1,120,2|10,3:2|0:0,0:0:0:0:
73,300,125153,6,0,B|46:222|46:222|61:187,1,120,2|10,3:2|0:0,0:0:0:0:
95,110,125595,1,2,0:0:0:0:
171,75,125742,2,0,L|176:14,2,60,2|2|10,3:2|0:0|0:0,0:0:0:0:
243,117,126183,1,2,0:0:0:0:
194,200,126330,6,0,L|187:262,1,60,2|2,3:2|3:2,0:0:0:0:
207,340,126624,2,0,L|267:333,1,60,10|2,0:0|3:2,0:0:0:0:
343,367,126918,1,2,3:2:0:0:
436,227,127212,2,0,P|441:186|427:159,1,60,10|2,0:0|3:2,0:0:0:0:
350,123,127506,6,0,P|406:133|440:87,2,120,2|10|2,3:2|0:0|3:2,0:0:0:0:
268,100,128242,1,2,0:0:0:0:
218,167,128389,2,0,P|222:214|230:238,1,60,10|2,0:0|0:0,0:0:0:0:
256,318,128683,6,0,P|226:311|196:310,1,60,2|2,3:2|3:2,0:0:0:0:
125,354,128977,1,10,0:0:0:0:
68,292,129124,1,2,3:2:0:0:
94,212,129271,2,0,P|99:162|66:102,1,120,2|10,3:2|0:0,0:0:0:0:
242,26,129859,6,0,P|297:45|333:92,1,120,2|10,3:2|0:0,0:0:0:0:
341,176,130300,1,2,0:0:0:0:
272,225,130448,2,0,L|319:261,1,60,2|0,3:2|0:0,0:0:0:0:
403,261,130742,2,0,L|420:203,1,60,8|2,0:0|0:0,0:0:0:0:
468,120,131036,6,0,P|478:86|473:51,2,60,2|2|10,3:2|0:0|0:0,0:0:0:0:
395,78,131477,1,2,0:0:0:0:
311,73,131624,2,0,P|314:103|327:130,1,60,2|2,3:2|3:2,0:0:0:0:
260,181,131918,2,0,P|270:209|289:233,1,60,10|2,0:0|3:2,0:0:0:0:
379,267,132212,6,0,P|438:258|496:238,2,120,2|10|2,3:2|0:0|3:2,0:0:0:0:
379,351,132948,1,2,3:2:0:0:
295,359,133095,2,0,P|266:366|236:364,1,60,10|2,0:0|0:0,0:0:0:0:
147,327,133389,6,0,P|146:297|155:268,1,60,2|2,3:2|3:2,0:0:0:0:
235,245,133683,2,0,P|238:215|232:185,1,60,10|2,0:0|3:2,0:0:0:0:
163,137,133977,2,0,P|215:148|262:90,1,120,2|10,3:2|0:0,0:0:0:0:
83,29,134565,6,0,P|29:38|8:110,1,120,2|10,3:2|0:0,0:0:0:0:
45,167,135006,1,2,0:0:0:0:
125,141,135153,2,0,L|124:217,1,60,2|0,3:2|0:0,0:0:0:0:
181,263,135448,1,10,0:0:0:0:
252,218,135595,1,2,0:0:0:0:
328,277,135742,6,0,P|342:245|343:216,1,60,2|2,3:2|3:2,0:0:0:0:
422,191,136036,2,0,P|404:160|380:143,1,60,10|2,0:0|3:2,0:0:0:0:
306,115,136330,1,2,3:2:0:0:
168,211,136624,2,2,L|92:206,1,60,10|2,0:0|3:2,3:2:0:0:
15,232,136918,6,0,B|37:178|37:178|25:117,2,120,2|10|2,3:2|0:0|3:2,0:0:0:0:
52,307,137653,1,2,0:0:0:0:
135,305,137800,2,0,B|167:313|167:313|202:307,1,60,10|2,0:0|0:0,0:0:0:0:
285,277,138095,6,0,L|286:217,1,60,2|2,3:2|3:2,0:0:0:0:
369,208,138389,2,0,L|379:135,1,60,10|2,0:0|3:2,0:0:0:0:
383,64,138683,2,0,P|343:54|257:47,1,120,2|10,3:2|0:0,0:0:0:0:
102,148,139271,6,0,P|79:203|65:262,1,120,2|10,3:2|0:0,0:0:0:0:
137,304,139712,1,2,0:0:0:0:
177,230,139859,2,0,P|225:233|242:241,1,60,2|0,3:2|0:0,0:0:0:0:
318,227,140153,2,0,P|310:274|301:290,1,60,10|2,0:0|0:0,0:0:0:0:
367,361,140448,6,0,L|427:356,2,60,2|2|10,3:2|0:0|0:0,0:0:0:0:
285,381,140889,1,2,0:0:0:0:
205,353,141036,2,0,P|198:314|201:281,1,60,2|2,3:2|3:2,0:0:0:0:
258,233,141330,2,0,P|288:226|318:227,1,60,10|0,0:0|3:2,0:0:0:0:
385,181,141624,5,6,3:2:0:0:
170,76,142506,2,0,P|130:62|106:30,1,71.9999978027344,2|2,0:0|3:2,0:0:0:0:
45,267,143683,1,2,0:0:0:0:
94,328,143977,6,0,P|124:347|160:347,1,71.9999978027344,2|2,3:2|0:0,0:0:0:0:
144,269,144565,2,0,P|179:264|213:275,1,71.9999978027344,2|2,0:0|0:0,0:0:0:0:
285,241,145153,2,0,P|297:189|283:138,1,107.999996704102,2|2,3:2|0:0,0:0:0:0:
170,176,146036,6,0,L|176:104,1,71.9999978027344,2|2,0:0|3:2,0:0:0:0:
391,4,147212,2,0,L|397:75,1,71.9999978027344,2|2,0:0|3:2,0:0:0:0:
410,311,148389,1,2,0:0:0:0:
332,324,148683,6,0,P|287:330|254:321,1,71.9999978027344,2|2,3:2|0:0,0:0:0:0:
218,257,149271,2,0,P|211:221|218:186,1,71.9999978027344,2|2,0:0|0:0,0:0:0:0:
282,141,149859,2,0,P|306:116|311:38,1,107.999996704102,2|2,3:2|0:0,0:0:0:0:
195,58,150742,1,2,0:0:0:0:
137,112,151036,6,0,L|12:105,2,107.999996704102,2|2|2,3:2|0:0|0:0,0:0:0:0:
195,167,152212,2,0,L|319:160,2,107.999996704102,2|2|2,3:2|0:0|0:0,0:0:0:0:
183,245,153389,6,0,P|222:281|248:287,1,71.9999978027344,2|2,3:2|0:0,0:0:0:0:
258,209,153977,2,0,P|225:167|200:157,1,71.9999978027344,2|2,0:0|0:0,0:0:0:0:
130,167,154565,2,0,P|73:172|27:212,1,107.999996704102,2|2,3:2|0:0,0:0:0:0:
38,234,155153,2,0,L|65:315,1,71.9999978027344,2|2,3:2|0:0,0:0:0:0:
157,289,155742,6,0,B|188:323|188:323|177:384,2,107.999996704102,2|2|2,3:2|0:0|0:0,0:0:0:0:
157,209,156918,2,0,B|188:175|188:175|177:114,2,107.999996704102,2|2|2,3:2|0:0|0:0,0:0:0:0:
226,249,158095,6,0,L|277:299,1,71.9999978027344,2|2,3:2|0:0,0:0:0:0:
356,299,158683,2,0,L|407:248,1,71.9999978027344,2|2,0:0|0:0,0:0:0:0:
477,166,159271,5,2,0:0:0:0:
421,73,159565,1,2,0:0:0:0:
345,155,159859,2,0,B|286:153|286:153|256:101,1,120,2|2,0:0|0:0,0:0:0:0:
256,101,160448,6,0,B|221:110|198:98|198:98|183:106|183:106|156:95|127:103,1,132.00000402832,6|10,3:2|0:0,0:0:0:0:
52,49,160889,2,0,P|30:109|58:167,1,132.00000402832,2|0,3:2|3:2,0:0:0:0:
105,246,161330,2,0,L|105:311,1,66.0000020141602,10|0,0:0|0:0,0:0:0:0:
199,362,161624,6,0,B|245:375|245:375|304:368,1,99.0000030212403,2|2,3:2|3:2,0:0:0:0:
340,355,161918,1,10,0:0:0:0:
313,265,162065,2,0,L|448:253,1,132.00000402832,2|0,3:2|3:2,0:0:0:0:
494,175,162506,1,10,0:0:0:0:
339,32,162800,5,2,3:2:0:0:
266,89,162948,1,2,3:2:0:0:
193,33,163095,2,0,B|157:43|157:43|139:64,1,66.0000020141602,10|2,0:0|0:0,0:0:0:0:
155,155,163389,2,0,B|117:158|117:158|93:145,2,66.0000020141602,2|2|10,3:2|3:2|0:0,0:0:0:0:
244,176,163830,1,2,3:2:0:0:
194,254,163977,6,0,B|244:271|244:271|326:252,1,132.00000402832,2|10,3:2|0:0,0:0:0:0:
371,175,164418,2,0,P|355:227|396:287,1,132.00000402832,2|0,3:2|3:2,0:0:0:0:
481,323,164859,1,10,0:0:0:0:
437,117,165153,6,0,P|371:119|305:118,1,132.00000402832,2|10,3:2|0:0,0:0:0:0:
222,76,165595,2,0,B|171:119|171:119|161:189,1,132.00000402832,2|0,3:2|3:2,0:0:0:0:
171,276,166036,2,0,B|200:268|200:268|222:240,1,66.0000020141602,10|0,0:0|0:0,0:0:0:0:
328,239,166330,6,0,B|396:233|396:233|459:273,1,132.00000402832,2|10,3:2|0:0,0:0:0:0:
512,200,166771,2,0,B|473:173|473:173|458:84,1,132.00000402832,2|0,3:2|3:2,0:0:0:0:
436,0,167212,1,10,0:0:0:0:
260,120,167506,5,2,3:2:0:0:
194,55,167653,1,2,3:2:0:0:
114,101,167800,2,0,P|112:133|118:166,1,66.0000020141602,10|2,0:0|3:2,0:0:0:0:
207,193,168095,2,0,P|208:225|203:258,1,66.0000020141602,2|0,3:2|3:2,0:0:0:0:
121,302,168389,2,0,P|121:349|127:374,1,66.0000020141602,10|2,0:0|3:2,0:0:0:0:
230,353,168683,6,0,P|292:366|339:323,1,132.00000402832,2|10,3:2|0:0,0:0:0:0:
414,154,169271,2,0,P|458:160|478:179,1,66.0000020141602,2|0,3:2|3:2,0:0:0:0:
464,265,169565,2,0,P|458:309|439:329,1,66.0000020141602,10|0,0:0|3:2,0:0:0:0:
340,324,169859,6,0,P|281:323|283:264,1,132.00000402832,2|10,3:2|0:0,0:0:0:0:
319,178,170300,2,0,P|321:119|262:117,1,132.00000402832,2|0,3:2|3:2,0:0:0:0:
203,190,170742,2,0,P|170:187|139:175,1,66.0000020141602,10|0,0:0|0:0,0:0:0:0:
55,113,171036,6,0,B|65:47,1,66.0000020141602,2|2,3:2|3:2,0:0:0:0:
149,14,171330,1,10,0:0:0:0:
219,74,171477,2,0,B|271:99|271:99|339:70,1,132.00000402832,2|0,3:2|3:2,0:0:0:0:
423,108,171918,1,10,0:0:0:0:
466,314,172212,6,0,B|425:306|425:306|403:317,1,66.0000020141602,2|2,3:2|3:2,0:0:0:0:
317,350,172506,2,0,B|295:361|295:361|254:353,1,66.0000020141602,10|2,0:0|0:0,0:0:0:0:
193,283,172800,1,2,3:2:0:0:
107,318,172948,1,2,3:2:0:0:
62,237,173095,2,0,L|67:170,1,66.0000020141602,10|2,0:0|3:2,0:0:0:0:
139,94,173389,6,0,B|202:75|199:123|271:94,1,132.00000402832,2|10,3:2|0:0,0:0:0:0:
333,31,173830,2,0,P|313:102|346:153,1,132.00000402832,2|0,3:2|3:2,0:0:0:0:
382,231,174271,2,0,L|378:306,1,66.0000020141602,10|0,0:0|0:0,0:0:0:0:
286,348,174565,6,0,B|268:315|268:315|274:215,1,132.00000402832,2|10,3:2|0:0,0:0:0:0:
185,191,175006,2,0,B|141:234|141:234|63:224,1,132.00000402832,2|0,3:2|3:2,0:0:0:0:
58,132,175448,2,0,L|58:66,1,66.0000020141602,10|0,0:0|0:0,0:0:0:0:
161,39,175742,6,0,P|194:37|305:39,1,132.00000402832,2|10,3:2|0:0,0:0:0:0:
378,2,176183,2,0,P|427:47|443:109,1,132.00000402832,2|0,3:2|3:2,0:0:0:0:
404,192,176624,1,10,0:0:0:0:
203,257,176918,6,0,L|199:322,2,66.0000020141602,2|2|10,3:2|3:2|0:0,0:0:0:0:
147,183,177359,1,2,3:2:0:0:
197,105,177506,2,0,P|178:59|104:26,1,132.00000402832,2|10,3:2|0:0,0:0:0:0:
62,124,177948,1,2,0:0:0:0:
42,215,178095,6,0,L|52:350,1,132.00000402832,2|10,3:2|0:0,0:0:0:0:
236,350,178683,2,0,L|226:215,1,132.00000402832,2|10,3:2|3:2,0:0:0:0:
191,132,179124,1,0,3:2:0:0:
271,48,179271,6,0,B|302:65|337:49|337:49|358:62|358:62|379:50|413:55,1,143.999995605469,6|10,3:2|0:0,0:0:0:0:
429,145,179712,2,0,P|410:211|416:301,1,143.999995605469,2|2,3:2|3:2,0:0:0:0:
332,334,180153,2,0,P|313:302|290:274,1,71.9999978027344,10|0,0:0|0:0,0:0:0:0:
217,196,180448,6,0,P|176:176|109:241,1,143.999995605469,2|10,3:2|0:0,0:0:0:0:
157,313,180889,2,0,P|107:360|45:333,1,143.999995605469,2|2,3:2|3:2,0:0:0:0:
2,250,181330,1,10,0:0:0:0:
96,54,181624,6,0,P|130:45|166:46,1,71.9999978027344,2|2,3:2|3:2,0:0:0:0:
244,98,181918,2,0,P|264:127|279:159,1,71.9999978027344,10|2,0:0|0:0,0:0:0:0:
340,231,182212,2,0,P|381:213|409:194,2,71.9999978027344,2|2|10,3:2|3:2|0:0,0:0:0:0:
248,252,182653,1,2,3:2:0:0:
147,216,182800,6,0,P|87:185|37:231,1,143.999995605469,2|10,3:2|0:0,0:0:0:0:
56,323,183242,2,0,B|124:356|124:356|186:307,1,143.999995605469,2|0,3:2|3:2,0:0:0:0:
248,252,183683,1,10,0:0:0:0:
52,161,183977,6,0,B|45:88|45:88|86:30,1,143.999995605469,2|10,3:2|0:0,0:0:0:0:
130,112,184418,2,0,B|193:138|193:138|274:118,1,143.999995605469,2|2,3:2|3:2,0:0:0:0:
289,29,184859,2,0,B|329:24|329:24|358:37,1,71.9999978027344,10|0,0:0|0:0,0:0:0:0:
444,102,185153,6,0,B|484:107|484:107|513:94,2,71.9999978027344,2|0|10,3:2|3:2|0:0,0:0:0:0:
391,180,185595,2,0,B|288:280,1,143.999995605469,2|0,3:2|3:2,0:0:0:0:
212,336,186036,1,10,0:0:0:0:
53,190,186330,6,0,P|39:146|47:110,2,71.9999978027344,2|2|10,3:2|3:2|0:0,0:0:0:0:
134,144,186771,1,2,3:2:0:0:
216,190,186918,2,0,P|246:208|264:238,1,71.9999978027344,2|2,3:2|3:2,0:0:0:0:
359,238,187212,2,0,P|377:207|408:189,1,71.9999978027344,10|0,0:0|3:2,0:0:0:0:
302,144,187506,6,0,B|305:97|305:97|279:67|279:67|289:-3,1,143.999995605469,2|10,3:2|0:0,0:0:0:0:
103,51,188095,2,0,L|96:134,1,71.9999978027344,2|0,3:2|3:2,0:0:0:0:
58,208,188389,1,10,0:0:0:0:
90,295,188536,1,0,3:2:0:0:
200,262,188683,6,0,L|367:257,1,143.999995605469,2|10,3:2|0:0,0:0:0:0:
362,349,189124,2,0,P|426:306|424:229,1,143.999995605469,2|0,3:2|3:2,0:0:0:0:
440,150,189565,2,0,P|410:132|376:120,1,71.9999978027344,10|0,0:0|0:0,0:0:0:0:
262,113,189859,6,0,P|240:163|199:196,1,107.999996704102,2|2,3:2|3:2,0:0:0:0:
156,177,190153,1,10,0:0:0:0:
134,85,190300,2,0,P|107:32|33:59,1,143.999995605469,2|0,3:2|3:2,0:0:0:0:
1,139,190742,1,10,0:0:0:0:
122,318,191036,6,0,P|135:358|156:389,1,71.9999978027344,2|2,3:2|3:2,0:0:0:0:
219,319,191330,2,0,P|258:332|296:334,1,71.9999978027344,10|2,0:0|0:0,0:0:0:0:
360,274,191624,2,0,P|373:306|377:342,2,71.9999978027344,2|2|10,3:2|3:2|0:0,0:0:0:0:
372,181,192065,1,2,3:2:0:0:
283,118,192212,6,0,P|244:80|159:126,1,143.999995605469,2|10,3:2|0:0,0:0:0:0:
75,86,192653,2,0,P|131:118|125:201,1,143.999995605469,2|0,3:2|3:2,0:0:0:0:
180,271,193095,2,0,P|225:270|257:259,1,71.9999978027344,10|0,0:0|3:2,0:0:0:0:
355,238,193389,6,0,P|355:272|346:307,2,71.9999978027344,2|0|10,3:2|0:0|0:0,0:0:0:0:
429,181,193830,2,0,L|280:177,1,143.999995605469,2|0,3:2|3:2,0:0:0:0:
202,133,194271,1,10,0:0:0:0:
119,177,194418,1,0,3:2:0:0:
187,271,194565,6,0,B|228:288|228:288|327:291,1,143.999995605469,2|10,3:2|0:0,0:0:0:0:
367,375,195006,2,0,B|405:343|405:343|430:244,1,143.999995605469,2|0,3:2|3:2,0:0:0:0:
433,157,195448,1,10,0:0:0:0:
213,85,195742,6,0,P|221:121|221:157,1,71.9999978027344,2|2,3:2|3:2,0:0:0:0:
127,146,196036,2,0,P|131:181|141:216,1,71.9999978027344,10|2,0:0|3:2,0:0:0:0:
215,273,196330,2,0,P|223:309|223:345,1,71.9999978027344,2|2,3:2|3:2,0:0:0:0:
131,326,196624,2,0,P|78:351|59:356,1,71.9999978027344,10|2,0:0|0:0,0:0:0:0:
8,263,196918,6,0,L|21:186,1,71.9999978027344,2|0,3:2|3:2,0:0:0:0:
110,167,197212,1,10,0:0:0:0:
193,210,197359,2,0,B|251:196|251:196|321:242,1,143.999995605469,2|0,3:2|3:2,0:0:0:0:
386,176,197800,1,8,0:0:0:0:
302,133,197948,1,8,0:0:0:0:
340,45,198095,6,0,L|402:50,1,60,6|2,3:2|0:0,0:0:0:0:
477,58,198389,1,10,0:0:0:0:
481,213,198683,2,0,P|480:243|467:271,1,60,2|2,3:2|3:2,0:0:0:0:
396,302,198977,2,0,P|366:301|323:285,1,60,8|2,0:0|3:2,0:0:0:0:
250,253,199271,6,0,L|199:141,1,120,2|8,3:2|0:0,0:0:0:0:
84,245,199859,1,0,0:0:0:0:
17,295,200006,2,0,P|2:264|5:221,2,60,2|10|2,3:2|0:0|3:2,0:0:0:0:
84,245,200448,6,0,L|204:230,1,120,2|8,3:2|0:0,0:0:0:0:
331,338,201036,2,0,P|366:342|393:336,1,60,2|2,3:2|3:2,0:0:0:0:
448,276,201330,2,0,P|453:246|448:216,1,60,10|0,0:0|0:0,0:0:0:0:
387,144,201624,6,0,L|310:145,1,60,2|2,3:2|3:2,0:0:0:0:
279,75,201918,2,0,L|202:74,1,60,10|0,0:0|0:0,0:0:0:0:
171,143,202212,2,0,L|180:223,2,60,2|0|8,3:2|3:2|0:0,0:0:0:0:
124,72,202653,1,2,3:2:0:0:
36,111,202800,6,0,L|18:168,1,60,2|2,3:2|3:2,0:0:0:0:
43,248,203095,1,10,0:0:0:0:
184,338,203389,2,0,L|246:324,1,60,2|2,3:2|3:2,0:0:0:0:
261,242,203683,2,0,L|247:183,1,60,8|2,0:0|3:2,0:0:0:0:
329,130,203977,6,0,B|391:115|391:115|443:134,1,120,2|8,3:2|0:0,0:0:0:0:
426,301,204565,1,0,0:0:0:0:
345,325,204712,2,0,B|338:350|338:350|347:382,2,60,2|10|2,3:2|0:0|3:2,0:0:0:0:
287,248,205153,6,0,B|219:238|219:238|170:256,1,120,2|8,3:2|0:0,0:0:0:0:
37,152,205742,2,0,L|49:85,1,60,2|2,3:2|3:2,0:0:0:0:
115,43,206036,1,10,0:0:0:0:
291,116,206330,6,0,L|354:97,1,60,2|0,3:2|3:2,0:0:0:0:
416,147,206624,2,0,L|414:223,1,60,8|2,0:0|0:0,0:0:0:0:
452,281,206918,2,0,L|522:294,2,60,2|0|10,3:2|3:2|0:0,0:0:0:0:
383,329,207359,1,0,3:2:0:0:
328,275,207506,6,0,L|281:281,2,45.0000017166138,2|0|0,0:0|0:0|0:0,0:0:0:0:
416,147,208095,2,0,L|469:149,2,45.0000017166138
346,119,208536,1,0,0:0:0:0:
269,122,208683,6,0,P|225:118|180:122,1,90.0000034332277,2|2,0:0|0:0,0:0:0:0:
133,204,209271,1,0,0:0:0:0:
66,239,209418,2,0,L|10:239,2,45.0000017166138,2|0|0,0:0|0:0|0:0,0:0:0:0:
125,287,209859,6,0,P|173:293|228:287,1,90.0000034332277,2|0,0:0|0:0,0:0:0:0:
357,339,210448,2,0,L|366:390,2,45.0000017166138,0|0|2,0:0|0:0|0:0,0:0:0:0:
463,229,211036,2,0,L|471:274,2,45.0000017166138,0|0|2,0:0|0:0|0:0,0:0:0:0:
421,81,211624,1,2,0:0:0:0:
421,81,212212,6,0,L|466:81,2,45.0000017166138,2|0|0,0:0|0:0|0:0,0:0:0:0:
272,46,212800,2,0,L|273:-9,2,45.0000017166138
236,114,213242,1,0,0:0:0:0:
276,178,213389,6,0,P|285:218|287:267,1,90.0000034332277,2|2,0:0|0:0,0:0:0:0:
164,355,213977,1,0,0:0:0:0:
114,296,214124,2,0,L|65:306,2,45.0000017166138,2|0|0,0:0|0:0|0:0,0:0:0:0:
143,225,214565,6,0,P|137:192|142:131,1,90.0000034332277,2|0,0:0|0:0,0:0:0:0:
276,66,215153,2,0,L|275:13,2,45.0000017166138,0|0|2,0:0|0:0|0:0,0:0:0:0:
406,146,215742,2,0,L|466:137,2,45.0000017166138,0|0|2,0:0|0:0|0:0,0:0:0:0:
325,290,216330,5,2,0:0:0:0:
