osu file format v14

[General]
AudioFilename: audio.mp3
AudioLeadIn: 0
PreviewTime: 159124
Countdown: 0
SampleSet: Soft
StackLeniency: 0.3
Mode: 0
LetterboxInBreaks: 0
WidescreenStoryboard: 1

[Editor]
Bookmarks: 448,9859,28683,47506,85153,103977,141183,150742,160448,179271,198095,207506
DistanceSpacing: 1.5
BeatDivisor: 4
GridSize: 4
TimelineZoom: 2.532

[Metadata]
Title:Ai no Sukima
TitleUnicode:哀の隙間
Artist:MIMI feat. Hatsune Miku
ArtistUnicode:MIMI feat. 初音ミク
Creator:theramdans
Version:Azure Echo
Source:osu!
Tags:vocaloid sorrow gap 佐藤主税 sato chiiro Cris- Pyrozen featured artist fa mappers' guild mpg japanese pop jpop j-pop
BeatmapID:2920974
BeatmapSetID:1323207

[Difficulty]
HPDrainRate:7
CircleSize:4
OverallDifficulty:8.8
ApproachRate:9.5
SliderMultiplier:1.5
SliderTickRate:1

[Events]
//Background and Video events
0,0,"mikuowo.jpg",0,0
//Break Periods
//Storyboard Layer 0 (Background)
//Storyboard Layer 1 (Fail)
//Storyboard Layer 2 (Pass)
//Storyboard Layer 3 (Foreground)
Sprite,Foreground,Centre,"sb\theramdans.png",0,0 M,0,13683,,320,320 S,0,13683,,0.4444444 F,2,13683,14565,0,1 F,4,18095,19271,1,0
//Storyboard Layer 4 (Overlay)
//Storyboard Sound Samples

[TimingPoints]
448,294.117647058824,4,2,1,35,1,0
448,-133.333333333333,4,2,1,35,0,0
9345,-200,4,2,1,50,0,0
9565,-200,4,2,1,20,0,0
9859,-100,4,2,1,60,0,0
10153,-100,4,2,1,60,0,0
18095,-100,4,2,1,50,0,0
19271,-100,4,2,1,60,0,0
27506,-100,4,2,1,50,0,0
28683,-133.333333333333,4,2,1,20,0,0
30962,-133.333333333333,4,2,1,5,0,0
31036,-133.333333333333,4,2,1,20,0,0
35668,-133.333333333333,4,2,1,5,0,0
35742,-133.333333333333,4,2,1,20,0,0
37212,-200,4,2,1,20,0,0
37506,-200,4,2,1,5,0,0
38095,-100,4,2,1,40,0,0
40374,-100,4,2,1,30,0,0
40448,-100,4,2,1,40,0,0
45080,-100,4,2,1,5,0,0
45153,-100,4,2,1,40,0,0
46330,-100,4,2,1,46,0,0
46624,-100,4,2,1,52,0,0
46918,-100,4,2,1,58,0,0
47212,-100,4,2,1,64,0,0
47506,-90.9090909090909,4,2,1,70,0,1
66330,-100,4,2,1,60,0,0
74565,-100,4,2,1,60,0,0
85153,-133.333333333333,4,2,1,40,0,0
87433,-133.333333333333,4,2,1,5,0,0
87506,-133.333333333333,4,2,1,40,0,0
91918,-133.333333333333,4,2,1,30,0,0
92139,-133.333333333333,4,2,1,5,0,0
92212,-133.333333333333,4,2,1,40,0,0
94565,-100,4,2,1,50,0,0
101550,-100,4,2,1,5,0,0
101624,-100,4,2,1,50,0,0
102800,-100,4,2,1,55,0,0
103242,-100,4,2,1,60,0,0
103683,-100,4,2,1,65,0,0
103977,-90.9090909090909,4,2,1,70,0,1
122359,-90.9090909090909,4,2,1,70,0,0
122800,-100,4,2,1,70,0,1
123095,-100,4,2,1,60,0,1
141624,-166.666666666667,4,2,1,30,0,0
159492,-166.666666666667,4,2,1,5,0,0
159565,-142.857142857143,4,2,1,55,0,0
159786,-142.857142857143,4,2,1,5,0,0
159859,-125,4,2,1,60,0,0
160080,-125,4,2,1,5,0,0
160153,-111.111111111111,4,2,1,65,0,0
160374,-111.111111111111,4,2,1,5,0,0
160448,-90.9090909090909,4,2,1,70,0,1
178977,-90.9090909090909,4,2,1,70,0,0
179271,-83.3333333333333,4,2,1,80,0,1
197800,-83.3333333333333,4,2,1,80,0,0
198095,-100,4,2,1,70,0,1
198389,-100,4,2,1,70,0,0
207506,-133.333333333333,4,2,1,40,0,0

[Colours]
Combo1 : 81,217,189
Combo2 : 51,143,247
Combo3 : 90,207,157
Combo4 : 57,181,240

[HitObjects]
70,132,448,6,0,L|76:187,1,56.2500021457673,2|2,0:0|0:0,0:0:0:0:
129,256,742,1,2,0:0:0:0:
129,256,1036,2,0,L|184:263,1,56.2500021457673,2|2,0:0|0:0,0:0:0:0:
247,300,1330,2,0,L|302:294,1,56.2500021457673,2|2,0:0|0:0,0:0:0:0:
331,226,1624,6,0,B|349:150|349:150|336:115,1,112.500004291535,2|2,0:0|0:0,0:0:0:0:
270,41,2212,1,2,0:0:0:0:
226,66,2359,2,0,L|162:58,2,56.2500021457673,2|2|2,0:0|0:0|0:0,0:0:0:0:
243,138,2800,6,0,B|224:212|224:212|198:236,1,112.500004291535,2|2,0:0|0:0,0:0:0:0:
96,225,3389,2,0,L|40:222,1,56.2500021457673
34,324,3683,1,2,0:0:0:0:
34,324,3977,2,0,L|94:327,1,56.2500021457673
191,312,4271,1,2,0:0:0:0:
336,324,4565,1,2,0:0:0:0:
191,312,5153,6,0,L|189:255,1,56.2500021457673,2|2,0:0|0:0,0:0:0:0:
254,197,5448,1,2,0:0:0:0:
254,197,5742,2,0,P|289:188|310:195,1,56.2500021457673,2|2,0:0|0:0,0:0:0:0:
330,263,6036,2,0,P|358:271|387:265,1,56.2500021457673,2|2,0:0|0:0,0:0:0:0:
439,220,6330,6,0,P|468:173|467:118,1,112.500004291535,2|2,0:0|0:0,0:0:0:0:
428,25,6918,1,2,0:0:0:0:
376,28,7065,2,0,L|314:20,2,56.2500021457673,2|2|2,0:0|0:0|0:0,0:0:0:0:
360,101,7506,6,0,P|298:106|254:79,1,112.500004291535,2|2,0:0|0:0,0:0:0:0:
167,46,8095,2,0,L|102:37,1,56.2500021457673
58,125,8389,1,2,0:0:0:0:
58,125,8683,2,0,L|47:192,1,56.2500021457673
44,253,8977,1,2,0:0:0:0:
181,208,9271,6,0,P|240:265|260:185,1,196.875007510186,2|0,0:0|0:0,0:0:0:0:
350,122,9859,5,6,3:2:0:0:
439,161,10006,1,2,0:0:0:0:
406,301,10153,2,0,B|330:293,1,75,10|0,0:0|0:0,0:0:0:0:
299,200,10448,1,2,3:2:0:0:
208,253,10595,1,2,3:2:0:0:
221,142,10742,1,10,0:0:0:0:
299,200,10889,1,2,3:2:0:0:
310,99,11036,6,0,P|339:38|277:15,1,150,2|8,3:2|0:0,0:0:0:0:
277,15,11624,1,0,0:0:0:0:
123,92,11771,1,2,3:2:0:0:
221,142,11918,1,10,0:0:0:0:
127,202,12065,1,2,3:2:0:0:
123,92,12212,6,0,L|131:17,1,75,2|0,3:2|0:0,0:0:0:0:
194,257,12506,2,0,L|186:331,1,75,8|0,0:0|0:0,0:0:0:0:
286,228,12800,1,2,3:2:0:0:
330,315,12948,1,2,3:2:0:0:
446,199,13095,2,0,L|371:207,1,75,10|0,0:0|0:0,0:0:0:0:
231,174,13389,5,2,3:2:0:0:
194,257,13537,1,2,3:2:0:0:
27,199,13683,2,0,L|102:207,1,75,10|0,0:0|0:0,0:0:0:0:
230,54,13977,2,0,L|155:46,1,75,2|0,3:2|3:2,0:0:0:0:
344,150,14271,2,0,L|419:158,1,75,8|0,0:0|3:2,0:0:0:0:
230,54,14565,5,2,3:2:0:0:
325,32,14712,1,2,0:0:0:0:
203,218,14859,2,0,B|277:214,1,75,8|0,0:0|0:0,0:0:0:0:
241,305,15153,1,2,3:2:0:0:
133,276,15300,1,2,3:2:0:0:
162,384,15448,1,10,0:0:0:0:
241,305,15595,1,2,0:0:0:0:
53,354,15742,6,0,P|13:294|26:222,1,150,2|8,3:2|0:0,0:0:0:0:
26,222,16330,1,0,0:0:0:0:
203,273,16477,1,2,3:2:0:0:
261,185,16624,1,10,0:0:0:0:
145,185,16771,1,2,3:2:0:0:
319,273,16918,6,0,B|327:305|327:305|312:358,1,75,2|0,3:2|0:0,0:0:0:0:
145,185,17212,2,0,B|137:156|137:156|146:112,1,75,8|0,0:0|0:0,0:0:0:0:
21,331,17506,1,2,3:2:0:0:
48,237,17653,1,2,3:2:0:0:
135,384,17800,2,0,B|216:376,1,75,10|0,0:0|0:0,0:0:0:0:
377,233,18095,5,2,3:2:0:0:
450,296,18242,1,2,3:2:0:0:
348,367,18389,2,0,P|328:334|323:297,1,75,10|0,0:0|0:0,0:0:0:0:
361,161,18683,2,0,P|375:195|376:232,1,75,2|0,3:2|3:2,0:0:0:0:
278,112,18977,1,8,0:0:0:0:
156,180,19124,1,2,3:2:0:0:
156,180,19198,1,2,3:2:0:0:
156,180,19271,5,2,3:2:0:0:
69,225,19418,1,2,0:0:0:0:
178,319,19565,2,0,B|209:329|209:329|255:317,1,75,8|0,0:0|0:0,0:0:0:0:
333,267,19859,1,2,3:2:0:0:
219,216,20006,1,2,3:2:0:0:
333,166,20153,1,10,0:0:0:0:
220,116,20300,1,2,3:2:0:0:
331,66,20448,6,0,P|403:75|442:137,1,150,2|8,3:2|0:0,0:0:0:0:
443,137,21036,1,0,0:0:0:0:
333,267,21183,1,2,3:2:0:0:
219,216,21330,1,10,0:0:0:0:
333,166,21477,1,2,3:2:0:0:
220,116,21624,6,0,B|194:99|194:99|149:102,1,75,2|0,3:2|0:0,0:0:0:0:
12,261,21918,2,0,B|33:273|33:273|86:260,1,75,8|0,0:0|0:0,0:0:0:0:
219,216,22212,1,2,3:2:0:0:
254,306,22359,1,2,3:2:0:0:
91,187,22506,2,0,L|80:112,1,75,10|0,0:0|0:0,0:0:0:0:
192,24,22800,5,2,3:2:0:0:
220,116,22947,1,2,3:2:0:0:
343,7,23095,2,0,P|349:44|343:81,1,75,10|0,0:0|0:0,0:0:0:0:
219,216,23389,2,0,P|212:253|218:289,1,75,2|0,3:2|3:2,0:0:0:0:
343,247,23683,2,0,P|350:210|344:174,1,75,8|0,0:0|3:2,0:0:0:0:
219,140,23977,5,2,3:2:0:0:
137,191,24124,1,2,0:0:0:0:
282,303,24271,2,0,B|213:333,1,75,8|0,0:0|0:0,0:0:0:0:
137,274,24565,1,2,3:2:0:0:
254,232,24712,1,2,3:2:0:0:
137,191,24859,1,10,0:0:0:0:
255,150,25006,1,2,3:2:0:0:
136,108,25153,6,0,P|70:135|53:206,1,150,2|8,3:2|0:0,0:0:0:0:
54,206,25742,1,0,0:0:0:0:
238,261,25889,1,2,3:2:0:0:
255,150,26036,1,10,0:0:0:0:
353,223,26183,1,2,3:2:0:0:
238,261,26330,6,0,P|200:263|163:262,1,75,2|0,3:2|0:0,0:0:0:0:
217,72,26624,2,0,P|254:68|291:70,1,75,8|0,0:0|0:0,0:0:0:0:
400,164,26918,1,2,3:2:0:0:
438,75,27065,1,2,3:2:0:0:
512,222,27212,2,0,P|480:241|443:247,1,75,10|0,0:0|0:0,0:0:0:0:
320,172,27506,5,2,3:2:0:0:
287,249,27653,1,2,3:2:0:0:
172,127,27800,2,0,P|159:162|169:198,1,75,10|0,0:0|0:0,0:0:0:0:
285,320,28095,2,0,P|296:284|287:248,1,75,2|0,3:2|3:2,0:0:0:0:
92,124,28389,1,10,0:0:0:0:
92,124,28536,1,0,3:2:0:0:
92,124,28683,6,0,P|96:69|117:17,1,112.500004291535,6|0,3:2|0:0,0:0:0:0:
117,17,29271,1,2,0:0:0:0:
235,155,29565,1,2,0:0:0:0:
235,155,29712,1,2,0:0:0:0:
235,155,29859,6,0,P|291:160|340:184,1,112.500004291535,2|0,0:0|0:0,0:0:0:0:
305,360,30448,1,2,0:0:0:0:
166,283,30742,2,0,P|163:229|169:192,1,84.3750032186509,2|0,0:0|0:0,0:0:0:0:
144,178,31036,6,0,P|89:186|33:178,1,112.500004291535,2|0,0:0|0:0,0:0:0:0:
34,179,31624,1,2,0:0:0:0:
146,68,31918,1,2,0:0:0:0:
146,68,32065,1,2,0:0:0:0:
146,68,32212,6,0,P|197:45|252:49,1,112.500004291535,2|0,0:0|0:0,0:0:0:0:
253,50,32800,1,2,0:0:0:0:
394,116,33095,1,2,0:0:0:0:
394,116,33242,1,2,0:0:0:0:
394,116,33389,6,0,L|381:227,1,112.500004291535,2|0,0:0|0:0,0:0:0:0:
382,228,33977,1,2,0:0:0:0:
236,165,34271,1,2,0:0:0:0:
236,165,34418,1,2,0:0:0:0:
236,165,34565,5,2,0:0:0:0:
316,300,34859,1,2,0:0:0:0:
437,168,35153,1,2,0:0:0:0:
332,50,35448,2,0,P|289:50|247:54,1,84.3750032186509,2|0,0:0|0:0,0:0:0:0:
214,74,35742,6,0,P|204:129|200:185,1,112.500004291535,2|2,0:0|0:0,0:0:0:0:
359,180,36330,2,0,P|354:236|342:290,1,112.500004291535,2|2,0:0|0:0,0:0:0:0:
227,154,36918,1,2,0:0:0:0:
227,154,37065,1,2,0:0:0:0:
227,154,37212,2,0,L|205:302,1,150,2|0,0:0|0:0,0:0:0:0:
227,154,38095,6,0,P|297:136|351:185,1,150,2|2,3:2|0:0,0:0:0:0:
289,259,38536,1,2,0:0:0:0:
227,154,38683,1,0,3:2:0:0:
92,289,38830,1,2,0:0:0:0:
92,289,38977,2,0,B|117:317|117:317|161:322,1,75,2|2,0:0|0:0,0:0:0:0:
246,351,39271,6,0,B|305:333|305:333|393:350,1,150,2|2,3:2|0:0,0:0:0:0:
435,239,39712,1,2,0:0:0:0:
435,239,39859,2,0,L|357:258,1,75,0|2,3:2|0:0,0:0:0:0:
271,187,40153,2,0,P|220:170|173:199,1,112.5,2|0,0:0|0:0,0:0:0:0:
147,222,40448,6,0,P|87:258|11:240,1,150,2|2,3:2|0:0,0:0:0:0:
71,163,40889,2,0,P|62:109|66:89,1,75,2|0,0:0|3:2,0:0:0:0:
220,170,41183,1,2,0:0:0:0:
220,170,41330,2,0,P|229:224|225:244,1,75,2|2,0:0|0:0,0:0:0:0:
163,346,41624,6,0,P|96:318|41:363,1,150,2|2,3:2|0:0,0:0:0:0:
42,227,42065,1,2,0:0:0:0:
42,227,42212,2,0,P|79:232|113:216,1,75,0|0,3:2|0:0,0:0:0:0:
137,122,42506,2,0,P|132:85|148:51,1,75,2|2,3:2|0:0,0:0:0:0:
264,102,42800,6,0,B|298:169|298:169|278:240,1,150,2|2,3:2|0:0,0:0:0:0:
182,263,43242,1,0,0:0:0:0:
241,356,43389,2,0,P|296:361|348:342,1,112.5,2|0,3:2|0:0,0:0:0:0:
364,331,43683,2,0,P|373:294|363:258,1,75,2|2,0:0|0:0,0:0:0:0:
225,113,43977,6,0,P|151:116|81:158,1,150,2|2,3:2|0:0,0:0:0:0:
58,246,44418,1,2,0:0:0:0:
149,279,44565,2,0,P|177:330|185:359,1,75,0|0,3:2|0:0,0:0:0:0:
292,259,44859,2,0,P|347:267|402:256,1,112.5,2|0,0:0|0:0,0:0:0:0:
414,243,45153,6,0,P|457:227|498:226,1,75,2|0,3:2|0:0,0:0:0:0:
375,113,45448,2,0,P|420:111|460:122,1,75,2|0,0:0|0:0,0:0:0:0:
308,177,45742,2,0,P|271:179|235:172,1,75,2|0,3:2|0:0,0:0:0:0:
235,57,46036,2,0,P|275:37|316:32,1,75,2|0,0:0|0:0,0:0:0:0:
95,58,46330,6,0,P|60:46|23:43,1,75,2|0,3:2|0:0,0:0:0:0:
308,177,46624,2,0,P|343:189|380:191,1,75,2|0,3:2|0:0,0:0:0:0:
93,177,46918,2,0,P|58:189|21:192,1,75,2|0,3:2|0:0,0:0:0:0:
308,58,47212,2,0,P|343:46|380:43,1,75,2|0,3:2|0:0,0:0:0:0:
203,371,47506,6,0,B|211:325|190:305|190:305|194:289|194:289|177:251|195:208,1,165.000005035401,6|10,3:2|0:0,0:0:0:0:
124,25,47948,2,0,P|52:32|75:100,1,165.000005035401,2|0,3:2|3:2,0:0:0:0:
234,33,48389,2,0,L|235:116,1,82.5000025177003,10|0,0:0|0:0,0:0:0:0:
39,273,48683,6,0,L|40:190,1,82.5000025177003,2|0,3:2|0:0,0:0:0:0:
235,116,48977,1,10,0:0:0:0:
290,274,49124,2,0,P|347:240|383:143,1,165.000005035401,2|0,3:2|3:2,0:0:0:0:
111,172,49565,2,0,L|126:253,1,82.5000025177003,10|2,0:0|3:2,0:0:0:0:
126,253,49786,1,2,3:2:0:0:
126,253,49859,5,2,3:2:0:0:
203,178,50006,1,2,3:2:0:0:
183,334,50153,1,10,0:0:0:0:
256,258,50300,1,2,3:2:0:0:
9,217,50448,5,2,3:2:0:0:
203,178,50595,1,2,3:2:0:0:
4,98,50742,1,10,0:0:0:0:
126,253,50889,1,2,3:2:0:0:
159,101,51036,6,0,P|238:96|289:157,1,165.000005035401,2|10,3:2|0:0,0:0:0:0:
183,334,51477,2,0,P|261:341|315:282,1,165.000005035401,2|0,3:2|3:2,0:0:0:0:
226,21,51918,2,0,P|219:61|239:97,1,82.5000025177003,10|0,0:0|0:0,0:0:0:0:
476,1,52212,6,0,B|496:38|478:70|478:70|492:85|492:85|475:117|492:157,1,165.000005035401,2|10,3:2|0:0,0:0:0:0:
372,319,52653,2,0,P|440:344|494:276,1,165.000005035401,2|0,3:2|3:2,0:0:0:0:
329,90,53095,2,0,L|306:170,1,82.5000025177003,10|0,0:0|0:0,0:0:0:0:
78,116,53389,6,0,L|56:37,1,82.5000025177003,2|0,3:2|0:0,0:0:0:0:
306,170,53683,1,10,0:0:0:0:
154,247,53830,2,0,P|200:313|279:312,1,165.000005035401,2|0,3:2|3:2,0:0:0:0:
447,139,54271,2,0,L|437:221,1,82.5000025177003,10|2,0:0|3:2,0:0:0:0:
437,221,54492,1,2,3:2:0:0:
437,221,54565,5,2,3:2:0:0:
280,312,54712,1,2,3:2:0:0:
434,384,54859,1,10,0:0:0:0:
326,202,55006,1,2,3:2:0:0:
201,384,55153,5,2,3:2:0:0:
84,264,55300,1,2,3:2:0:0:
178,103,55448,2,0,B|186:145|186:145|174:184,1,82.5000025177003,10|0,0:0|0:0,0:0:0:0:
5,345,55742,6,0,B|39:364|39:364|80:349,1,82.5000025177003,2|0,3:2|3:2,0:0:0:0:
259,261,56036,2,0,B|218:246|218:246|184:265,1,82.5000025177003,10|0,0:0|0:0,0:0:0:0:
32,114,56330,2,0,L|49:34,1,82.5000025177003,2|0,3:2|3:2,0:0:0:0:
287,121,56624,2,0,L|361:87,1,82.5000025177003,10|0,0:0|3:2,0:0:0:0:
461,336,56918,6,0,B|425:326|398:344|398:344|376:332|376:332|339:356|306:348,1,165.000005035401,2|10,3:2|0:0,0:0:0:0:
119,112,57359,2,0,P|45:112|52:185,1,165.000005035401,2|0,3:2|3:2,0:0:0:0:
147,301,57800,2,0,L|142:384,1,82.5000025177003,10|0,0:0|0:0,0:0:0:0:
295,291,58095,6,0,B|312:304|312:304|373:296,1,82.5000025177003,2|0,3:2|3:2,0:0:0:0:
373,296,58315,1,2,3:2:0:0:
373,296,58389,1,10,0:0:0:0:
459,90,58536,2,0,B|476:58|476:58|348:76,1,165.000005035401,2|0,3:2|3:2,0:0:0:0:
293,211,58977,2,0,B|285:233|285:233|295:291,1,82.5000025177003,10|0,0:0|0:0,0:0:0:0:
75,117,59271,5,2,3:2:0:0:
308,133,59418,1,2,3:2:0:0:
223,22,59565,1,10,0:0:0:0:
207,255,59712,1,2,3:2:0:0:
353,37,59859,5,2,3:2:0:0:
75,117,60006,1,2,3:2:0:0:
308,133,60153,1,10,0:0:0:0:
30,213,60300,1,2,3:2:0:0:
323,365,60448,6,0,P|363:352|393:325,1,82.5000025177003,2|2,3:2|3:2,0:0:0:0:
393,325,60668,1,2,3:2:0:0:
393,325,60742,1,10,0:0:0:0:
279,202,60889,2,0,P|215:247|230:323,1,165.000005035401,2|0,3:2|3:2,0:0:0:0:
421,166,61330,2,0,P|431:205|420:254,1,82.5000025177003,10|0,0:0|0:0,0:0:0:0:
337,13,61624,6,0,B|295:33|268:13|268:13|237:25|237:25|204:14|179:23,1,165.000005035401,2|10,3:2|0:0,0:0:0:0:
88,240,62065,2,0,P|20:202|23:124,1,165.000005035401,2|0,3:2|0:0,0:0:0:0:
179,23,62506,2,0,L|185:106,1,82.5000025177003,10|0,0:0|0:0,0:0:0:0:
78,322,62800,6,0,L|88:240,1,82.5000025177003,2|0,3:2|0:0,0:0:0:0:
343,367,63095,1,10,0:0:0:0:
406,172,63242,2,0,B|292:164|292:164|328:205,1,165.000005035401,2|0,3:2|3:2,0:0:0:0:
222,312,63683,2,0,L|228:229,1,82.5000025177003,10|2,0:0|3:2,0:0:0:0:
228,229,63903,1,2,3:2:0:0:
228,229,63977,5,2,3:2:0:0:
115,147,64124,1,2,3:2:0:0:
341,147,64271,1,10,0:0:0:0:
228,229,64418,1,2,3:2:0:0:
362,26,64565,5,2,3:2:0:0:
490,197,64712,1,2,3:2:0:0:
469,76,64859,1,10,0:0:0:0:
341,147,65006,1,2,3:2:0:0:
161,19,65153,6,0,P|120:25|84:45,1,82.5000025177003,2|0,3:2|0:0,0:0:0:0:
228,229,65448,1,10,0:0:0:0:
66,371,65595,2,0,P|16:307|14:225,1,165.000005035401,2|0,3:2|3:2,0:0:0:0:
203,346,66036,1,8,0:0:0:0:
328,215,66183,1,8,3:2:0:0:
328,215,66256,1,8,3:2:0:0:
328,215,66330,5,6,3:2:0:0:
306,310,66477,1,2,0:0:0:0:
115,147,66624,2,0,B|169:200,1,75,10|0,0:0|0:0,0:0:0:0:
241,132,66918,1,2,3:2:0:0:
359,190,67065,1,2,3:2:0:0:
395,92,67212,1,10,0:0:0:0:
277,34,67359,1,2,3:2:0:0:
416,9,67506,6,0,B|471:52|471:52|483:131,1,150,2|8,3:2|0:0,0:0:0:0:
483,131,68095,1,0,0:0:0:0:
343,233,68242,1,2,3:2:0:0:
310,118,68389,1,10,0:0:0:0:
230,203,68536,1,2,3:2:0:0:
343,233,68683,6,0,P|344:271|337:307,1,75,2|0,3:2|0:0,0:0:0:0:
230,203,68977,2,0,P|224:164|228:127,1,75,8|0,0:0|0:0,0:0:0:0:
366,164,69271,1,2,3:2:0:0:
389,69,69418,1,2,3:2:0:0:
512,229,69565,2,0,P|477:242|440:247,1,75,10|0,0:0|0:0,0:0:0:0:
306,199,69859,5,2,3:2:0:0:
348,286,70006,1,2,3:2:0:0:
381,99,70153,2,0,P|375:62|361:26,1,75,10|0,0:0|0:0,0:0:0:0:
176,122,70448,2,0,P|181:158|195:194,1,75,2|0,3:2|3:2,0:0:0:0:
438,297,70742,2,0,P|432:260|419:226,1,75,8|0,0:0|3:2,0:0:0:0:
176,122,71036,5,2,3:2:0:0:
99,182,71183,1,2,0:0:0:0:
157,346,71330,2,0,B|165:271,1,75,8|0,0:0|0:0,0:0:0:0:
230,167,71624,1,2,3:2:0:0:
324,228,71771,1,2,3:2:0:0:
330,131,71918,1,10,0:0:0:0:
425,200,72065,1,2,3:2:0:0:
419,95,72212,6,0,P|368:43|295:39,1,150,2|8,3:2|0:0,0:0:0:0:
296,40,72800,1,0,0:0:0:0:
342,200,72948,1,2,3:2:0:0:
237,142,73095,1,10,0:0:0:0:
237,259,73242,1,2,3:2:0:0:
342,200,73389,6,0,P|345:235|332:270,1,75,2|0,3:2|0:0,0:0:0:0:
166,188,73683,2,0,P|152:153|154:116,1,75,8|0,0:0|0:0,0:0:0:0:
268,28,73977,1,2,3:2:0:0:
286,123,74124,1,2,3:2:0:0:
445,51,74271,2,0,P|421:45|358:60,1,75,10|0,0:0|0:0,0:0:0:0:
455,171,74565,5,2,3:2:0:0:
417,246,74712,1,2,3:2:0:0:
287,189,74859,2,0,P|277:224|280:261,1,75,10|0,0:0|0:0,0:0:0:0:
170,151,75153,2,0,P|173:113|162:78,1,75,2|0,3:2|3:2,0:0:0:0:
76,125,75448,1,8,0:0:0:0:
163,296,75595,1,2,3:2:0:0:
163,296,75668,1,2,3:2:0:0:
163,296,75742,5,2,3:2:0:0:
73,334,75889,1,2,0:0:0:0:
112,195,76036,2,0,L|186:185,1,75,8|0,0:0|0:0,0:0:0:0:
250,111,76330,1,2,3:2:0:0:
290,232,76477,1,2,3:2:0:0:
368,149,76624,1,10,0:0:0:0:
408,269,76771,1,2,3:2:0:0:
485,186,76918,6,0,P|486:112|440:54,1,150,2|8,3:2|0:0,0:0:0:0:
441,55,77506,1,0,0:0:0:0:
318,171,77653,1,2,3:2:0:0:
208,101,77800,1,8,0:0:0:0:
197,236,77948,1,2,3:2:0:0:
318,171,78095,6,0,L|327:245,1,75,2|0,3:2|0:0,0:0:0:0:
208,101,78389,2,0,L|225:16,1,75,8|0,0:0|0:0,0:0:0:0:
358,82,78683,1,2,3:2:0:0:
411,0,78830,1,2,3:2:0:0:
512,157,78977,2,0,P|474:163|437:163,1,75,10|0,0:0|0:0,0:0:0:0:
299,117,79271,5,2,3:2:0:0:
330,209,79418,1,2,3:2:0:0:
201,165,79565,2,0,P|201:203|207:240,1,75,10|0,0:0|0:0,0:0:0:0:
333,363,79859,2,0,P|333:325|327:288,1,75,2|0,3:2|3:2,0:0:0:0:
111,309,80153,2,0,P|111:347|117:384,1,75,8|0,0:0|3:2,0:0:0:0:
278,223,80448,5,2,3:2:0:0:
201,165,80595,1,2,3:2:0:0:
374,120,80742,2,0,B|447:135,1,75,8|0,0:0|0:0,0:0:0:0:
384,211,81036,1,2,3:2:0:0:
478,267,81183,1,2,3:2:0:0:
382,322,81330,1,10,0:0:0:0:
477,381,81477,1,2,3:2:0:0:
384,211,81624,6,0,P|311:220|269:279,1,150,2|8,3:2|0:0,0:0:0:0:
270,280,82212,1,0,0:0:0:0:
138,168,82359,1,2,3:2:0:0:
246,142,82506,1,10,0:0:0:0:
168,61,82653,1,2,3:2:0:0:
138,168,82800,6,0,B|133:242,1,75,2|0,3:2|0:0,0:0:0:0:
246,142,83095,2,0,B|250:67,1,75,8|0,0:0|0:0,0:0:0:0:
363,164,83389,1,2,3:2:0:0:
387,69,83536,1,2,3:2:0:0:
285,217,83683,2,0,L|320:303,1,75,10|0,0:0|0:0,0:0:0:0:
458,237,83977,5,2,3:2:0:0:
430,330,84124,1,2,3:2:0:0:
363,164,84271,2,0,L|291:124,1,75,10|0,0:0|0:0,0:0:0:0:
124,222,84565,2,0,L|190:269,1,75,2|0,3:2|3:2,0:0:0:0:
240,67,84859,1,8,0:0:0:0:
240,67,85006,1,0,3:2:0:0:
240,67,85153,6,0,P|190:45|134:61,1,112.500004291535,6|2,3:2|0:3,0:0:0:0:
184,141,85595,1,0,3:2:0:0:
66,110,85742,2,0,P|64:137|69:165,1,56.2500021457673,8|0,0:0|0:0,0:0:0:0:
144,251,86036,1,2,3:3:0:0:
144,251,86183,1,2,0:0:0:0:
144,251,86330,6,0,B|163:301|163:301|148:363,2,112.500004291535,2|2|8,0:0|3:3|0:0,0:0:0:0:
214,133,87212,2,0,L|306:141,1,84.3750032186509,2|0,0:3|0:0,0:0:0:0:
331,156,87506,6,0,B|345:192|345:192|325:263,1,112.500004291535,2|2,3:2|0:3,0:0:0:0:
282,352,87948,1,0,3:2:0:0:
202,238,88095,1,8,0:0:0:0:
202,238,88242,2,0,P|197:264|203:294,2,56.2500021457673,2|2|2,0:0|3:3|0:0,0:0:0:0:
345,192,88683,6,0,B|411:186|411:186|461:201,2,112.500004291535,2|2|8,0:0|3:3|0:0,0:0:0:0:
238,57,89565,1,2,0:3:0:0:
238,57,89712,1,2,0:0:0:0:
238,57,89859,6,0,P|201:40|126:68,1,112.500004291535,2|2,3:2|0:3,0:0:0:0:
188,116,90300,1,0,3:2:0:0:
287,143,90448,2,0,L|272:197,1,56.2500021457673,8|0,0:0|0:0,0:0:0:0:
164,302,90742,1,2,3:3:0:0:
164,302,90889,1,2,0:0:0:0:
164,302,91036,6,0,B|145:273|145:273|152:181,2,112.500004291535,2|2|8,0:0|3:3|0:0,0:0:0:0:
287,29,91918,2,0,P|304:63|289:108,1,84.3750032186509,2|0,0:3|0:0,0:0:0:0:
277,139,92212,6,0,P|254:194|280:253,1,112.500004291535,2|2,3:2|0:3,0:0:0:0:
334,194,92653,1,0,3:2:0:0:
260,323,92800,2,0,P|236:337|209:336,1,56.2500021457673,10|0,0:0|0:0,0:0:0:0:
89,242,93095,2,0,L|89:321,1,75.000002861023,2|2,0:3|0:0,0:0:0:0:
44,382,93389,6,0,B|12:347|12:347|14:279,1,112.500004291535,2|10,3:2|0:0,0:0:0:0:
119,166,93830,1,2,0:0:0:0:
422,242,94271,1,8,0:0:0:0:
422,242,94418,1,8,0:0:0:0:
422,242,94565,6,0,P|398:182|348:224,1,150,2|2,3:2|0:3,0:0:0:0:
287,358,95006,1,2,0:0:0:0:
287,358,95153,2,0,B|323:344|323:344|344:313,1,75,8|0,3:2|0:0,0:0:0:0:
258,253,95448,1,2,0:3:0:0:
348,224,95595,1,2,0:0:0:0:
258,253,95742,6,0,B|195:219|195:219|111:242,1,150,2|2,3:2|0:3,0:0:0:0:
71,107,96183,1,2,0:0:0:0:
71,107,96330,2,0,B|105:124|105:124|121:161,1,75,8|0,3:2|0:0,0:0:0:0:
113,314,96624,1,2,0:3:0:0:
27,266,96771,1,0,0:0:0:0:
247,272,96918,6,0,B|218:289|186:273|186:273|207:321|181:364,1,150,2|2,3:2|0:3,0:0:0:0:
324,232,97359,1,2,0:0:0:0:
324,232,97506,2,0,B|335:270|335:270|326:307,1,75,8|2,3:2|0:0,0:0:0:0:
345,140,97800,1,2,0:3:0:0:
258,97,97948,1,2,0:0:0:0:
345,140,98095,6,0,P|381:198|323:231,1,150,2|2,3:2|0:3,0:0:0:0:
156,196,98536,1,2,0:0:0:0:
156,196,98683,2,0,B|161:236|161:236|183:267,1,75,8|0,3:2|0:0,0:0:0:0:
291,352,98977,1,2,3:3:0:0:
374,301,99124,1,2,0:0:0:0:
291,352,99271,6,0,L|136:373,1,150,2|2,3:2|0:3,0:0:0:0:
3,226,99712,1,2,0:0:0:0:
3,226,99859,2,0,B|33:212|33:212|75:214,1,75,8|0,3:2|0:0,0:0:0:0:
210,242,100153,1,2,0:3:0:0:
123,287,100300,1,2,0:0:0:0:
142,117,100448,6,0,B|204:151|204:151|256:115,1,112.5,0|2,3:2|0:0,0:0:0:0:
270,89,100742,1,2,0:3:0:0:
209,12,100889,1,2,0:0:0:0:
84,60,101036,2,0,B|61:85|61:85|66:134,1,75,8|0,3:2|0:0,0:0:0:0:
270,89,101330,2,0,B|323:85|323:85|358:37,1,112.5,2|0,0:3|0:0,0:0:0:0:
366,30,101624,6,0,L|383:191,1,150,2|2,3:2|0:3,0:0:0:0:
269,316,102065,1,2,0:0:0:0:
269,316,102212,2,0,P|306:318|347:310,1,75,10|0,3:2|0:0,0:0:0:0:
231,185,102506,2,0,P|190:173|155:170,1,75,2|2,0:3|0:3,0:0:0:0:
38,240,102800,6,0,P|23:200|38:165,2,75,8|2|2,3:2|0:3|0:3,0:0:0:0:
169,315,103242,1,8,0:0:0:0:
169,315,103389,2,0,P|184:355|169:390,1,75,2|2,0:3|0:3,0:0:0:0:
312,255,103683,2,0,P|292:217|302:180,1,75,10|2,0:0|0:3,0:0:0:0:
456,19,103977,6,0,B|417:31|395:15|395:15|379:33|379:33|340:12|293:32,1,165.000005035401,6|10,3:2|0:0,0:0:0:0:
111,161,104418,2,0,P|69:95|107:16,1,165.000005035401,2|0,3:2|3:2,0:0:0:0:
222,168,104859,2,0,L|219:264,1,82.5000025177003,10|0,0:0|0:0,0:0:0:0:
446,370,105153,6,0,L|443:287,1,82.5000025177003,2|2,3:2|3:2,0:0:0:0:
443,288,105374,1,2,3:2:0:0:
443,288,105448,1,10,0:0:0:0:
489,147,105595,2,0,B|511:110|511:110|390:120,1,165.000005035401,2|0,3:2|3:2,0:0:0:0:
222,168,106036,2,0,L|250:246,1,82.5000025177003,10|2,0:0|3:2,0:0:0:0:
250,246,106256,1,2,3:2:0:0:
250,246,106330,5,2,3:2:0:0:
455,185,106477,1,2,3:2:0:0:
348,66,106624,1,10,0:0:0:0:
370,277,106771,1,2,3:2:0:0:
174,36,106918,6,0,L|256:31,1,82.5000025177003,2|2,3:2|3:2,0:0:0:0:
122,249,107212,2,0,L|39:244,1,82.5000025177003,10|2,0:0|3:2,0:0:0:0:
221,120,107506,5,2,3:2:0:0:
375,221,107653,1,2,3:2:0:0:
375,221,107727,1,2,3:2:0:0:
375,221,107800,1,10,0:0:0:0:
236,335,107948,2,0,P|158:320|122:249,1,165.000005035401,2|0,3:2|3:2,0:0:0:0:
22,105,108389,2,0,L|-1:192,1,82.5000025177003,10|0,0:0|0:0,0:0:0:0:
258,46,108683,6,0,B|245:84|266:106|266:106|252:129|252:129|275:159|257:206,1,165.000005035401,2|10,3:2|0:0,0:0:0:0:
136,352,109124,2,0,P|159:281|228:307,1,165.000005035401,2|0,3:2|3:2,0:0:0:0:
395,275,109565,2,0,L|374:369,1,82.5000025177003,10|0,0:0|0:0,0:0:0:0:
135,210,109859,6,0,L|154:122,1,82.5000025177003,2|0,3:2|0:0,0:0:0:0:
320,12,110153,1,10,0:0:0:0:
433,146,110300,2,0,B|462:114|462:114|339:124,1,165.000005035401,2|0,3:2|3:2,0:0:0:0:
135,210,110742,2,0,L|216:226,1,82.5000025177003,10|2,0:0|3:2,0:0:0:0:
216,226,110962,1,2,3:2:0:0:
216,226,111036,5,2,3:2:0:0:
255,343,111183,1,2,3:2:0:0:
416,225,111330,1,10,0:0:0:0:
378,344,111477,1,2,3:2:0:0:
316,153,111624,5,2,3:2:0:0:
255,343,111771,1,2,3:2:0:0:
416,225,111918,1,10,0:0:0:0:
216,225,112065,1,2,3:2:0:0:
417,113,112212,6,0,P|361:55|271:42,1,165.000005035401,2|8,3:2|0:0,0:0:0:0:
8,141,112653,1,2,0:0:0:0:
83,216,112800,2,0,B|109:182|109:182|115:143,1,82.5000025177003,2|0,3:2|3:2,0:0:0:0:
249,336,113095,2,0,B|208:348|208:348|180:376,1,82.5000025177003,10|0,0:0|3:2,0:0:0:0:
341,229,113389,6,0,P|411:268|422:347,1,165.000005035401,2|10,3:2|0:0,0:0:0:0:
512,124,113830,2,0,P|436:143|391:80,1,165.000005035401,2|0,3:2|3:2,0:0:0:0:
230,13,114271,2,0,L|318:0,1,82.5000025177003,10|0,0:0|0:0,0:0:0:0:
209,168,114565,6,0,L|127:155,1,82.5000025177003,2|2,3:2|3:2,0:0:0:0:
127,155,114786,1,2,3:2:0:0:
127,155,114859,1,10,0:0:0:0:
31,275,115006,2,0,B|76:261|76:261|51:378,1,165.000005035401,2|0,3:2|3:2,0:0:0:0:
208,330,115448,2,0,L|221:249,1,82.5000025177003,10|2,0:0|3:2,0:0:0:0:
221,249,115668,1,2,3:2:0:0:
221,249,115742,5,2,3:2:0:0:
121,206,115889,1,2,3:2:0:0:
316,171,116036,1,10,0:0:0:0:
221,249,116183,1,2,3:2:0:0:
284,68,116330,5,2,3:2:0:0:
90,103,116477,1,2,3:2:0:0:
371,10,116624,1,10,0:0:0:0:
177,43,116771,1,2,3:2:0:0:
384,183,116918,5,2,3:2:0:0:
192,183,117065,1,2,3:2:0:0:
192,183,117139,1,2,3:2:0:0:
192,183,117212,1,10,0:0:0:0:
437,250,117359,2,0,P|470:179|413:105,1,165.000005035401,2|0,3:2|3:2,0:0:0:0:
150,313,117800,2,0,B|232:308,1,82.5000025177003,10|0,0:0|0:0,0:0:0:0:
1,191,118095,6,0,B|-6:149|12:125|12:125|-3:109|-3:109|19:87|7:38,1,165.000005035401,2|10,3:2|0:0,0:0:0:0:
202,150,118536,2,0,P|260:97|250:5,1,165.000005035401,2|0,3:2|3:2,0:0:0:0:
73,230,118977,2,0,B|155:237,1,82.5000025177003,10|0,0:0|0:0,0:0:0:0:
391,163,119271,6,0,B|308:171,1,82.5000025177003,2|0,3:2|0:0,0:0:0:0:
123,339,119565,1,10,0:0:0:0:
25,162,119712,2,0,B|46:77|46:77|116:41,1,165.000005035401,2|0,3:2|3:2,0:0:0:0:
187,193,120153,2,0,L|176:279,1,82.5000025177003,10|0,0:0|0:0,0:0:0:0:
434,193,120448,5,2,3:2:0:0:
372,301,120595,1,2,3:2:0:0:
187,193,120742,1,10,0:0:0:0:
249,301,120889,1,2,3:2:0:0:
372,86,121036,5,2,3:2:0:0:
249,86,121183,1,2,3:2:0:0:
372,301,121330,1,10,0:0:0:0:
249,301,121477,1,2,3:2:0:0:
188,145,121624,6,0,L|194:227,1,82.5000025177003,2|0,3:2|3:2,0:0:0:0:
352,42,121918,1,10,0:0:0:0:
468,130,122065,2,0,P|411:188|331:186,1,165.000005035401,2|2,3:2|3:2,0:0:0:0:
216,17,122506,1,10,0:0:0:0:
331,187,122653,1,2,3:2:0:0:
331,187,122727,1,2,3:2:0:0:
331,187,122800,6,0,P|333:237|322:271,1,75,6|0,3:2|0:0,0:0:0:0:
156,367,123095,2,0,P|147:331|150:294,1,75,10|0,0:0|0:0,0:0:0:0:
331,187,123389,1,2,3:2:0:0:
406,340,123536,1,2,0:0:0:0:
154,183,123683,2,0,P|119:193|92:219,1,75,10|2,0:0|0:0,0:0:0:0:
311,239,123977,5,2,3:2:0:0:
111,338,124124,1,2,3:2:0:0:
215,139,124271,1,10,0:0:0:0:
246,361,124418,1,2,3:2:0:0:
91,199,124565,2,0,P|67:240|67:272,1,75,2|0,3:2|0:0,0:0:0:0:
180,130,124859,2,0,B|214:118|214:118|261:125,1,75,10|0,0:0|0:0,0:0:0:0:
384,241,125153,6,0,B|356:248|356:248|311:239,1,75,2|0,3:2|0:0,0:0:0:0:
174,149,125448,1,10,0:0:0:0:
94,229,125595,1,2,0:0:0:0:
174,309,125742,1,2,3:2:0:0:
167,122,125889,1,2,0:0:0:0:
72,217,126036,1,10,0:0:0:0:
167,312,126183,1,2,0:0:0:0:
160,95,126330,5,2,3:2:0:0:
50,205,126477,1,2,3:2:0:0:
252,123,126624,1,10,0:0:0:0:
159,200,126771,1,2,3:2:0:0:
86,23,126918,2,0,B|112:11|112:11|157:18,1,75,2|0,3:2|0:0,0:0:0:0:
68,281,127212,1,10,0:0:0:0:
160,95,127359,1,2,3:2:0:0:
197,352,127506,6,0,B|276:340,1,75,2|0,3:2|0:0,0:0:0:0:
478,355,127800,2,0,B|399:367,1,75,10|0,0:0|0:0,0:0:0:0:
353,159,128095,1,2,3:2:0:0:
478,226,128242,1,2,0:0:0:0:
271,260,128389,2,0,B|197:249,1,75,10|2,0:0|0:0,0:0:0:0:
188,64,128683,5,2,3:2:0:0:
89,260,128830,1,2,3:2:0:0:
284,160,128977,1,10,0:0:0:0:
68,127,129124,1,2,3:2:0:0:
223,281,129271,2,0,L|207:359,1,75,2|0,3:2|0:0,0:0:0:0:
403,314,129565,2,0,B|443:333|443:333|487:330,1,75,10|0,0:0|0:0,0:0:0:0:
307,227,129859,6,0,B|266:207|266:207|222:210,1,75,2|0,3:2|0:0,0:0:0:0:
496,200,130153,1,10,0:0:0:0:
403,314,130300,1,2,0:0:0:0:
368,104,130448,2,0,B|358:146|358:146|366:177,1,75,2|0,3:2|0:0,0:0:0:0:
512,123,130742,1,8,0:0:0:0:
331,19,130889,1,2,0:0:0:0:
183,177,131036,2,0,B|139:165|139:165|110:175,1,75,2|2,3:2|0:0,0:0:0:0:
110,257,131330,1,10,0:0:0:0:
368,104,131477,1,2,0:0:0:0:
304,299,131624,5,2,3:2:0:0:
240,103,131771,1,2,3:2:0:0:
408,224,131918,1,10,0:0:0:0:
201,225,132065,1,2,3:2:0:0:
408,224,132212,6,0,P|416:257|401:309,1,75,2|0,3:2|0:0,0:0:0:0:
185,327,132506,2,0,P|213:369|241:381,1,75,10|0,0:0|0:0,0:0:0:0:
323,160,132800,1,2,3:2:0:0:
201,225,132948,1,2,0:0:0:0:
63,160,133095,2,0,P|57:198|72:240,1,75,10|2,0:0|0:0,0:0:0:0:
172,89,133389,5,2,3:2:0:0:
338,239,133536,1,2,3:2:0:0:
291,22,133683,1,10,0:0:0:0:
201,225,133830,1,2,3:2:0:0:
393,111,133977,2,0,B|472:122,1,75,2|0,3:2|0:0,0:0:0:0:
391,369,134271,2,0,B|312:358,1,75,10|0,0:0|0:0,0:0:0:0:
201,225,134565,6,0,B|183:191|183:191|190:144,1,75,2|0,3:2|0:0,0:0:0:0:
323,65,134859,1,10,0:0:0:0:
385,157,135006,1,2,0:0:0:0:
292,221,135153,1,2,3:2:0:0:
332,48,135300,1,2,0:0:0:0:
402,151,135447,1,10,0:0:0:0:
298,222,135594,1,2,0:0:0:0:
341,31,135742,5,2,3:2:0:0:
419,145,135889,1,2,3:2:0:0:
203,186,136036,1,10,0:0:0:0:
237,66,136183,1,2,3:2:0:0:
337,234,136330,2,0,L|264:249,1,75,2|0,3:2|0:0,0:0:0:0:
65,240,136624,1,10,0:0:0:0:
114,52,136771,1,2,3:2:0:0:
276,164,136918,6,0,L|348:148,1,75,2|0,3:2|0:0,0:0:0:0:
65,240,137212,2,0,L|81:167,1,75,10|0,0:0|0:0,0:0:0:0:
270,81,137506,1,2,3:2:0:0:
58,102,137653,1,2,0:0:0:0:
245,242,137800,2,0,L|240:323,1,75,8|2,0:0|0:0,0:0:0:0:
461,207,138095,5,2,3:2:0:0:
307,362,138242,1,2,3:2:0:0:
341,146,138389,1,10,0:0:0:0:
441,342,138536,1,2,3:2:0:0:
245,242,138683,2,0,L|335:247,1,75,2|0,3:2|0:0,0:0:0:0:
398,57,138977,2,0,B|316:51,1,75,10|0,0:0|0:0,0:0:0:0:
95,94,139271,6,0,L|101:168,1,75,2|0,3:2|0:0,0:0:0:0:
156,356,139565,1,10,0:0:0:0:
9,253,139712,1,2,0:0:0:0:
246,175,139859,2,0,B|254:215|254:215|242:247,1,75,2|0,3:2|0:0,0:0:0:0:
86,298,140153,1,10,0:0:0:0:
303,353,140300,1,0,0:0:0:0:
246,175,140448,2,0,B|238:135|238:135|250:103,1,75,2|0,3:2|0:0,0:0:0:0:
435,66,140742,1,10,0:0:0:0:
348,287,140889,1,2,0:0:0:0:
290,29,141036,6,0,B|264:14|264:14|221:25,1,75,2|2,3:2|3:2,0:0:0:0:
86,298,141330,2,0,B|112:313|112:313|155:302,1,75,10|2,0:0|3:2,0:0:0:0:
59,138,141624,5,6,3:2:0:0:
276,338,142506,1,2,0:0:0:0:
260,353,142800,1,2,3:2:0:0:
498,180,143683,1,2,0:0:0:0:
482,165,143977,6,0,L|398:102,1,89.9999972534181,2|2,3:2|0:0,0:0:0:0:
249,251,144565,2,0,L|354:235,1,89.9999972534181,2|2,0:0|0:0,0:0:0:0:
213,74,145153,2,0,B|110:89|131:86,1,89.9999972534181,2|0,3:2|0:0,0:0:0:0:
131,87,145595,1,2,0:0:0:0:
111,242,146036,1,2,0:0:0:0:
127,257,146330,5,2,3:2:0:0:
403,130,147212,1,2,0:0:0:0:
419,145,147506,1,2,3:2:0:0:
119,119,148389,1,2,0:0:0:0:
135,104,148683,6,0,B|146:62|146:62|129:-3,1,89.9999972534181,2|2,3:2|0:0,0:0:0:0:
90,251,149271,2,0,B|132:243|132:243|184:200,1,89.9999972534181,2|2,0:0|0:0,0:0:0:0:
322,156,149859,2,0,B|306:67,1,89.9999972534181,2|0,3:2|0:0,0:0:0:0:
306,67,150300,1,2,0:0:0:0:
160,111,150742,1,2,0:0:0:0:
144,96,151036,6,0,B|75:121|75:121|52:189,2,134.999995880127,2|2|2,3:2|0:0|0:0,0:0:0:0:
237,219,152212,2,0,B|306:244|306:244|371:226,2,134.999995880127,2|2|2,3:2|0:0|0:0,0:0:0:0:
178,68,153389,6,0,P|222:76|265:91,1,89.9999972534181,2|2,3:2|0:0,0:0:0:0:
172,161,153977,2,0,P|207:188|239:220,1,89.9999972534181,2|2,0:0|0:0,0:0:0:0:
36,317,154565,2,0,L|30:217,1,89.9999972534181,2|2,3:2|0:0,0:0:0:0:
49,148,155006,1,2,0:0:0:0:
49,148,155153,2,0,L|149:142,1,89.9999972534181,2|2,3:2|0:0,0:0:0:0:
235,212,155742,6,0,P|280:260|346:262,2,134.999995880127,2|2|2,3:2|0:0|0:0,0:0:0:0:
268,47,156918,2,0,P|316:91|317:157,2,134.999995880127,2|2|2,3:2|0:0|0:0,0:0:0:0:
436,16,158095,6,0,L|437:106,1,89.9999972534181,2|0,3:2|0:0,0:0:0:0:
320,114,158536,1,0,0:0:0:0:
320,114,158683,2,0,B|231:131,1,89.9999972534181,2|2,0:0|0:0,0:0:0:0:
150,23,159271,6,0,P|116:18|82:19,1,67.4999979400635,2|0,0:0|0:0,0:0:0:0:
209,113,159565,6,0,P|187:79|161:50,1,78.7499975967408,2|0,0:0|0:0,0:0:0:0:
182,251,159859,6,0,P|184:198|177:156,1,90,2|0,0:0|0:0,0:0:0:0:
23,322,160153,6,0,P|61:289|94:250,1,101.249996910095,2|0,0:0|0:0,0:0:0:0:
181,327,160448,6,0,B|164:379|164:379|222:348|222:348|240:307,1,165.000005035401,6|10,3:2|0:0,0:0:0:0:
408,253,160889,2,0,B|370:305|370:305|347:207,1,165.000005035401,2|0,3:2|3:2,0:0:0:0:
310,20,161330,2,0,B|392:18,1,82.5000025177003,10|0,0:0|0:0,0:0:0:0:
182,136,161624,6,0,L|99:140,1,82.5000025177003,2|0,3:2|0:0,0:0:0:0:
347,207,161918,1,10,0:0:0:0:
219,384,162065,2,0,P|162:328|177:250,1,165.000005035401,2|0,3:2|3:2,0:0:0:0:
330,67,162506,2,0,L|249:82,1,82.5000025177003,10|2,0:0|3:2,0:0:0:0:
249,82,162727,1,2,3:2:0:0:
249,82,162801,5,2,3:2:0:0:
163,250,162948,1,2,3:2:0:0:
321,161,163095,1,10,0:0:0:0:
163,250,163242,1,2,3:2:0:0:
122,0,163389,5,2,3:2:0:0:
212,168,163536,1,2,3:2:0:0:
51,79,163684,1,10,0:0:0:0:
212,168,163830,1,2,3:2:0:0:
15,295,163977,6,0,B|59:309|59:309|89:289,1,82.5000025177003,2|2,3:2|3:2,0:0:0:0:
89,289,164198,1,2,3:2:0:0:
89,289,164271,1,10,0:0:0:0:
309,175,164418,2,0,B|291:287|291:287|238:265,1,165.000005035401,2|0,3:2|3:2,0:0:0:0:
149,47,164859,2,0,B|192:32|192:32|234:41,1,82.5000025177003,10|0,0:0|0:0,0:0:0:0:
464,245,165153,6,0,P|463:185|386:209,1,165.000005035401,2|10,3:2|0:0,0:0:0:0:
167,324,165595,2,0,P|166:244|224:184,1,165.000005035401,2|0,3:2|3:2,0:0:0:0:
335,300,166036,2,0,L|315:380,1,82.5000025177003,10|0,0:0|0:0,0:0:0:0:
108,187,166330,6,0,L|128:107,1,82.5000025177003,2|0,3:2|0:0,0:0:0:0:
370,24,166624,1,10,0:0:0:0:
485,210,166771,2,0,P|502:159|475:52,1,165.000005035401,2|0,3:2|3:2,0:0:0:0:
349,138,167212,2,0,L|272:167,1,82.5000025177003,10|2,0:0|3:2,0:0:0:0:
272,167,167433,1,2,3:2:0:0:
272,167,167506,5,2,3:2:0:0:
230,0,167653,1,2,3:2:0:0:
183,256,167800,1,10,0:0:0:0:
228,89,167947,1,2,3:2:0:0:
3,167,168095,5,2,3:2:0:0:
48,0,168242,1,2,3:2:0:0:
95,256,168389,1,10,0:0:0:0:
50,89,168536,1,2,3:2:0:0:
344,163,168683,6,0,B|303:145|303:145|272:167,1,82.5000025177003,2|0,3:2|3:2,0:0:0:0:
394,313,168977,2,0,B|435:331|435:331|466:309,1,82.5000025177003,10|0,0:0|0:0,0:0:0:0:
493,90,169271,2,0,P|498:49|494:8,1,82.5000025177003,2|0,3:2|3:2,0:0:0:0:
344,162,169565,2,0,P|337:203|342:244,1,82.5000025177003,10|0,0:0|3:2,0:0:0:0:
113,69,169859,6,0,B|81:41|81:41|152:28|152:28|193:57,1,165.000005035401,2|10,3:2|0:0,0:0:0:0:
211,300,170300,2,0,B|315:299|315:299|342:245,1,165.000005035401,2|0,3:2|3:2,0:0:0:0:
113,69,170742,2,0,B|106:153,1,82.5000025177003,10|0,0:0|0:0,0:0:0:0:
413,107,171036,6,0,B|407:24,1,82.5000025177003,2|2,3:2|3:2,0:0:0:0:
407,24,171256,1,2,3:2:0:0:
407,24,171330,1,10,0:0:0:0:
195,188,171477,2,0,P|164:112|189:35,1,165.000005035401,2|0,3:2|3:2,0:0:0:0:
105,228,171918,2,0,L|90:309,1,82.5000025177003,10|2,0:0|3:2,0:0:0:0:
90,309,172139,1,2,3:2:0:0:
90,309,172212,5,2,3:2:0:0:
169,380,172359,1,2,3:2:0:0:
280,162,172506,1,10,0:0:0:0:
306,265,172653,1,2,3:2:0:0:
192,55,172800,5,2,3:2:0:0:
105,228,172948,1,2,3:2:0:0:
295,81,173095,1,10,0:0:0:0:
61,120,173243,1,2,3:2:0:0:
311,182,173389,6,0,L|306:265,1,82.5000025177003,2|2,3:2|3:2,0:0:0:0:
306,265,173609,1,2,3:2:0:0:
306,265,173683,1,10,0:0:0:0:
105,228,173830,2,0,P|135:292|185:243,1,165.000005035401,2|0,3:2|3:2,0:0:0:0:
295,81,174271,2,0,L|213:94,1,82.5000025177003,10|0,0:0|0:0,0:0:0:0:
408,190,174565,6,0,P|464:145|491:211,1,165.000005035401,2|8,3:2|0:0,0:0:0:0:
296,298,175006,2,0,B|196:309|196:309|253:338,1,165.000005035401,2|0,3:2|3:2,0:0:0:0:
458,384,175448,2,0,L|485:301,1,82.5000025177003,10|0,0:0|0:0,0:0:0:0:
279,137,175742,6,0,L|252:220,1,82.5000025177003,2|0,3:2|0:0,0:0:0:0:
149,62,176036,1,10,0:0:0:0:
444,148,176183,2,0,P|442:73|369:76,1,165.000005035401,2|0,3:2|3:2,0:0:0:0:
164,142,176624,2,0,L|149:62,1,82.5000025177003,10|0,0:0|0:0,0:0:0:0:
388,281,176918,5,2,3:2:0:0:
359,384,177065,1,2,3:2:0:0:
164,142,177212,1,10,0:0:0:0:
269,162,177359,1,2,3:2:0:0:
130,315,177506,6,0,P|59:289|84:219,1,165.000005035401,2|10,3:2|0:0,0:0:0:0:
192,259,177948,1,2,0:0:0:0:
115,15,178095,6,0,P|74:19|34:25,1,82.5000025177003,2|0,3:2|0:0,0:0:0:0:
348,185,178389,2,0,P|388:193|430:197,1,82.5000025177003,10|0,0:0|0:0,0:0:0:0:
192,259,178683,6,0,P|152:267|110:271,1,82.5000025177003,2|0,3:2|3:2,0:0:0:0:
34,26,178977,1,10,0:0:0:0:
363,89,179124,1,0,3:2:0:0:
363,89,179198,1,0,3:2:0:0:
363,89,179271,6,0,B|419:91|419:91|456:156|456:156|430:197,1,179.999994506836,6|10,3:2|0:0,0:0:0:0:
233,299,179712,2,0,B|192:259|192:259|328:269,1,179.999994506836,2|0,3:2|3:2,0:0:0:0:
440,384,180153,2,0,B|418:291,1,89.9999972534181,10|0,0:0|0:0,0:0:0:0:
249,56,180448,6,0,B|271:149,1,89.9999972534181,2|0,3:2|0:0,0:0:0:0:
66,307,180742,1,10,0:0:0:0:
0,138,180889,2,0,P|50:70|158:54,1,179.999994506836,2|0,3:2|3:2,0:0:0:0:
236,318,181330,2,0,L|148:300,1,89.9999972534181,10|2,0:0|3:2,0:0:0:0:
148,300,181550,1,0,3:2:0:0:
148,300,181624,5,2,3:2:0:0:
265,245,181771,1,2,3:2:0:0:
119,123,181918,1,10,0:0:0:0:
92,237,182065,1,2,3:2:0:0:
427,113,182212,5,2,3:2:0:0:
276,0,182359,1,2,3:2:0:0:
202,172,182506,1,10,0:0:0:0:
353,59,182653,1,2,3:2:0:0:
76,106,182800,6,0,L|104:192,1,89.9999972534181,2|2,3:2|3:2,0:0:0:0:
104,192,183021,1,2,3:2:0:0:
104,192,183095,1,10,0:0:0:0:
288,69,183242,2,0,B|353:59|353:59|311:165,1,179.999994506836,2|0,3:2|3:2,0:0:0:0:
233,349,183683,2,0,P|271:371|316:373,1,89.9999972534181,10|0,0:0|0:0,0:0:0:0:
221,130,183977,6,0,P|147:83|64:109,1,179.999994506836,2|10,3:2|0:0,0:0:0:0:
134,337,184418,2,0,B|77:361|77:361|40:248,1,179.999994506836,2|0,3:2|3:2,0:0:0:0:
221,130,184859,2,0,B|236:218,1,89.9999972534181,10|0,0:0|0:0,0:0:0:0:
470,363,185153,6,0,B|452:261,1,89.9999972534181,2|0,3:2|0:0,0:0:0:0:
236,219,185448,1,8,0:0:0:0:
333,109,185595,2,0,B|453:125|453:125|397:144,1,179.999994506836,2|0,3:2|3:2,0:0:0:0:
231,299,186036,2,0,B|142:281,1,89.9999972534181,10|2,0:0|3:2,0:0:0:0:
142,281,186256,1,2,3:2:0:0:
142,281,186330,5,2,3:2:0:0:
0,191,186477,1,2,3:2:0:0:
248,110,186624,1,10,0:0:0:0:
83,41,186771,1,2,3:2:0:0:
32,295,186918,5,2,3:2:0:0:
248,110,187065,1,2,3:2:0:0:
359,372,187212,2,0,B|375:336|375:336|366:286,1,89.9999972534181,10|0,0:0|0:0,0:0:0:0:
163,78,187506,6,0,P|191:42|232:23,1,89.9999972534181,2|0,3:2|3:2,0:0:0:0:
458,127,187800,2,0,P|483:163|488:208,1,89.9999972534181,10|0,0:0|0:0,0:0:0:0:
152,335,188095,2,0,L|172:248,1,89.9999972534181,2|0,3:2|3:2,0:0:0:0:
378,284,188389,2,0,L|359:372,1,89.9999972534181,10|0,0:0|3:2,0:0:0:0:
246,75,188683,6,0,P|166:48|114:114,1,179.999994506836,2|8,3:2|0:0,0:0:0:0:
152,335,189124,2,0,B|49:360|49:360|-7:293,1,179.999994506836,2|0,3:2|3:2,0:0:0:0:
246,76,189565,2,0,B|238:169,1,89.9999972534181,10|0,0:0|0:0,0:0:0:0:
400,345,189859,6,0,B|392:255,1,89.9999972534181,2|2,3:2|3:2,0:0:0:0:
392,255,190080,1,0,3:2:0:0:
392,255,190153,1,10,0:0:0:0:
227,384,190300,2,0,P|184:329|229:237,1,179.999994506836,2|0,3:2|3:2,0:0:0:0:
407,64,190742,2,0,L|319:48,1,89.9999972534181,10|2,0:0|3:2,0:0:0:0:
319,48,190962,1,2,3:2:0:0:
319,48,191036,5,2,3:2:0:0:
220,169,191183,1,2,3:2:0:0:
22,48,191330,1,10,0:0:0:0:
121,169,191477,1,2,3:2:0:0:
22,365,191624,5,2,3:2:0:0:
121,244,191771,1,2,3:2:0:0:
319,365,191918,1,10,0:0:0:0:
220,244,192065,1,2,3:2:0:0:
319,48,192212,6,0,L|297:135,1,89.9999972534181,2|2,3:2|3:2,0:0:0:0:
297,135,192433,1,2,3:2:0:0:
297,135,192506,1,8,0:0:0:0:
392,341,192653,2,0,B|461:359|461:359|519:255,1,179.999994506836,2|0,3:2|3:2,0:0:0:0:
407,62,193095,2,0,B|319:48,1,89.9999972534181,10|0,0:0|3:2,0:0:0:0:
56,201,193389,6,0,P|47:120|127:109,1,179.999994506836,2|10,3:2|0:0,0:0:0:0:
318,346,193830,2,0,B|353:317|353:317|218:328,1,179.999994506836,2|0,3:2|3:2,0:0:0:0:
41,284,194271,2,0,L|69:369,1,89.9999972534181,10|0,0:0|0:0,0:0:0:0:
349,193,194565,6,0,L|320:107,1,89.9999972534181,2|0,3:2|0:0,0:0:0:0:
56,201,194859,1,10,0:0:0:0:
155,32,195006,2,0,B|20:14|20:14|53:59,1,179.999994506836,2|0,3:2|3:2,0:0:0:0:
180,156,195448,2,0,L|170:246,1,89.9999972534181,10|2,0:0|3:2,0:0:0:0:
170,246,195668,1,2,3:2:0:0:
170,246,195742,5,2,3:2:0:0:
56,201,195889,1,2,3:2:0:0:
256,141,196036,1,10,0:0:0:0:
257,18,196183,1,2,3:2:0:0:
456,201,196330,5,2,3:2:0:0:
342,246,196478,1,2,3:2:0:0:
342,80,196625,1,10,0:0:0:0:
170,80,196772,1,2,3:2:0:0:
256,231,196918,6,0,L|256:141,1,89.9999972534181,2|0,3:2|3:2,0:0:0:0:
469,109,197212,1,10,0:0:0:0:
342,246,197359,2,0,P|419:274|456:201,1,179.999994506836,2|0,3:2|3:2,0:0:0:0:
329,26,197800,1,8,0:0:0:0:
256,231,197948,1,8,0:0:0:0:
256,231,198021,1,8,0:0:0:0:
256,231,198095,5,6,3:2:0:0:
326,164,198242,1,2,0:0:0:0:
435,309,198389,2,0,L|361:311,1,75,10|0,0:0|0:0,0:0:0:0:
275,361,198683,1,2,3:2:0:0:
176,319,198830,1,2,3:2:0:0:
275,277,198977,1,10,0:0:0:0:
176,235,199124,1,2,3:2:0:0:
274,193,199271,6,0,P|268:119|218:65,1,150,2|8,3:2|0:0,0:0:0:0:
219,65,199859,1,0,0:0:0:0:
46,129,200006,1,2,3:2:0:0:
156,157,200153,1,10,0:0:0:0:
124,49,200300,1,2,3:2:0:0:
46,129,200448,6,0,L|39:204,1,75,2|0,3:2|0:0,0:0:0:0:
217,291,200742,2,0,L|224:216,1,75,10|0,0:0|0:0,0:0:0:0:
311,104,201036,1,2,3:2:0:0:
357,194,201183,1,2,3:2:0:0:
479,36,201330,2,0,L|400:39,1,75,10|0,0:0|0:0,0:0:0:0:
260,15,201624,5,2,3:2:0:0:
206,96,201771,1,2,3:2:0:0:
100,5,201918,2,0,L|87:79,1,75,10|0,0:0|0:0,0:0:0:0:
163,280,202212,2,0,L|150:206,1,75,2|0,3:2|3:2,0:0:0:0:
260,15,202506,2,0,L|273:89,1,75,8|2,0:0|3:2,0:0:0:0:
428,129,202800,5,2,3:2:0:0:
342,176,202948,1,2,0:0:0:0:
260,15,203095,2,0,L|182:17,1,75,8|0,0:0|0:0,0:0:0:0:
77,133,203389,1,2,3:2:0:0:
121,209,203536,1,2,3:2:0:0:
72,341,203683,1,10,0:0:0:0:
28,264,203830,1,2,3:2:0:0:
157,294,203977,6,0,P|210:242|208:169,1,150,2|8,3:2|0:0,0:0:0:0:
209,171,204565,1,0,0:0:0:0:
144,0,204712,1,2,3:2:0:0:
122,111,204859,1,10,0:0:0:0:
229,74,205006,1,2,3:2:0:0:
33,46,205153,6,0,L|37:121,1,75,2|0,3:2|0:0,0:0:0:0:
215,245,205448,2,0,L|209:171,1,75,8|0,0:0|0:0,0:0:0:0:
338,232,205742,1,2,3:2:0:0:
349,135,205889,1,2,3:2:0:0:
271,321,206036,2,0,P|236:335|199:338,1,75,10|0,0:0|0:0,0:0:0:0:
89,241,206330,5,2,3:2:0:0:
44,327,206477,1,0,3:2:0:0:
215,245,206624,2,0,P|229:210|232:173,1,75,8|2,0:0|0:0,0:0:0:0:
80,57,206918,2,0,P|66:91|62:128,1,75,2|0,3:2|3:2,0:0:0:0:
111,328,207212,2,0,P|75:335|38:332,1,75,10|0,0:0|3:2,0:0:0:0:
5,133,207506,6,0,L|62:128,1,56.2500021457673,2|0,0:0|0:0,0:0:0:0:
124,70,207800,1,0,0:0:0:0:
124,70,208095,2,0,L|180:75,1,56.2500021457673
234,26,208389,2,0,L|290:21,1,56.2500021457673
337,75,208683,6,0,P|394:86|415:146,1,112.500004291535,2|2,0:0|0:0,0:0:0:0:
399,246,209271,1,0,0:0:0:0:
352,262,209418,2,0,L|345:317,2,56.2500021457673,2|0|0,0:0|0:0|0:0,0:0:0:0:
292,221,209859,6,0,P|255:233|201:187,1,112.500004291535,2|0,0:0|0:0,0:0:0:0:
241,96,210448,2,0,L|239:34,1,56.2500021457673
134,33,210742,1,2,0:0:0:0:
134,33,211036,2,0,L|132:89,1,56.2500021457673
36,42,211330,1,2,0:0:0:0:
46,187,211624,1,2,0:0:0:0:
46,187,212212,6,0,L|42:253,1,56.2500021457673,2|0,0:0|0:0,0:0:0:0:
99,307,212506,1,0,0:0:0:0:
99,307,212800,2,0,P|141:308|154:312,1,56.2500021457673
197,372,213095,2,0,P|233:374|252:366,1,56.2500021457673
287,302,213389,6,0,P|268:251|292:202,1,112.500004291535,2|2,0:0|0:0,0:0:0:0:
350,112,213977,1,0,0:0:0:0:
326,67,214124,2,0,L|331:11,2,56.2500021457673,2|0|0,0:0|0:0|0:0,0:0:0:0:
253,55,214565,6,0,P|203:68|153:31,1,112.500004291535,2|0,0:0|0:0,0:0:0:0:
103,120,215153,2,0,L|47:124,1,56.2500021457673
19,223,215448,1,2,0:0:0:0:
19,223,215742,1,0,0:0:0:0:
71,289,215889,1,0,0:0:0:0:
174,202,216036,1,2,0:0:0:0:
119,384,216330,5,2,0:0:0:0:
