osu file format v14

[General]
AudioFilename: beatmap-637117741815504006-Miku_Cover_2.mp3
AudioLeadIn: 0
PreviewTime: 15445
Countdown: 0
SampleSet: Soft
StackLeniency: 0.7
Mode: 0
LetterboxInBreaks: 0
WidescreenStoryboard: 1

[Editor]
DistanceSpacing: 1.1
BeatDivisor: 4
GridSize: 8
TimelineZoom: 1.300001

[Metadata]
Title:Ai no Sukima (Rock Cover)
TitleUnicode:哀の隙間 (Rock Cover)
Artist:MIMI feat. Hatsune Miku
ArtistUnicode:MIMI feat. 初音ミク
Creator:Nuvolina
Version:Log Off Now's Expert
Source:
Tags:schianovus instrumental rock vocaloid myxo myxomatosis anto maridius kalibe log_off_now logoffnow lon lmt
BeatmapID:2283641
BeatmapSetID:1092468

[Difficulty]
HPDrainRate:5.8
CircleSize:3.8
OverallDifficulty:8.5
ApproachRate:9.3
SliderMultiplier:1.4
SliderTickRate:1

[Events]
//Background and Video events
0,0,"miku.jpg",0,0
//Break Periods
//Storyboard Layer 0 (Background)
//Storyboard Layer 1 (Fail)
//Storyboard Layer 2 (Pass)
//Storyboard Layer 3 (Foreground)
//Storyboard Layer 4 (Overlay)
//Storyboard Sound Samples

[TimingPoints]
-952,294.117647058823,4,2,1,40,1,0
6106,-100,4,2,1,70,0,0
14342,-125,4,1,1,80,0,0
15224,-100,4,1,1,80,0,0
15518,-83.3333333333333,4,1,1,90,0,1
33165,-83.3333333333333,4,1,1,90,0,1
33312,-83.3333333333333,4,1,1,90,0,1
33459,-83.3333333333333,4,1,1,90,0,1
33606,-83.3333333333333,4,1,1,90,0,1
33753,-83.3333333333333,4,1,1,90,0,1
34342,-125,4,2,1,70,0,0
43753,-100,4,2,1,80,0,0
50959,-100,4,1,1,80,0,0
53165,-90.9090909090909,4,1,1,90,0,0
71989,-76.9230769230769,4,1,1,90,0,1
81400,-76.9230769230769,4,1,1,90,0,1
88459,-76.9230769230769,4,1,1,90,0,1
88606,-76.9230769230769,4,1,1,90,0,1
88753,-76.9230769230769,4,1,1,90,0,1
88900,-76.9230769230769,4,1,1,90,0,1
89047,-76.9230769230769,4,1,1,90,0,1
89195,-76.9230769230769,4,1,1,90,0,1
89636,-76.9230769230769,4,1,1,90,0,1
89783,-76.9230769230769,4,1,1,90,0,1
89930,-76.9230769230769,4,1,1,90,0,1
90077,-76.9230769230769,4,1,1,90,0,1
90224,-76.9230769230769,4,1,1,90,0,1
90812,-100,4,1,1,90,0,0

[Colours]
Combo1 : 165,181,201
Combo2 : 61,186,222
Combo3 : 183,114,192
Combo4 : 84,130,250

[HitObjects]
256,192,812,12,0,5518,0:0:0:0:
134,154,6106,6,0,P|149:188|152:223,2,70,6|2|2,1:2|0:3|1:2,0:0:0:0:
261,74,6695,2,0,P|212:95|189:95,1,70,2|2,0:0|0:0,0:0:0:0:
358,180,6989,2,0,P|309:159|286:159,1,70,2|2,1:3|0:3,0:0:0:0:
354,75,7283,1,2,0:0:0:0:
433,134,7577,1,2,1:3:0:0:
379,244,7871,6,0,P|358:195|358:172,1,70,2|2,0:3|0:3,0:0:0:0:
441,308,8165,2,0,P|462:259|462:236,1,70,2|2,1:2|0:3,0:0:0:0:
354,327,8459,1,2,0:0:0:0:
290,256,8753,1,2,1:3:0:0:
361,152,9047,6,0,P|327:167|292:170,2,70,2|2|2,0:3|0:0|1:2,0:0:0:0:
246,271,9636,2,0,P|217:250|197:222,2,70,2|2|2,0:0|0:3|1:2,0:0:0:0:
248,82,10224,2,0,P|214:122|124:131,1,140,2|0,0:0|1:0,0:0:0:0:
98,31,10812,6,0,P|132:34|164:49,2,70,6|2|2,1:2|0:3|1:2,0:0:0:0:
28,94,11400,2,0,P|49:143|49:166,1,70,2|2,0:0|0:0,0:0:0:0:
128,206,11694,2,0,P|107:255|107:278,1,70,2|2,1:3|0:3,0:0:0:0:
47,338,11988,1,2,0:0:0:0:
19,240,12282,1,2,1:3:0:0:
128,206,12576,6,0,P|177:227|200:227,1,70,2|2,0:3|0:3,0:0:0:0:
251,303,12870,2,0,P|300:282|323:282,1,70,2|2,1:2|0:3,0:0:0:0:
383,214,13164,1,2,0:0:0:0:
289,179,13458,1,2,1:3:0:0:
382,54,13753,6,0,L|369:122,2,70,2|2|2,0:3|0:0|1:2,0:0:0:0:
267,188,14342,2,0,L|282:321,1,112,6|0,0:2|0:0,0:0:0:0:
220,361,14783,1,2,0:3:0:0:
220,361,14856,1,0,0:0:0:0:
220,361,14930,1,10,0:2:0:0:
358,247,15077,1,4,3:0:0:0:
175,150,15224,2,0,L|186:236,1,70,8|4,0:0|3:0,0:0:0:0:
333,59,15518,5,6,1:2:0:0:
265,144,15665,1,2,0:3:0:0:
158,41,15812,2,0,L|253:53,1,83.9999974365235,10|0,0:2|0:0,0:0:0:0:
426,209,16106,5,2,0:2:0:0:
352,142,16253,1,2,0:2:0:0:
468,41,16400,1,10,0:3:0:0:
438,124,16547,1,2,0:3:0:0:
306,57,16695,6,0,L|401:45,1,83.9999974365235,2|0,0:2|0:0,0:0:0:0:
509,219,16989,2,0,L|425:208,1,83.9999974365235,10|0,0:3|0:0,0:0:0:0:
279,197,17283,1,2,0:3:0:0:
352,145,17430,1,2,0:3:0:0:
225,34,17577,1,10,0:2:0:0:
274,108,17724,1,2,0:3:0:0:
178,199,17871,6,0,L|190:103,1,83.9999974365235,6|0,0:2|0:0,0:0:0:0:
349,13,18165,2,0,L|361:109,1,83.9999974365235,10|0,0:3|0:0,0:0:0:0:
385,275,18459,5,2,0:3:0:0:
289,209,18606,1,2,0:2:0:0:
455,102,18753,2,0,L|443:198,1,83.9999974365235,10|0,0:2|0:0,0:0:0:0:
266,332,19047,5,2,0:2:0:0:
298,185,19195,1,2,0:3:0:0:
378,368,19342,1,10,0:2:0:0:
175,249,19489,1,2,0:3:0:0:
366,128,19636,2,0,L|349:262,1,125.999996154785,2|0,0:2|2:0,0:0:0:0:
283,311,19930,2,0,P|246:285|188:284,1,83.9999974365235,8|0,0:0|0:0,0:0:0:0:
111,251,20224,5,6,0:2:0:0:
148,336,20371,1,2,0:3:0:0:
262,172,20518,2,0,P|219:192|176:191,1,83.9999974365235,10|0,0:2|0:0,0:0:0:0:
29,211,20812,5,2,0:2:0:0:
94,137,20959,1,2,0:2:0:0:
197,293,21106,1,10,0:3:0:0:
111,251,21253,1,2,0:3:0:0:
196,110,21400,6,0,L|183:198,1,83.9999974365235,2|0,0:2|0:0,0:0:0:0:
32,325,21695,2,0,L|19:237,1,83.9999974365235,10|0,0:3|0:0,0:0:0:0:
94,137,21989,5,2,0:3:0:0:
111,251,22136,1,2,0:3:0:0:
3,161,22283,1,10,0:2:0:0:
173,59,22430,1,2,0:3:0:0:
201,234,22577,6,0,L|189:151,1,83.9999974365235,6|0,0:2|0:0,0:0:0:0:
92,0,22871,2,0,L|79:83,1,83.9999974365235,10|0,0:3|0:0,0:0:0:0:
120,243,23165,1,2,0:3:0:0:
30,163,23312,1,2,0:2:0:0:
173,59,23459,2,0,L|160:142,1,83.9999974365235,10|0,0:2|0:0,0:0:0:0:
88,344,23753,5,2,0:2:0:0:
11,258,23900,1,2,0:3:0:0:
196,215,24047,2,0,P|139:243|91:235,1,83.9999974365235,10|0,0:3|0:0,0:0:0:0:
55,169,24342,1,6,0:2:0:0:
157,94,24489,2,0,L|148:147,2,41.9999987182618,8|8|4,0:0|0:0|3:0,0:0:0:0:
242,302,24783,1,8,0:0:0:0:
242,302,24856,1,8,0:0:0:0:
242,302,24930,6,0,P|292:279|338:284,1,83.9999974365235,6|2,1:2|0:3,0:0:0:0:
399,127,25224,2,0,P|376:177|381:223,1,83.9999974365235,10|0,0:2|0:0,0:0:0:0:
472,367,25518,1,2,0:2:0:0:
469,190,25665,1,2,0:2:0:0:
338,324,25812,1,10,0:3:0:0:
423,280,25959,1,2,0:3:0:0:
258,176,26106,6,0,L|271:278,1,83.9999974365235,2|0,0:2|0:0,0:0:0:0:
397,84,26400,2,0,P|347:107|301:102,1,83.9999974365235,10|0,0:3|0:0,0:0:0:0:
148,30,26695,1,2,0:3:0:0:
237,159,26842,1,2,0:3:0:0:
250,43,26989,1,10,0:2:0:0:
150,181,27136,1,2,0:3:0:0:
61,57,27283,6,0,L|71:140,1,83.9999974365235,6|0,0:2|0:0,0:0:0:0:
4,258,27577,2,0,P|54:235|100:240,1,83.9999974365235,10|0,0:3|0:0,0:0:0:0:
224,299,27871,1,2,0:3:0:0:
133,357,28018,1,2,0:2:0:0:
150,181,28165,2,0,P|200:204|246:199,1,83.9999974365235,10|0,0:2|0:0,0:0:0:0:
368,159,28459,5,2,0:2:0:0:
218,116,28606,1,2,0:3:0:0:
405,69,28753,1,10,0:2:0:0:
310,238,28900,1,2,0:3:0:0:
198,25,29047,2,0,L|337:42,1,125.999996154785,2|0,0:2|2:0,0:0:0:0:
380,103,29342,2,0,P|360:146|372:202,1,83.9999974365235,8|0,0:0|0:0,0:0:0:0:
450,49,29636,5,6,0:2:0:0:
276,118,29783,1,2,0:3:0:0:
457,250,29930,2,0,L|446:166,1,83.9999974365235,10|0,0:2|0:0,0:0:0:0:
281,33,30224,5,2,0:2:0:0:
360,136,30371,1,2,0:2:0:0:
213,194,30518,1,10,0:3:0:0:
276,118,30665,1,2,0:3:0:0:
378,246,30812,6,0,P|328:224|285:228,1,83.9999974365235,2|0,0:2|0:0,0:0:0:0:
230,371,31106,2,0,L|219:287,1,83.9999974365235,10|0,0:3|0:0,0:0:0:0:
207,172,31400,1,2,0:3:0:0:
140,264,31547,1,2,0:3:0:0:
55,111,31695,1,10,0:2:0:0:
123,170,31842,1,2,0:3:0:0:
31,283,31989,6,0,L|42:199,1,83.9999974365235,6|0,0:2|0:0,0:0:0:0:
135,82,32283,2,0,P|185:104|228:100,1,83.9999974365235,10|0,0:3|0:0,0:0:0:0:
350,40,32577,1,2,0:3:0:0:
283,176,32724,1,2,0:2:0:0:
198,23,32871,2,0,P|248:1|291:5,1,83.9999974365235,10|0,0:2|0:0,0:0:0:0:
312,317,33165,5,10,0:2:0:0:
259,89,33312,1,6,3:0:0:0:
236,364,33459,5,10,0:3:0:0:
339,111,33606,1,4,3:0:0:0:
377,367,33753,6,0,L|432:357,3,41.9999987182618,10|8|4|4,0:2|0:0|3:0|3:0,0:0:0:0:
318,303,34047,1,8,0:0:0:0:
318,303,34121,1,8,0:0:0:0:
318,303,34195,2,0,L|268:314,1,41.9999987182618,8|0,0:0|2:0,0:0:0:0:
380,245,34342,6,0,L|496:262,3,112,4|0|0|0,1:2|3:0|3:0|3:0,0:0:0:0:
268,91,35518,2,0,P|314:138|310:202,1,112,8|0,1:0|3:0,0:0:0:0:
277,317,36106,5,8,1:0:0:0:
231,169,36253,1,8,1:0:0:0:
360,264,36400,1,4,3:0:0:0:
396,153,36547,1,4,3:0:0:0:
184,244,36695,6,0,L|68:227,3,112,4|0|0|0,1:0|3:0|3:0|3:0,0:0:0:0:
315,354,37871,2,0,P|269:307|273:243,1,112,8|0,1:0|3:0,0:0:0:0:
327,79,38459,5,8,1:0:0:0:
352,272,38606,1,8,1:0:0:0:
426,47,38753,1,8,1:0:0:0:
226,110,38900,1,8,1:0:0:0:
399,169,39047,6,0,L|515:186,3,112,4|0|0|0,1:0|3:0|3:0|3:0,0:0:0:0:
275,23,40223,2,0,P|321:70|317:134,1,112,8|0,1:0|3:0,0:0:0:0:
287,272,40811,5,8,1:0:0:0:
238,101,40958,1,8,1:0:0:0:
180,276,41105,1,4,3:0:0:0:
266,186,41252,1,4,3:0:0:0:
69,163,41400,6,0,L|180:180,3,112,4|0|0|0,1:0|3:0|3:0|3:0,0:0:0:0:
84,77,42577,2,0,B|127:69|178:92|178:92|188:61|200:25|261:-9|318:13|356:30|379:157|236:130|256:94,1,392,8|0,1:0|0:0,0:0:0:0:
413,33,43753,6,0,L|402:129,1,70,6|2,1:2|0:3,0:0:0:0:
334,223,44047,2,0,L|323:127,1,70,10|4,1:2|3:0,0:0:0:0:
493,85,44342,1,2,0:0:0:0:
425,187,44489,1,4,3:0:0:0:
329,61,44636,2,0,P|285:83|248:84,1,70,10|2,1:3|0:3,0:0:0:0:
115,39,44930,5,4,3:0:0:0:
221,171,45077,1,4,3:0:0:0:
264,2,45224,1,10,1:3:0:0:
134,129,45371,2,0,L|143:204,1,70,4|2,3:0|0:3,0:0:0:0:
157,284,45665,1,6,3:0:0:0:
61,232,45812,1,10,1:2:0:0:
229,140,45959,1,6,3:0:0:0:
180,279,46106,6,0,P|220:252|332:248,1,140,6|10,1:2|1:3,0:0:0:0:
374,359,46547,2,0,L|382:286,1,70,4|2,3:0|0:3,0:0:0:0:
396,140,46842,1,4,3:0:0:0:
512,226,46989,2,0,L|439:218,1,70,10|0,1:2|0:0,0:0:0:0:
288,85,47283,5,4,3:0:0:0:
328,220,47430,1,6,3:0:0:0:
437,42,47577,2,0,L|364:50,1,70,10|0,1:2|0:0,0:0:0:0:
191,160,47871,2,0,L|264:168,1,70,2|4,0:0|3:0,0:0:0:0:
105,42,48165,1,8,1:0:0:0:
105,42,48239,1,8,1:0:0:0:
105,42,48312,2,0,L|114:101,1,35,4|0,3:0|2:0,0:0:0:0:
18,172,48459,6,0,L|30:87,1,70,6|2,1:2|0:3,0:0:0:0:
188,5,48753,2,0,L|197:73,1,70,10|4,1:2|3:0,0:0:0:0:
216,218,49048,1,2,0:0:0:0:
127,161,49195,1,4,3:0:0:0:
307,88,49342,2,0,L|297:156,1,70,10|2,1:3|0:3,0:0:0:0:
261,293,49636,5,4,3:0:0:0:
211,141,49783,1,4,3:0:0:0:
369,226,49930,1,10,1:3:0:0:
238,315,50077,2,0,L|228:246,1,70,4|2,3:0|0:3,0:0:0:0:
212,108,50371,1,6,3:0:0:0:
135,270,50518,1,10,1:2:0:0:
296,157,50665,1,6,3:0:0:0:
127,65,50812,6,0,L|133:126,3,35,6|0|0|0,1:2|0:0|0:0|0:0,0:0:0:0:
211,151,51106,2,0,L|161:186,3,35,6|0|0|0,3:0|0:0|0:0|0:0,0:0:0:0:
172,266,51400,2,0,L|116:240,3,35,6|0|2|0,3:0|0:0|0:2|0:0,0:0:0:0:
66,194,51695,2,0,L|59:133,3,35,4|0|0|0,3:0|0:0|0:0|0:0,0:0:0:0:
141,57,51989,5,4,3:0:0:0:
162,68,52062,1,0,0:0:0:0:
186,70,52136,1,2,0:3:0:0:
210,63,52209,1,0,0:0:0:0:
229,48,52283,2,0,L|222:-13,3,35,10|8|8|8,0:3|0:0|0:0|0:0,0:0:0:0:
299,108,52577,5,4,3:0:0:0:
296,128,52650,1,4,3:0:0:0:
293,149,52724,1,4,3:0:0:0:
290,170,52797,1,4,3:0:0:0:
288,191,52871,2,0,L|284:225,3,35,0|0|0|0,0:0|0:0|0:0|0:0,0:0:0:0:
350,291,53165,6,0,P|304:266|259:269,1,77.0000023498536,14|4,0:2|3:0,0:0:0:0:
142,369,53459,1,4,3:0:0:0:
203,250,53606,2,0,P|157:275|112:272,1,77.0000023498536,10|4,0:2|3:0,0:0:0:0:
0,211,53900,1,4,3:0:0:0:
43,365,54047,2,0,L|55:273,1,77.0000023498536,10|4,0:2|3:0,0:0:0:0:
138,107,54342,6,0,L|150:199,1,77.0000023498536,14|4,0:2|3:0,0:0:0:0:
169,357,54636,1,6,3:0:0:0:
0,211,54783,2,0,L|92:223,1,77.0000023498536,10|4,0:2|3:0,0:0:0:0:
233,100,55077,1,4,3:0:0:0:
183,266,55224,1,10,0:2:0:0:
127,79,55371,1,6,3:0:0:0:
263,204,55518,5,14,0:2:0:0:
314,50,55665,2,0,L|233:62,1,77.0000023498536,6|4,3:0|3:0,0:0:0:0:
122,201,55959,1,10,0:2:0:0:
53,29,56106,1,6,3:0:0:0:
203,138,56253,1,4,3:0:0:0:
41,243,56400,1,10,0:2:0:0:
127,79,56547,1,6,3:0:0:0:
215,231,56695,6,0,L|134:219,1,77.0000023498536,14|4,0:2|3:0,0:0:0:0:
3,162,56989,2,0,L|79:150,1,77.0000023498536,4|10,3:0|0:2,0:0:0:0:
299,209,57283,1,6,3:0:0:0:
137,305,57430,1,4,3:0:0:0:
162,136,57577,2,0,L|238:147,1,77.0000023498536,10|4,0:2|3:0,0:0:0:0:
403,279,57871,6,0,L|326:290,1,77.0000023498536,14|4,0:2|3:0,0:0:0:0:
165,313,58165,1,4,3:0:0:0:
256,127,58312,2,0,L|332:138,1,77.0000023498536,10|4,0:2|3:0,0:0:0:0:
509,167,58606,1,4,3:0:0:0:
406,11,58753,2,0,L|417:87,1,77.0000023498536,10|4,0:2|3:0,0:0:0:0:
262,297,59047,6,0,L|273:220,1,77.0000023498536,14|4,0:2|3:0,0:0:0:0:
295,82,59342,1,6,3:0:0:0:
428,180,59489,2,0,L|351:168,1,77.0000023498536,10|0,0:2|0:0,0:0:0:0:
202,148,59783,1,4,3:0:0:0:
306,5,59930,2,0,L|294:81,1,77.0000023498536,10|4,0:2|3:0,0:0:0:0:
181,175,60224,5,14,0:2:0:0:
138,31,60371,2,0,P|194:64|230:58,1,77.0000023498536,6|4,3:0|3:0,0:0:0:0:
386,31,60665,1,10,0:2:0:0:
277,180,60812,1,6,3:0:0:0:
294,81,60959,1,6,3:0:0:0:
430,199,61106,1,10,0:2:0:0:
361,137,61253,1,6,3:0:0:0:
495,52,61400,6,0,L|484:135,1,77.0000023498536,14|4,0:2|3:0,0:0:0:0:
361,300,61695,2,0,L|350:217,1,77.0000023498536,6|0,3:0|0:0,0:0:0:0:
404,98,61989,1,6,3:0:0:0:
442,260,62136,1,4,3:0:0:0:
324,128,62283,2,0,P|280:156|247:154,1,77.0000023498536,10|4,0:2|3:0,0:0:0:0:
153,39,62577,6,0,P|178:85|175:130,1,77.0000023498536,14|4,0:2|3:0,0:0:0:0:
80,258,62871,1,4,3:0:0:0:
233,245,63018,2,0,P|187:220|142:223,1,77.0000023498536,10|4,0:2|3:0,0:0:0:0:
2,297,63312,1,4,3:0:0:0:
78,102,63459,2,0,L|90:194,1,77.0000023498536,10|4,0:2|3:0,0:0:0:0:
160,379,63753,6,0,L|172:287,1,77.0000023498536,14|4,0:2|3:0,0:0:0:0:
190,130,64047,1,6,3:0:0:0:
27,289,64195,2,0,P|73:264|118:267,1,77.0000023498536,10|4,0:2|3:0,0:0:0:0:
265,331,64489,1,4,3:0:0:0:
167,210,64636,1,10,0:2:0:0:
139,382,64783,1,6,3:0:0:0:
271,242,64930,5,14,0:2:0:0:
96,166,65077,2,0,L|172:177,1,77.0000023498536,6|4,3:0|3:0,0:0:0:0:
332,80,65371,1,10,0:2:0:0:
363,251,65518,1,6,3:0:0:0:
223,101,65665,1,4,3:0:0:0:
251,295,65812,1,10,0:2:0:0:
288,177,65959,1,6,3:0:0:0:
427,293,66107,6,0,L|346:281,1,77.0000023498536,14|4,0:2|3:0,0:0:0:0:
123,226,66401,2,0,L|199:214,1,77.0000023498536,4|10,3:0|0:2,0:0:0:0:
373,180,66695,1,6,3:0:0:0:
243,321,66842,1,4,3:0:0:0:
221,129,66989,2,0,L|297:140,1,77.0000023498536,10|4,0:2|3:0,0:0:0:0:
447,199,67283,6,0,L|370:210,1,77.0000023498536,14|4,0:2|3:0,0:0:0:0:
225,234,67577,1,4,3:0:0:0:
326,364,67724,2,0,L|315:288,1,77.0000023498536,10|4,0:2|3:0,0:0:0:0:
292,111,68018,1,4,3:0:0:0:
156,326,68165,2,0,L|233:315,1,77.0000023498536,10|4,0:2|3:0,0:0:0:0:
395,201,68459,6,0,L|406:278,1,77.0000023498536,14|4,0:2|3:0,0:0:0:0:
225,234,68754,1,6,3:0:0:0:
362,123,68901,2,0,L|285:111,1,77.0000023498536,10|0,0:2|0:0,0:0:0:0:
131,85,69195,1,4,3:0:0:0:
191,220,69342,2,0,L|203:144,1,77.0000023498536,10|4,0:2|3:0,0:0:0:0:
149,9,69636,5,14,0:2:0:0:
49,134,69783,2,0,P|105:167|141:161,1,77.0000023498536,6|4,3:0|3:0,0:0:0:0:
229,26,70077,1,10,0:2:0:0:
131,85,70224,1,6,3:0:0:0:
275,216,70371,1,6,3:0:0:0:
217,116,70518,1,10,0:2:0:0:
200,272,70665,1,6,3:0:0:0:
342,154,70812,5,14,0:2:0:0:
364,141,70885,1,8,0:0:0:0:
389,139,70959,1,0,0:0:0:0:
416,146,71032,1,0,0:0:0:0:
436,163,71106,2,0,L|428:228,3,38.5000011749268,6|4|4|4,3:0|3:0|3:0|3:0,0:0:0:0:
363,269,71400,2,0,L|367:309,3,38.5000011749268,2|0|0|0,0:2|0:0|0:0|0:0,0:0:0:0:
279,240,71695,5,10,0:2:0:0:
281,264,71768,1,8,0:0:0:0:
284,291,71842,1,8,0:0:0:0:
286,317,71915,1,8,0:0:0:0:
289,343,71989,6,0,P|225:322|190:330,1,90.9999958343508,6|2,1:2|0:3,0:0:0:0:
69,373,72283,2,0,P|109:319|113:283,1,90.9999958343508,10|0,0:2|0:0,0:0:0:0:
0,129,72577,1,2,0:2:0:0:
26,293,72724,1,2,0:2:0:0:
220,123,72871,1,10,0:3:0:0:
193,302,73018,1,2,0:3:0:0:
65,195,73165,6,0,L|166:210,1,90.9999958343508,2|0,0:2|0:0,0:0:0:0:
332,84,73459,2,0,L|241:97,1,90.9999958343508,10|0,0:3|0:0,0:0:0:0:
330,252,73753,1,2,0:3:0:0:
398,139,73900,1,2,0:3:0:0:
227,180,74047,1,10,0:2:0:0:
414,334,74195,1,2,0:3:0:0:
509,208,74342,6,0,L|418:221,1,90.9999958343508,6|0,0:2|0:0,0:0:0:0:
275,363,74636,2,0,P|312:301|305:263,1,90.9999958343508,10|0,0:3|0:0,0:0:0:0:
169,136,74930,1,2,0:3:0:0:
223,284,75077,1,2,0:2:0:0:
346,94,75224,2,0,P|304:126|258:132,1,90.9999958343508,10|0,0:2|0:0,0:0:0:0:
96,63,75518,5,2,0:2:0:0:
144,244,75665,1,2,0:3:0:0:
206,38,75812,1,10,0:2:0:0:
38,180,75959,1,2,0:3:0:0:
238,302,76106,2,0,L|225:143,1,136.499993751526,2|0,0:2|2:0,0:0:0:0:
284,95,76400,2,0,P|329:122|375:123,1,90.9999958343508,8|0,0:0|0:0,0:0:0:0:
512,15,76695,5,6,0:2:0:0:
463,222,76842,1,2,0:3:0:0:
347,42,76989,2,0,L|439:58,1,90.9999958343508,10|0,0:2|0:0,0:0:0:0:
343,252,77283,1,2,0:2:0:0:
284,95,77430,1,2,0:2:0:0:
259,322,77577,1,10,0:3:0:0:
379,157,77724,1,2,0:3:0:0:
166,210,77871,6,0,L|258:226,1,90.9999958343508,2|0,0:2|0:0,0:0:0:0:
437,321,78165,2,0,L|347:336,1,90.9999958343508,10|0,0:3|0:0,0:0:0:0:
260,140,78459,1,2,0:3:0:0:
216,336,78606,1,2,0:3:0:0:
349,224,78753,1,10,0:2:0:0:
129,277,78900,1,2,0:3:0:0:
307,380,79047,6,0,L|294:281,1,90.9999958343508,6|0,0:2|0:0,0:0:0:0:
185,112,79342,2,0,L|172:211,1,90.9999958343508,10|0,0:3|0:0,0:0:0:0:
371,48,79636,1,2,0:3:0:0:
277,176,79783,1,2,0:2:0:0:
200,14,79930,2,0,P|241:39|284:39,1,90.9999958343508,10|0,0:2|0:0,0:0:0:0:
354,211,80224,5,2,0:2:0:0:
402,30,80371,1,2,0:3:0:0:
469,220,80518,1,10,0:3:0:0:
298,122,80665,1,0,0:0:0:0:
347,313,80812,1,6,0:2:0:0:
421,152,80959,2,0,L|427:100,2,45.4999979171754,8|8|4,0:0|0:0|3:0,0:0:0:0:
280,255,81253,1,8,0:0:0:0:
280,255,81327,1,8,0:0:0:0:
280,255,81400,6,0,P|228:234|192:235,1,90.9999958343508,6|2,1:2|0:3,0:0:0:0:
80,98,81695,2,0,P|105:139|110:203,1,90.9999958343508,10|0,0:2|0:0,0:0:0:0:
76,368,81989,1,2,0:2:0:0:
16,170,82136,1,2,0:2:0:0:
208,311,82283,1,10,0:3:0:0:
20,272,82430,1,2,0:3:0:0:
168,154,82577,6,0,L|152:257,1,90.9999958343508,2|0,0:2|0:0,0:0:0:0:
33,50,82871,2,0,P|76:87|123:88,1,90.9999958343508,10|0,0:3|0:0,0:0:0:0:
295,48,83165,1,2,0:3:0:0:
105,1,83312,1,2,0:3:0:0:
164,175,83459,1,10,0:2:0:0:
202,21,83606,1,2,0:3:0:0:
336,130,83753,6,0,L|233:146,1,90.9999958343508,6|0,0:2|0:0,0:0:0:0:
441,11,84047,2,0,P|417:66|428:115,1,90.9999958343508,10|0,0:3|0:0,0:0:0:0:
467,255,84342,1,2,0:3:0:0:
502,70,84489,1,2,0:2:0:0:
402,198,84636,1,10,0:2:0:0:
340,19,84783,1,0,0:0:0:0:
312,243,84930,5,2,0:2:0:0:
481,153,85077,1,2,0:3:0:0:
254,28,85224,1,10,0:2:0:0:
390,285,85371,1,2,0:3:0:0:
473,47,85518,2,0,L|323:69,1,136.499993751526,2|0,0:2|2:0,0:0:0:0:
245,114,85812,2,0,P|261:64|241:7,1,90.9999958343508,8|0,0:0|0:0,0:0:0:0:
292,231,86106,5,6,0:2:0:0:
174,61,86253,1,2,0:3:0:0:
138,303,86400,2,0,L|259:291,1,90.9999958343508,10|0,0:2|0:0,0:0:0:0:
295,144,86695,1,2,0:2:0:0:
354,340,86842,1,2,0:2:0:0:
208,200,86989,1,10,0:3:0:0:
409,257,87136,1,2,0:3:0:0:
196,353,87283,6,0,P|241:321|283:319,1,90.9999958343508,2|0,0:2|0:0,0:0:0:0:
448,360,87577,2,0,L|435:257,1,90.9999958343508,10|0,0:3|0:0,0:0:0:0:
278,155,87871,1,2,0:3:0:0:
345,266,88018,1,2,0:3:0:0:
360,115,88165,1,10,0:2:0:0:
234,251,88312,1,6,0:3:0:0:
218,55,88459,5,14,0:2:0:0:
436,322,88606,1,4,3:0:0:0:
376,46,88753,5,10,0:3:0:0:
333,364,88900,1,4,3:0:0:0:
298,11,89047,5,10,0:3:0:0:
216,353,89194,1,4,3:0:0:0:
141,11,89342,1,10,0:2:0:0:
141,11,89415,1,8,0:0:0:0:
141,11,89489,1,4,3:0:0:0:
353,285,89636,5,10,0:2:0:0:
426,19,89783,1,6,3:0:0:0:
446,350,89930,5,10,0:3:0:0:
309,60,90077,1,4,3:0:0:0:
263,320,90224,6,0,L|270:376,3,45.4999979171754,10|8|8|8,0:2|0:0|0:0|0:0,0:0:0:0:
242,288,90518,1,8,0:0:0:0:
244,258,90591,1,8,0:0:0:0:
247,229,90665,1,8,0:0:0:0:
249,200,90738,1,8,0:0:0:0:
252,171,90812,1,4,0:0:0:0:
