osu file format v14

[General]
AudioFilename: beatmap-637117741815504006-Miku_Cover_2.mp3
AudioLeadIn: 0
PreviewTime: 15445
Countdown: 0
SampleSet: Soft
StackLeniency: 0.7
Mode: 0
LetterboxInBreaks: 0
WidescreenStoryboard: 1

[Editor]
DistanceSpacing: 1.1
BeatDivisor: 4
GridSize: 8
TimelineZoom: 3.699999

[Metadata]
Title:Ai no Sukima (Rock Cover)
TitleUnicode:哀の隙間 (Rock Cover)
Artist:MIMI feat. Hatsune Miku
ArtistUnicode:MIMI feat. 初音ミク
Creator:Nuvolina
Version:LMT's Expert
Source:
Tags:schianovus instrumental rock vocaloid myxo myxomatosis anto maridius kalibe log_off_now logoffnow lon lmt
BeatmapID:2283640
BeatmapSetID:1092468

[Difficulty]
HPDrainRate:6
CircleSize:4
OverallDifficulty:8.5
ApproachRate:9.3
SliderMultiplier:1.4
SliderTickRate:1

[Events]
//Background and Video events
0,0,"miku.jpg",0,0
//Break Periods
//Storyboard Layer 0 (Background)
//Storyboard Layer 1 (Fail)
//Storyboard Layer 2 (Pass)
//Storyboard Layer 3 (Foreground)
//Storyboard Layer 4 (Overlay)
//Storyboard Sound Samples

[TimingPoints]
-952,294.117647058823,4,2,1,40,1,0
6106,-100,4,2,1,70,0,0
14342,-100,4,1,1,80,0,0
14930,-40,4,1,1,80,0,0
15077,-200,4,1,1,80,0,0
15224,-40,4,1,1,80,0,0
15371,-200,4,1,1,80,0,0
15518,-66.6666666666667,4,1,1,90,0,1
33165,-40,4,1,1,90,0,1
33312,-200,4,1,1,90,0,1
33459,-40,4,1,1,90,0,1
33606,-200,4,1,1,90,0,1
33753,-66.6666666666667,4,1,1,90,0,1
34342,-100,4,2,1,70,0,0
43753,-100,4,2,1,80,0,0
50959,-100,4,1,1,80,0,0
53165,-100,4,1,1,90,0,0
71989,-66.6666666666667,4,1,1,90,0,1
81400,-57.1428571428571,4,1,1,90,0,1
88459,-40,4,1,1,90,0,1
88606,-200,4,1,1,90,0,1
88753,-40,4,1,1,90,0,1
88900,-200,4,1,1,90,0,1
89047,-40,4,1,1,90,0,1
89195,-200,4,1,1,90,0,1
89636,-40,4,1,1,90,0,1
89783,-200,4,1,1,90,0,1
89930,-40,4,1,1,90,0,1
90077,-200,4,1,1,90,0,1
90224,-57.1428571428571,4,1,1,90,0,1
90812,-100,4,1,1,90,0,0

[Colours]
Combo1 : 165,181,201
Combo2 : 61,186,222
Combo3 : 183,114,192
Combo4 : 84,130,250

[HitObjects]
256,192,812,12,0,5445,0:0:0:0:
105,145,6106,5,6,1:2:0:0:
189,184,6253,1,2,0:3:0:0:
234,97,6400,1,2,1:2:0:0:
476,169,6695,5,2,0:0:0:0:
385,204,6842,1,2,0:0:0:0:
336,70,6989,1,2,1:3:0:0:
428,34,7136,1,2,0:3:0:0:
297,158,7283,5,2,0:0:0:0:
297,158,7577,1,2,1:3:0:0:
297,158,7871,1,2,0:3:0:0:
245,245,8018,1,2,0:3:0:0:
150,252,8165,1,2,1:2:0:0:
89,177,8312,1,2,0:3:0:0:
177,50,8459,5,2,0:0:0:0:
177,50,8753,1,2,1:3:0:0:
177,50,9047,1,2,0:3:0:0:
264,19,9195,1,2,0:0:0:0:
360,48,9342,1,2,1:2:0:0:
482,271,9636,5,2,0:0:0:0:
390,315,9783,1,2,0:3:0:0:
328,195,9930,1,2,1:2:0:0:
328,195,10224,1,2,0:0:0:0:
43,294,10812,5,6,1:2:0:0:
130,271,10959,1,2,0:3:0:0:
200,332,11106,1,2,1:2:0:0:
104,134,11400,5,2,0:0:0:0:
186,173,11547,1,2,0:0:0:0:
264,118,11695,1,2,1:3:0:0:
231,26,11842,1,2,0:3:0:0:
372,9,11989,5,2,0:0:0:0:
372,9,12283,1,2,1:3:0:0:
372,9,12577,1,2,0:3:0:0:
385,107,12724,1,2,0:3:0:0:
400,199,12871,1,2,1:2:0:0:
418,288,13018,1,2,0:3:0:0:
265,347,13165,5,2,0:0:0:0:
265,347,13459,1,2,1:3:0:0:
265,347,13753,1,2,0:3:0:0:
189,285,13900,1,2,0:0:0:0:
286,187,14047,1,2,1:2:0:0:
45,68,14342,6,0,B|157:33|147:117|259:53,1,210,6|2,0:2|0:3,0:0:0:0:
320,38,14856,1,0,0:0:0:0:
339,26,14930,6,0,L|328:148,1,87.5,10|0,0:2|2:0,0:0:0:0:
343,129,15077,2,0,L|345:100,1,17.5,4|0,3:0|2:0,0:0:0:0:
180,205,15224,6,0,L|169:327,1,87.5,8|0,0:0|2:0,0:0:0:0:
184,308,15371,2,0,L|186:279,1,17.5,4|0,3:0|2:0,0:0:0:0:
409,263,15518,5,6,1:2:0:0:
338,204,15665,1,2,0:3:0:0:
278,281,15812,2,0,P|286:325|296:386,1,105.000004005432,10|0,0:2|0:0,0:0:0:0:
172,131,16106,5,2,0:2:0:0:
41,89,16253,1,2,0:2:0:0:
84,177,16400,1,10,0:3:0:0:
129,46,16547,1,2,0:3:0:0:
178,134,16695,6,0,P|170:196|148:319,1,157.500006008148,2|0,0:2|2:0,0:0:0:0:
146,302,16989,2,0,P|86:285|24:277,1,105.000004005432,10|0,0:3|0:0,0:0:0:0:
274,229,17283,1,2,0:3:0:0:
350,366,17430,1,2,0:3:0:0:
256,328,17577,1,10,0:2:0:0:
443,227,17724,1,2,0:3:0:0:
308,36,17871,6,0,P|317:117|400:115,1,157.500006008148,6|0,0:2|2:0,0:0:0:0:
390,117,18165,2,0,P|431:111|520:107,1,105.000004005432,10|0,0:3|0:0,0:0:0:0:
234,193,18459,1,2,0:3:0:0:
54,129,18606,1,2,0:2:0:0:
140,95,18753,1,10,0:2:0:0:
157,232,18900,1,0,0:0:0:0:
23,277,19047,5,2,0:2:0:0:
96,347,19195,1,2,0:3:0:0:
328,253,19342,1,10,0:2:0:0:
261,334,19489,1,2,0:3:0:0:
494,176,19636,2,0,P|459:110|356:115,1,157.500006008148,2|0,0:2|2:0,0:0:0:0:
376,112,19930,2,0,P|361:165|352:203,1,52.5000020027161,8|0,0:0|2:0,0:0:0:0:
253,185,20077,1,0,0:0:0:0:
52,63,20224,5,6,0:2:0:0:
147,63,20371,1,2,0:3:0:0:
90,224,20518,1,10,0:2:0:0:
16,161,20665,1,0,0:0:0:0:
234,263,20812,5,2,0:2:0:0:
186,336,20959,1,2,0:2:0:0:
97,353,21106,1,10,0:3:0:0:
13,311,21253,1,2,0:3:0:0:
318,261,21400,6,0,P|376:257|499:250,1,157.500006008148,2|0,0:2|2:0,0:0:0:0:
476,242,21695,2,0,P|449:293|433:357,1,105.000004005432,10|0,0:3|0:0,0:0:0:0:
412,176,21989,1,2,0:3:0:0:
365,89,22136,1,2,0:3:0:0:
447,31,22283,1,10,0:2:0:0:
507,120,22430,1,2,0:3:0:0:
298,158,22577,6,0,P|232:140|127:124,1,157.500006008148,6|0,0:2|2:0,0:0:0:0:
136,131,22871,2,0,P|123:53|110:-7,1,105.000004005432,10|0,0:3|0:0,0:0:0:0:
0,255,23165,1,2,0:3:0:0:
95,222,23312,1,2,0:2:0:0:
188,255,23459,1,10,0:2:0:0:
233,346,23606,1,0,0:0:0:0:
2,267,23753,5,2,0:2:0:0:
90,319,23900,1,2,0:3:0:0:
309,187,24047,1,10,0:3:0:0:
321,192,24342,5,6,0:2:0:0:
390,122,24489,1,8,0:0:0:0:
393,101,24562,2,0,P|402:62|412:16,1,52.5000020027161,8|4,0:0|3:0,0:0:0:0:
224,105,24783,1,8,0:0:0:0:
220,83,24856,1,8,0:0:0:0:
208,65,24930,5,6,1:2:0:0:
114,54,25077,1,2,0:3:0:0:
182,255,25224,1,10,0:2:0:0:
90,234,25371,1,0,0:0:0:0:
392,338,25518,5,2,0:2:0:0:
352,241,25665,1,2,0:2:0:0:
267,197,25812,1,10,0:3:0:0:
385,346,25959,1,2,0:3:0:0:
441,180,26106,6,0,P|462:83|477:11,1,157.500006008148,2|0,0:2|2:0,0:0:0:0:
472,18,26400,1,10,0:3:0:0:
368,24,26547,1,0,0:0:0:0:
371,36,26621,1,0,0:0:0:0:
374,47,26695,1,2,0:3:0:0:
288,97,26842,1,2,0:3:0:0:
193,88,26989,1,10,0:2:0:0:
138,9,27136,1,2,0:3:0:0:
300,232,27283,6,0,P|221:216|131:204,1,157.500006008148,6|0,0:2|2:0,0:0:0:0:
134,214,27577,1,10,0:3:0:0:
171,300,27724,1,0,0:0:0:0:
166,310,27797,1,0,0:0:0:0:
162,320,27871,1,2,0:3:0:0:
56,319,28018,1,2,0:2:0:0:
16,228,28165,1,10,0:2:0:0:
47,132,28312,1,0,0:0:0:0:
294,115,28459,5,2,0:2:0:0:
201,83,28606,1,2,0:3:0:0:
412,148,28753,1,10,0:2:0:0:
384,55,28900,1,2,0:3:0:0:
384,301,29047,2,0,P|411:184|427:124,1,157.500006008148,2|0,0:2|2:0,0:0:0:0:
319,243,29342,2,0,P|326:217|332:192,1,52.5000020027161,8|0,0:0|2:0,0:0:0:0:
254,192,29489,1,0,0:0:0:0:
58,304,29636,5,6,0:2:0:0:
153,262,29783,1,2,0:3:0:0:
130,91,29930,1,10,0:2:0:0:
39,64,30077,1,0,0:0:0:0:
147,273,30224,5,2,0:2:0:0:
129,102,30371,1,2,0:2:0:0:
37,74,30518,1,10,0:3:0:0:
34,198,30665,1,2,0:3:0:0:
226,96,30812,6,0,P|295:77|416:68,1,157.500006008148,2|0,0:2|2:0,0:0:0:0:
390,74,31106,1,10,0:3:0:0:
456,132,31253,1,0,0:0:0:0:
466,122,31327,1,0,0:0:0:0:
472,111,31400,1,2,0:3:0:0:
385,202,31547,1,2,0:3:0:0:
441,358,31695,1,10,0:2:0:0:
504,281,31842,1,2,0:3:0:0:
307,277,31989,6,0,P|240:261|135:245,1,157.500006008148,6|0,0:2|2:0,0:0:0:0:
151,256,32283,1,10,0:3:0:0:
189,373,32430,1,0,0:0:0:0:
192,361,32503,1,0,0:0:0:0:
195,347,32577,1,2,0:3:0:0:
84,331,32724,1,2,0:2:0:0:
219,166,32871,1,10,0:2:0:0:
128,149,33018,1,0,0:0:0:0:
343,18,33165,6,0,P|348:66|359:143,1,87.5,10|0,0:2|2:0,0:0:0:0:
364,101,33312,2,0,P|367:115|370:133,1,17.5,6|0,3:0|2:0,0:0:0:0:
502,168,33459,6,0,P|491:217|443:217,1,87.5,10|0,0:3|2:0,0:0:0:0:
447,221,33606,2,0,P|433:221|421:221,1,17.5,4|0,3:0|2:0,0:0:0:0:
380,306,33753,5,10,0:2:0:0:
331,276,33827,1,8,0:0:0:0:
286,279,33900,1,4,3:0:0:0:
251,301,33974,1,4,3:0:0:0:
252,315,34047,5,8,0:0:0:0:
223,292,34121,1,8,0:0:0:0:
176,279,34195,1,8,0:0:0:0:
120,290,34268,1,8,0:0:0:0:
75,333,34342,5,4,1:2:0:0:
53,261,34489,1,0,0:0:0:0:
8,199,34636,1,0,3:0:0:0:
83,191,34930,1,0,3:0:0:0:
151,164,35077,1,0,0:0:0:0:
202,112,35224,1,0,3:0:0:0:
212,38,35371,1,0,0:0:0:0:
435,13,35518,5,8,1:0:0:0:
492,59,35812,1,0,3:0:0:0:
509,133,36106,1,8,1:0:0:0:
429,255,36253,1,8,1:0:0:0:
488,207,36400,1,4,3:0:0:0:
355,271,36547,1,4,3:0:0:0:
433,263,36695,5,4,1:0:0:0:
492,305,36989,1,0,3:0:0:0:
512,375,37283,1,0,3:0:0:0:
486,307,37430,1,0,0:0:0:0:
436,256,37577,1,0,3:0:0:0:
36,123,37871,5,8,1:0:0:0:
103,160,38018,1,0,0:0:0:0:
179,161,38165,1,0,3:0:0:0:
236,108,38459,1,8,1:0:0:0:
349,38,38606,1,8,1:0:0:0:
476,96,38753,1,8,1:0:0:0:
365,184,38900,1,8,1:0:0:0:
241,116,39047,5,4,1:0:0:0:
267,191,39195,1,0,0:0:0:0:
266,268,39342,1,0,3:0:0:0:
260,191,39636,1,0,3:0:0:0:
236,111,39783,1,0,0:0:0:0:
182,58,39930,1,0,3:0:0:0:
113,37,40077,1,0,0:0:0:0:
31,212,40224,5,8,1:0:0:0:
85,266,40518,1,0,3:0:0:0:
158,281,40812,1,8,1:0:0:0:
307,270,40959,1,8,1:0:0:0:
234,265,41106,1,4,3:0:0:0:
371,307,41253,1,4,3:0:0:0:
307,277,41400,5,4,1:0:0:0:
347,209,41695,1,0,3:0:0:0:
344,133,41989,1,0,3:0:0:0:
312,67,42136,1,0,0:0:0:0:
255,22,42283,1,0,3:0:0:0:
483,351,42577,5,8,1:0:0:0:
256,192,42650,12,0,43680,0:0:0:0:
307,171,43753,6,0,P|260:164|228:158,1,70,6|2,1:2|0:3,0:0:0:0:
162,170,44047,1,10,1:2:0:0:
313,79,44195,2,0,P|332:142|397:144,1,140,4|4,3:0|3:0,0:0:0:0:
415,339,44636,2,0,P|431:296|443:265,1,70,10|2,1:3|0:3,0:0:0:0:
452,271,44856,1,2,0:3:0:0:
464,266,44930,6,0,B|390:240|410:294|302:247,1,140,4|10,3:0|1:3,0:0:0:0:
260,355,45371,2,0,P|258:302|169:312,1,140,4|6,3:0|3:0,0:0:0:0:
130,341,45812,1,10,1:2:0:0:
100,249,45959,1,6,3:0:0:0:
67,150,46106,6,0,P|55:101|45:54,1,70,6|0,1:2|0:0,0:0:0:0:
6,20,46400,1,10,1:3:0:0:
214,37,46547,2,0,P|170:38|147:131,1,140,4|4,3:0|3:0,0:0:0:0:
311,119,46989,2,0,P|276:120|224:120,1,70,10|0,1:2|0:0,0:0:0:0:
419,19,47283,5,4,3:0:0:0:
411,106,47430,1,6,3:0:0:0:
508,71,47577,2,0,P|498:130|496:170,1,70,10|0,1:2|0:0,0:0:0:0:
489,230,47871,1,2,0:0:0:0:
366,294,48018,5,4,3:0:0:0:
284,249,48165,1,8,1:0:0:0:
252,234,48238,1,8,1:0:0:0:
219,242,48312,1,4,3:0:0:0:
198,269,48385,1,4,3:0:0:0:
199,303,48459,6,0,P|160:289|121:285,1,70,6|2,1:2|0:3,0:0:0:0:
49,321,48753,1,10,1:2:0:0:
14,159,48900,2,0,P|25:238|90:214,1,140,4|4,3:0|3:0,0:0:0:0:
128,109,49342,2,0,P|127:145|128:188,1,70,10|2,1:3|0:3,0:0:0:0:
136,181,49562,1,2,0:3:0:0:
145,179,49636,6,0,B|228:156|200:203|300:171,1,140,4|10,3:0|1:3,0:0:0:0:
352,138,50077,2,0,P|331:82|236:88,1,140,4|6,3:0|3:0,0:0:0:0:
357,215,50518,2,0,P|392:222|442:235,1,70,10|6,1:2|3:0,0:0:0:0:
508,312,50812,5,6,1:2:0:0:
428,355,50959,1,0,0:0:0:0:
421,336,51033,1,0,0:0:0:0:
328,346,51180,1,0,0:0:0:0:
323,332,51253,1,0,0:0:0:0:
211,313,51400,5,6,3:0:0:0:
217,300,51474,1,0,0:0:0:0:
125,259,51621,1,0,0:0:0:0:
125,245,51695,1,4,3:0:0:0:
36,202,51842,2,0,L|26:157,1,35,0|0,0:0|2:0,0:0:0:0:
28,76,51989,5,4,3:0:0:0:
46,71,52062,1,0,0:0:0:0:
59,78,52136,1,2,0:3:0:0:
66,90,52209,1,0,0:0:0:0:
65,103,52283,5,10,0:3:0:0:
109,88,52356,1,8,0:0:0:0:
155,101,52430,1,8,0:0:0:0:
192,136,52503,1,8,0:0:0:0:
219,179,52577,1,4,3:0:0:0:
264,197,52650,1,4,3:0:0:0:
299,188,52724,1,4,3:0:0:0:
317,164,52797,1,4,3:0:0:0:
316,144,52871,1,0,0:0:0:0:
303,131,52945,1,0,0:0:0:0:
289,127,53018,1,0,0:0:0:0:
278,131,53092,1,0,0:0:0:0:
274,140,53165,5,14,0:2:0:0:
398,191,53312,1,4,3:0:0:0:
438,43,53459,1,4,3:0:0:0:
375,100,53606,5,10,0:2:0:0:
476,128,53753,1,4,3:0:0:0:
492,133,53827,1,0,0:0:0:0:
505,139,53900,1,4,3:0:0:0:
301,10,54047,5,10,0:2:0:0:
327,261,54195,1,4,3:0:0:0:
192,37,54342,5,14,0:2:0:0:
128,150,54489,1,4,3:0:0:0:
49,94,54636,1,6,3:0:0:0:
222,140,54783,5,10,0:2:0:0:
179,260,54930,1,4,3:0:0:0:
177,271,55003,1,0,0:0:0:0:
175,282,55077,1,4,3:0:0:0:
81,306,55224,6,0,L|14:293,1,35,10|0,0:2|2:0,0:0:0:0:
257,343,55371,2,0,L|311:353,1,35,6|0,3:0|2:0,0:0:0:0:
308,158,55518,5,14,0:2:0:0:
320,152,55592,1,0,0:0:0:0:
335,145,55665,1,6,3:0:0:0:
484,292,55812,1,4,3:0:0:0:
499,155,55959,5,10,0:2:0:0:
487,161,56033,1,0,0:0:0:0:
472,168,56106,1,6,3:0:0:0:
363,243,56253,1,4,3:0:0:0:
406,353,56400,5,10,0:2:0:0:
424,95,56547,1,6,3:0:0:0:
185,188,56695,5,14,0:2:0:0:
96,160,56842,1,4,3:0:0:0:
9,132,56989,1,4,3:0:0:0:
279,218,57136,5,10,0:2:0:0:
194,190,57283,1,6,3:0:0:0:
105,163,57430,1,4,3:0:0:0:
279,226,57577,5,10,0:2:0:0:
7,141,57724,1,4,3:0:0:0:
296,19,57871,5,14,0:2:0:0:
371,82,58018,1,4,3:0:0:0:
365,95,58092,1,0,0:0:0:0:
360,109,58165,1,4,3:0:0:0:
457,40,58312,5,10,0:2:0:0:
261,101,58459,1,4,3:0:0:0:
263,115,58533,1,0,0:0:0:0:
264,129,58606,1,4,3:0:0:0:
167,70,58753,5,10,0:2:0:0:
347,191,58900,1,4,3:0:0:0:
179,298,59047,5,14,0:2:0:0:
115,232,59195,1,4,3:0:0:0:
120,219,59268,1,0,0:0:0:0:
126,207,59342,1,6,3:0:0:0:
59,304,59489,5,10,0:2:0:0:
227,219,59636,1,4,3:0:0:0:
223,209,59709,1,0,0:0:0:0:
218,198,59783,1,4,3:0:0:0:
23,224,59930,5,10,0:2:0:0:
283,293,60077,1,4,3:0:0:0:
70,108,60224,5,14,0:2:0:0:
170,85,60371,2,0,P|179:39|185:3,1,70,6|4,3:0|3:0,0:0:0:0:
506,189,60665,5,10,0:2:0:0:
414,224,60812,2,0,P|400:169|395:129,1,70,6|6,3:0|3:0,0:0:0:0:
81,341,61106,5,10,0:2:0:0:
168,301,61253,1,6,3:0:0:0:
9,185,61400,5,14,0:2:0:0:
107,196,61547,1,4,3:0:0:0:
276,355,61695,5,6,3:0:0:0:
259,264,61842,1,8,0:0:0:0:
502,148,61989,5,6,3:0:0:0:
400,160,62136,1,4,3:0:0:0:
287,0,62283,5,10,0:2:0:0:
270,90,62430,1,4,3:0:0:0:
248,182,62577,6,0,P|203:169|161:155,1,70,14|4,0:2|3:0,0:0:0:0:
89,166,62871,1,4,3:0:0:0:
274,265,63018,6,0,P|333:258|368:255,1,70,10|4,0:2|3:0,0:0:0:0:
438,252,63312,1,4,3:0:0:0:
204,343,63459,5,10,0:2:0:0:
112,309,63606,1,4,3:0:0:0:
330,175,63753,5,14,0:2:0:0:
238,165,63900,1,4,3:0:0:0:
240,153,63974,1,0,0:0:0:0:
242,141,64047,1,6,3:0:0:0:
153,203,64195,5,10,0:2:0:0:
318,93,64342,1,4,3:0:0:0:
321,81,64415,1,0,0:0:0:0:
323,68,64489,1,4,3:0:0:0:
139,109,64636,6,0,L|80:93,1,35,10|0,0:2|2:0,0:0:0:0:
330,175,64783,2,0,L|375:187,1,35,6|0,3:0|2:0,0:0:0:0:
153,328,64930,5,14,0:2:0:0:
155,315,65003,1,0,0:0:0:0:
158,302,65077,1,6,3:0:0:0:
16,123,65224,1,4,3:0:0:0:
15,257,65371,5,10,0:2:0:0:
15,245,65445,1,0,0:0:0:0:
16,231,65518,1,6,3:0:0:0:
159,196,65665,1,4,3:0:0:0:
54,347,65812,5,10,0:2:0:0:
131,116,65959,1,6,3:0:0:0:
313,273,66106,5,14,0:2:0:0:
403,243,66253,1,4,3:0:0:0:
421,144,66400,1,4,3:0:0:0:
308,286,66547,5,10,0:2:0:0:
406,254,66695,1,6,3:0:0:0:
499,305,66842,1,4,3:0:0:0:
306,300,66989,5,10,0:2:0:0:
420,154,67136,1,4,3:0:0:0:
242,48,67283,5,14,0:2:0:0:
210,145,67430,1,4,3:0:0:0:
183,242,67577,1,4,3:0:0:0:
115,94,67724,5,10,0:2:0:0:
305,186,67871,1,4,3:0:0:0:
299,197,67945,1,0,0:0:0:0:
293,209,68018,1,4,3:0:0:0:
89,188,68165,5,10,0:2:0:0:
326,100,68312,1,4,3:0:0:0:
247,369,68459,5,14,0:2:0:0:
162,318,68606,1,4,3:0:0:0:
73,272,68753,1,6,3:0:0:0:
258,282,68900,5,10,0:2:0:0:
52,356,69047,1,4,3:0:0:0:
41,359,69121,1,0,0:0:0:0:
30,365,69195,1,4,3:0:0:0:
240,366,69342,5,10,0:2:0:0:
80,278,69489,1,4,3:0:0:0:
368,181,69636,5,14,0:2:0:0:
363,191,69709,1,0,0:0:0:0:
359,202,69783,1,6,3:0:0:0:
425,366,69930,1,4,3:0:0:0:
484,222,70077,5,10,0:2:0:0:
479,232,70150,1,0,0:0:0:0:
474,242,70224,1,6,3:0:0:0:
322,300,70371,1,6,3:0:0:0:
424,354,70518,5,10,0:2:0:0:
370,174,70665,1,6,3:0:0:0:
185,263,70812,5,14,0:2:0:0:
198,236,70886,1,8,0:0:0:0:
53,278,71033,1,0,0:0:0:0:
59,288,71106,5,6,3:0:0:0:
92,261,71180,1,4,3:0:0:0:
94,216,71253,1,4,3:0:0:0:
68,181,71327,1,4,3:0:0:0:
46,139,71400,1,2,0:2:0:0:
51,106,71474,1,0,0:0:0:0:
72,82,71547,1,0,0:0:0:0:
93,81,71621,1,0,0:0:0:0:
100,90,71695,5,10,0:2:0:0:
106,58,71768,1,8,0:0:0:0:
151,40,71842,1,8,0:0:0:0:
202,45,71915,1,8,0:0:0:0:
241,80,71989,6,0,P|236:104|227:149,1,52.5000020027161,6|0,1:2|2:0,0:0:0:0:
332,204,72136,2,0,L|318:276,1,52.5000020027161,2|0,0:3|2:0,0:0:0:0:
455,122,72283,2,0,P|403:115|333:104,1,105.000004005432,10|0,0:2|0:0,0:0:0:0:
174,208,72577,5,2,0:2:0:0:
141,289,72724,1,2,0:2:0:0:
135,304,72797,1,0,0:0:0:0:
127,319,72871,2,0,P|95:322|62:322,1,52.5000020027161,10|0,0:3|2:0,0:0:0:0:
241,311,73018,2,0,P|230:340|220:378,1,52.5000020027161,2|0,0:3|2:0,0:0:0:0:
356,368,73165,6,0,P|404:328|505:318,1,157.500006008148,2|0,0:2|2:0,0:0:0:0:
493,325,73459,1,10,0:3:0:0:
443,229,73606,1,0,0:0:0:0:
443,219,73680,1,0,0:0:0:0:
441,206,73753,6,0,P|471:186|509:185,1,52.5000020027161,2|0,0:3|2:0,0:0:0:0:
303,109,73900,2,0,P|272:81|226:68,1,52.5000020027161,2|0,0:3|2:0,0:0:0:0:
415,40,74047,2,0,P|410:74|403:111,1,52.5000020027161,10|0,0:2|2:0,0:0:0:0:
350,195,74195,2,0,P|343:225|333:273,1,52.5000020027161,2|0,0:3|2:0,0:0:0:0:
112,214,74342,6,0,P|163:185|283:200,1,157.500006008148,6|0,0:2|2:0,0:0:0:0:
255,196,74636,1,10,0:3:0:0:
135,107,74783,1,0,0:0:0:0:
124,104,74856,1,0,0:0:0:0:
110,101,74930,2,0,P|75:93|41:86,1,52.5000020027161,2|0,0:3|2:0,0:0:0:0:
188,285,75077,2,0,P|164:297|142:311,1,52.5000020027161,2|0,0:2|2:0,0:0:0:0:
308,116,75224,2,0,P|393:105|446:95,1,105.000004005432,10|0,0:2|0:0,0:0:0:0:
503,256,75518,5,2,0:2:0:0:
320,303,75665,1,2,0:3:0:0:
359,192,75812,2,0,P|382:193|433:197,1,52.5000020027161,10|0,0:2|2:0,0:0:0:0:
480,357,75959,2,0,P|440:354|398:348,1,52.5000020027161,2|0,0:3|2:0,0:0:0:0:
309,312,76106,2,0,P|384:282|525:264,1,210.000008010865,2|8,0:2|0:0,0:0:0:0:
212,239,76547,1,0,0:0:0:0:
208,248,76621,1,0,0:0:0:0:
204,259,76695,6,0,P|192:291|183:335,1,52.5000020027161,6|0,0:2|2:0,0:0:0:0:
139,195,76842,2,0,P|108:192|49:197,1,52.5000020027161,2|0,0:3|2:0,0:0:0:0:
216,88,76989,2,0,P|243:154|282:141,1,105.000004005432,10|0,0:2|0:0,0:0:0:0:
329,117,77209,1,0,0:0:0:0:
339,124,77283,6,0,P|344:156|349:203,1,52.5000020027161,2|0,0:2|2:0,0:0:0:0:
457,49,77430,2,0,P|448:78|435:135,1,52.5000020027161,2|0,0:2|2:0,0:0:0:0:
377,303,77577,2,0,P|392:266|407:232,1,52.5000020027161,10|0,0:3|2:0,0:0:0:0:
493,362,77724,2,0,P|488:315|483:270,1,52.5000020027161,2|0,0:3|2:0,0:0:0:0:
512,180,77871,6,0,P|436:178|321:187,1,157.500006008148,2|0,0:2|2:0,0:0:0:0:
344,186,78165,1,10,0:3:0:0:
145,261,78312,1,0,0:0:0:0:
133,255,78386,1,0,0:0:0:0:
120,249,78459,6,0,P|83:236|43:221,1,52.5000020027161,2|0,0:3|2:0,0:0:0:0:
253,278,78606,2,0,P|235:311|222:348,1,52.5000020027161,2|0,0:3|2:0,0:0:0:0:
273,103,78753,2,0,P|299:91|347:79,1,52.5000020027161,10|0,0:2|2:0,0:0:0:0:
163,115,78900,2,0,P|152:79|130:34,1,52.5000020027161,2|0,0:3|2:0,0:0:0:0:
354,182,79047,6,0,P|283:181|188:192,1,157.500006008148,6|0,0:2|2:0,0:0:0:0:
196,198,79342,1,10,0:3:0:0:
356,265,79489,1,0,0:0:0:0:
367,271,79562,1,0,0:0:0:0:
378,277,79636,2,0,P|411:294|456:314,1,52.5000020027161,2|0,0:3|2:0,0:0:0:0:
149,312,79783,2,0,P|112:323|64:339,1,52.5000020027161,2|0,0:2|2:0,0:0:0:0:
271,376,79930,2,0,P|262:299|255:240,1,105.000004005432,10|0,0:2|0:0,0:0:0:0:
218,30,80224,6,0,P|211:59|200:117,1,52.5000020027161,2|0,0:2|2:0,0:0:0:0:
127,84,80371,2,0,P|136:120|156:179,1,52.5000020027161,2|0,0:3|2:0,0:0:0:0:
379,143,80518,2,0,P|291:128|239:123,1,105.000004005432,10|0,0:3|0:0,0:0:0:0:
270,133,80739,1,0,0:0:0:0:
264,141,80812,1,6,0:2:0:0:
424,229,80959,5,8,0:0:0:0:
451,217,81033,2,0,P|481:207|526:200,1,52.5000020027161,8|4,0:0|3:0,0:0:0:0:
371,336,81253,1,8,0:0:0:0:
325,324,81327,1,8,0:0:0:0:
272,321,81400,6,0,P|232:326|198:332,1,61.2500005841255,6|0,1:2|2:0,0:0:0:0:
86,283,81547,2,0,P|53:300|4:325,1,61.2500005841255,2|0,0:3|2:0,0:0:0:0:
216,241,81695,2,0,P|297:226|376:216,1,122.500001168251,10|0,0:2|0:0,0:0:0:0:
12,121,81989,6,0,P|43:146|68:187,1,61.2500005841255,2|0,0:2|2:0,0:0:0:0:
91,25,82136,2,0,P|113:65|128:113,1,61.2500005841255,2|0,0:2|2:0,0:0:0:0:
233,143,82283,2,0,P|274:122|328:112,1,61.2500005841255,10|0,0:3|2:0,0:0:0:0:
269,26,82430,2,0,P|316:32|375:52,1,61.2500005841255,2|0,0:3|2:0,0:0:0:0:
512,211,82577,6,0,P|466:219|414:101,1,183.750001752377,2|0,0:2|2:0,0:0:0:0:
315,193,82871,2,0,P|352:246|389:324,1,122.500001168251,10|0,0:3|0:0,0:0:0:0:
297,326,83092,1,0,0:0:0:0:
292,318,83165,6,0,P|272:285|244:246,1,61.2500005841255,2|0,0:3|2:0,0:0:0:0:
166,221,83312,2,0,P|132:204|69:197,1,61.2500005841255,2|0,0:3|2:0,0:0:0:0:
246,139,83459,2,0,P|217:115|166:88,1,61.2500005841255,10|0,0:2|2:0,0:0:0:0:
96,81,83606,2,0,P|79:75|7:57,1,61.2500005841255,2|0,0:3|2:0,0:0:0:0:
29,350,83753,6,0,P|109:360|192:291,1,183.750001752377,6|0,0:2|2:0,0:0:0:0:
254,258,84047,2,0,P|310:237|401:234,1,122.500001168251,10|0,0:3|0:0,0:0:0:0:
442,260,84268,1,0,0:0:0:0:
451,270,84342,6,0,P|471:305|483:368,1,61.2500005841255,2|0,0:3|2:0,0:0:0:0:
433,139,84489,2,0,P|476:161|506:174,1,61.2500005841255,2|0,0:2|2:0,0:0:0:0:
288,75,84636,2,0,P|350:58|440:37,1,122.500001168251,10|0,0:2|0:0,0:0:0:0:
143,230,84930,5,2,0:2:0:0:
56,39,85077,1,2,0:3:0:0:
22,256,85224,2,0,P|36:219|62:175,1,61.2500005841255,10|0,0:2|2:0,0:0:0:0:
203,14,85371,2,0,P|184:32|145:80,1,61.2500005841255,2|0,0:3|2:0,0:0:0:0:
147,221,85518,2,0,P|109:130|57:37,1,183.750001752377,2|0,0:2|2:0,0:0:0:0:
207,138,85812,2,0,P|234:207|268:287,1,122.500001168251,8|0,0:0|0:0,0:0:0:0:
328,261,86033,1,0,0:0:0:0:
339,252,86106,6,0,P|391:240|428:235,1,61.2500005841255,6|0,0:2|2:0,0:0:0:0:
432,313,86253,2,0,P|478:319|534:335,1,61.2500005841255,2|0,0:3|2:0,0:0:0:0:
275,353,86400,2,0,P|201:337|113:332,1,122.500001168251,10|0,0:2|0:0,0:0:0:0:
73,338,86621,1,0,0:0:0:0:
67,328,86695,6,0,P|52:302|18:244,1,61.2500005841255,2|0,0:2|2:0,0:0:0:0:
126,248,86842,2,0,P|129:201|149:153,1,61.2500005841255,2|0,0:2|2:0,0:0:0:0:
297,184,86989,2,0,P|321:143|351:111,1,61.2500005841255,10|0,0:3|2:0,0:0:0:0:
228,104,87136,2,0,P|220:65|192:18,1,61.2500005841255,2|0,0:3|2:0,0:0:0:0:
508,20,87283,6,0,P|496:60|371:43,1,183.750001752377,2|0,0:2|2:0,0:0:0:0:
419,195,87577,2,0,P|470:172|536:154,1,122.500001168251,10|0,0:3|0:0,0:0:0:0:
509,251,87797,1,0,0:0:0:0:
490,260,87871,6,0,P|460:278|413:319,1,61.2500005841255,2|0,0:3|2:0,0:0:0:0:
355,268,88018,2,0,P|328:301|310:347,1,61.2500005841255,2|0,0:3|2:0,0:0:0:0:
188,361,88165,2,0,P|167:317|140:281,1,61.2500005841255,10|0,0:2|2:0,0:0:0:0:
68,275,88312,2,0,P|38:251|-13:223,1,61.2500005841255,6|0,0:3|2:0,0:0:0:0:
0,24,88459,6,0,P|65:72|77:134,1,87.5,14|0,0:2|2:0,0:0:0:0:
71,88,88606,2,0,P|63:104|59:117,1,17.5,4|0,3:0|2:0,0:0:0:0:
212,35,88753,6,0,P|213:101|191:149,1,87.5,10|0,0:3|2:0,0:0:0:0:
195,132,88900,2,0,L|166:141,1,17.5,4|0,3:0|2:0,0:0:0:0:
355,172,89047,6,0,P|294:205|249:205,1,87.5,10|0,0:3|2:0,0:0:0:0:
268,199,89195,2,0,L|248:194,1,17.5,4|0,3:0|2:0,0:0:0:0:
423,285,89342,5,10,0:2:0:0:
370,306,89415,1,8,0:0:0:0:
315,301,89489,1,4,3:0:0:0:
461,155,89636,6,0,P|479:115|523:54,1,87.5,10|0,0:2|2:0,0:0:0:0:
435,32,89783,2,0,P|446:20|457:9,1,17.5,6|0,3:0|2:0,0:0:0:0:
357,164,89930,6,0,P|339:107|311:58,1,87.5,10|0,0:3|2:0,0:0:0:0:
251,56,90077,2,0,L|235:34,1,17.5,4|0,3:0|2:0,0:0:0:0:
113,123,90224,5,10,0:2:0:0:
142,164,90297,1,8,0:0:0:0:
138,213,90371,1,8,0:0:0:0:
105,254,90445,1,8,0:0:0:0:
90,310,90518,1,8,0:0:0:0:
110,362,90592,1,8,0:0:0:0:
161,380,90665,1,8,0:0:0:0:
205,350,90739,1,8,0:0:0:0:
202,301,90812,1,4,0:0:0:0:
