osu file format v14

[General]
AudioFilename: beatmap-637117741815504006-Miku_Cover_2.mp3
AudioLeadIn: 0
PreviewTime: 15445
Countdown: 0
SampleSet: Soft
StackLeniency: 0.2
Mode: 0
LetterboxInBreaks: 0
WidescreenStoryboard: 1

[Editor]
Bookmarks: 6106,15518,34342,43753,53165,62577,71989
DistanceSpacing: 0.6
BeatDivisor: 4
GridSize: 32
TimelineZoom: 1.8

[Metadata]
Title:Ai no Sukima (Rock Cover)
TitleUnicode:哀の隙間 (Rock Cover)
Artist:MIMI feat. Hatsune Miku
ArtistUnicode:MIMI feat. 初音ミク
Creator:Nuvolina
Version:Colors of an Infinite Past
Source:
Tags:schianovus instrumental rock vocaloid myxo myxomatosis anto maridius kalibe log_off_now logoffnow lon lmt
BeatmapID:2283637
BeatmapSetID:1092468

[Difficulty]
HPDrainRate:6
CircleSize:4.5
OverallDifficulty:9
ApproachRate:9.7
SliderMultiplier:1.6
SliderTickRate:1

[Events]
//Background and Video events
0,0,"miku.jpg",0,0
//Break Periods
//Storyboard Layer 0 (Background)
//Storyboard Layer 1 (Fail)
//Storyboard Layer 2 (Pass)
//Storyboard Layer 3 (Foreground)
//Storyboard Layer 4 (Overlay)
//Storyboard Sound Samples

[TimingPoints]
-952,294.117647058823,4,2,1,40,1,0
6106,-100,4,2,1,70,0,0
14342,-76.9230769230769,4,1,1,80,0,0
14930,-50,4,1,1,80,0,0
15518,-55.5555555555556,4,1,1,90,0,1
33165,-50,4,1,1,90,0,1
33753,-66.6666666666667,4,1,1,90,0,1
34342,-133.333333333333,4,2,1,70,0,0
43753,-100,4,2,1,80,0,0
50959,-100,4,1,1,80,0,0
53165,-71.4285714285714,4,1,1,90,0,0
71989,-55.5555555555556,4,1,1,90,0,1
90812,-100,4,1,1,90,0,0

[Colours]
Combo1 : 165,181,201
Combo2 : 61,186,222
Combo3 : 183,114,192
Combo4 : 84,130,250

[HitObjects]
256,192,812,12,0,5518,0:0:0:0:
30,208,6106,5,6,1:2:0:0:
81,298,6253,1,2,0:3:0:0:
112,151,6400,2,0,P|121:120|97:75,1,80,2|0,1:2|0:0,0:0:0:0:
165,245,6695,1,2,0:0:0:0:
232,312,6842,1,2,0:0:0:0:
301,139,6989,1,2,1:3:0:0:
332,232,7136,1,2,0:3:0:0:
460,151,7283,2,0,L|462:251,1,80,2|0,0:0|0:0,0:0:0:0:
323,347,7577,2,0,P|315:301|337:264,1,80,2|0,1:3|0:0,0:0:0:0:
460,151,7871,5,2,0:3:0:0:
435,58,8018,1,2,0:3:0:0:
367,207,8165,1,2,1:2:0:0:
299,140,8312,1,2,0:3:0:0:
205,279,8459,2,0,L|209:178,1,80,2|0,0:0|0:0,0:0:0:0:
299,64,8753,2,0,P|310:103|283:157,1,80,2|0,1:3|0:0,0:0:0:0:
147,21,9047,5,2,0:3:0:0:
82,92,9195,1,2,0:0:0:0:
190,163,9342,2,0,P|201:196|187:251,1,80,2|0,1:2|0:0,0:0:0:0:
88,350,9636,1,2,0:0:0:0:
41,254,9783,1,2,0:3:0:0:
234,230,9930,2,0,P|274:224|326:247,1,80,2|0,1:2|0:0,0:0:0:0:
267,366,10224,2,0,P|309:369|359:349,1,80,2|0,0:0|0:0,0:0:0:0:
173,315,10518,1,0,1:0:0:0:
173,315,10812,5,6,1:2:0:0:
72,264,10959,1,2,0:3:0:0:
170,146,11106,2,0,P|177:108|147:63,1,80,2|0,1:2|0:0,0:0:0:0:
229,234,11400,1,2,0:0:0:0:
173,315,11547,1,2,0:0:0:0:
340,269,11694,1,2,1:3:0:0:
300,171,11841,1,2,0:3:0:0:
431,186,11988,2,0,L|425:94,1,80,2|0,0:0|0:0,0:0:0:0:
301,10,12282,2,0,P|293:56|315:93,1,80,2|0,1:3|0:0,0:0:0:0:
417,217,12577,5,2,0:3:0:0:
389,321,12724,1,2,0:3:0:0:
300,171,12871,1,2,1:2:0:0:
274,274,13018,1,2,0:3:0:0:
491,270,13165,2,0,L|489:370,1,80,2|0,0:0|0:0,0:0:0:0:
273,349,13459,2,0,P|262:310|289:256,1,80,2|0,1:3|0:0,0:0:0:0:
153,384,13753,5,2,0:3:0:0:
54,328,13900,1,2,0:0:0:0:
166,246,14047,2,0,P|157:188|202:131,1,120,2|0,1:2|0:0,0:0:0:0:
260,174,14342,6,0,P|174:209|100:110,1,207.999990478516,6|0,0:2|0:0,0:0:0:0:
171,6,14783,1,2,0:3:0:0:
191,35,14856,1,0,0:0:0:0:
212,62,14930,6,0,L|285:95,1,80,10|0,0:2|2:0,0:0:0:0:
439,36,15077,2,0,L|376:84,1,80,4|0,3:0|2:0,0:0:0:0:
203,195,15224,2,0,L|288:183,1,80,8|0,0:0|2:0,0:0:0:0:
480,162,15371,2,0,L|400:172,1,80,4|0,3:0|2:0,0:0:0:0:
212,62,15518,5,6,1:2:0:0:
107,205,15665,1,2,0:3:0:0:
254,343,15812,2,0,P|277:281|224:208,1,143.999995605469,10|0,0:2|0:0,0:0:0:0:
35,164,16106,2,0,P|26:215|42:255,1,71.9999978027344,2|0,0:2|2:0,0:0:0:0:
130,341,16253,2,0,P|147:304|144:254,1,71.9999978027344,2|0,0:2|2:0,0:0:0:0:
245,147,16400,2,0,P|236:198|252:238,1,71.9999978027344,10|0,0:3|2:0,0:0:0:0:
333,327,16547,2,0,P|350:290|347:240,1,71.9999978027344,2|0,0:3|2:0,0:0:0:0:
467,172,16695,2,0,P|464:117|329:58,1,215.999993408203,2|0,0:2|2:0,0:0:0:0:
357,174,16989,2,0,P|378:174|454:83,1,143.999995605469,10|0,0:3|0:0,0:0:0:0:
213,304,17283,6,0,P|174:315|133:297,1,71.9999978027344,2|0,0:3|2:0,0:0:0:0:
37,212,17430,2,0,P|76:201|117:219,1,71.9999978027344,2|0,0:3|2:0,0:0:0:0:
126,369,17577,2,0,P|92:346|79:303,1,71.9999978027344,10|0,0:2|2:0,0:0:0:0:
124,146,17724,2,0,P|157:168|170:211,1,71.9999978027344,2|0,0:3|2:0,0:0:0:0:
296,172,17871,2,0,P|313:90|204:42,1,215.999993408203,6|0,0:2|2:0,0:0:0:0:
169,196,18165,2,0,P|252:207|307:151,1,143.999995605469,10|0,0:3|0:0,0:0:0:0:
398,16,18459,5,2,0:3:0:0:
512,141,18607,1,2,0:2:0:0:
335,240,18754,2,0,P|319:305|373:377,1,143.999995605469,10|0,0:2|0:0,0:0:0:0:
155,367,19048,1,2,0:2:0:0:
40,223,19195,1,2,0:3:0:0:
297,165,19342,2,0,P|354:139|433:191,1,143.999995605469,10|2,0:2|0:3,0:0:0:0:
252,282,19636,2,0,P|194:316|86:211,1,215.999993408203,2|0,0:2|2:0,0:0:0:0:
162,169,19930,1,8,0:0:0:0:
162,169,20224,5,6,0:2:0:0:
44,71,20371,1,2,0:3:0:0:
218,33,20518,2,0,P|276:15|361:77,1,143.999995605469,10|0,0:2|0:0,0:0:0:0:
162,169,20812,2,0,L|184:261,1,71.9999978027344,2|0,0:2|2:0,0:0:0:0:
255,364,20959,2,0,L|238:287,1,71.9999978027344,2|0,0:2|2:0,0:0:0:0:
267,151,21106,2,0,L|252:221,1,71.9999978027344,10|0,0:3|2:0,0:0:0:0:
153,378,21253,2,0,L|168:308,1,71.9999978027344,2|0,0:3|2:0,0:0:0:0:
162,168,21400,2,0,P|84:149|7:251,1,215.999993408203,2|0,0:2|2:0,0:0:0:0:
108,280,21694,2,0,P|163:238|162:169,1,143.999995605469,10|0,0:3|0:0,0:0:0:0:
305,331,21989,6,0,L|380:348,1,71.9999978027344,2|0,0:3|2:0,0:0:0:0:
505,257,22136,2,0,L|423:272,1,71.9999978027344,2|0,0:3|2:0,0:0:0:0:
272,234,22283,2,0,L|347:251,1,71.9999978027344,10|0,0:2|2:0,0:0:0:0:
512,161,22430,2,0,L|430:176,1,71.9999978027344,2|0,0:3|2:0,0:0:0:0:
291,76,22577,2,0,P|210:64|113:159,1,215.999993408203,6|0,0:2|2:0,0:0:0:0:
248,186,22871,2,0,P|247:121|185:67,1,143.999995605469,10|0,0:3|0:0,0:0:0:0:
335,315,23165,5,2,0:3:0:0:
169,354,23312,1,2,0:2:0:0:
141,173,23459,2,0,P|126:101|178:41,1,143.999995605469,10|0,0:2|0:0,0:0:0:0:
245,228,23753,1,2,0:2:0:0:
372,125,23900,1,2,0:3:0:0:
165,47,24047,2,0,P|74:67|42:24,1,143.999995605469,10|0,0:3|0:0,0:0:0:0:
299,18,24342,5,6,0:2:0:0:
150,184,24489,1,8,0:0:0:0:
163,217,24562,1,8,0:0:0:0:
176,251,24636,1,4,3:0:0:0:
316,340,24783,1,8,0:0:0:0:
331,306,24856,1,8,0:0:0:0:
346,273,24930,5,6,1:2:0:0:
179,380,25077,1,2,0:3:0:0:
25,276,25224,2,0,P|18:213|70:141,1,143.999995605469,10|0,0:2|0:0,0:0:0:0:
255,58,25518,2,0,L|251:131,1,71.9999978027344,2|0,0:2|2:0,0:0:0:0:
351,22,25665,2,0,L|355:95,1,71.9999978027344,2|0,0:2|2:0,0:0:0:0:
247,201,25812,2,0,L|251:128,1,71.9999978027344,10|0,0:3|2:0,0:0:0:0:
151,237,25959,2,0,L|147:164,1,71.9999978027344,2|0,0:3|2:0,0:0:0:0:
299,252,26107,2,0,P|388:238|469:331,1,215.999993408203,2|0,0:2|2:0,0:0:0:0:
355,366,26401,2,0,P|345:285|394:228,1,143.999995605469,10|0,0:3|0:0,0:0:0:0:
498,107,26695,6,0,P|465:88|419:91,1,71.9999978027344,2|0,0:3|2:0,0:0:0:0:
311,16,26842,2,0,P|275:30|250:69,1,71.9999978027344,2|0,0:3|2:0,0:0:0:0:
319,187,26989,2,0,P|286:206|240:203,1,71.9999978027344,10|0,0:2|2:0,0:0:0:0:
132,278,27136,2,0,P|96:263|71:224,1,71.9999978027344,2|0,0:3|2:0,0:0:0:0:
44,82,27283,2,0,P|156:63|236:129,1,215.999993408203,6|0,0:2|2:0,0:0:0:0:
136,193,27577,2,0,P|122:95|155:52,1,143.999995605469,10|0,0:3|0:0,0:0:0:0:
313,122,27871,5,2,0:3:0:0:
355,305,28019,1,2,0:2:0:0:
478,164,28166,2,0,P|487:93|422:39,1,143.999995605469,10|0,0:2|0:0,0:0:0:0:
417,271,28460,1,2,0:2:0:0:
326,108,28607,1,2,0:3:0:0:
200,334,28754,2,0,P|143:360|64:308,1,143.999995605469,10|2,0:2|0:3,0:0:0:0:
295,213,29048,2,0,P|358:177|479:256,1,215.999993408203,2|0,0:2|2:0,0:0:0:0:
512,337,29342,1,8,0:0:0:0:
512,337,29636,5,6,0:2:0:0:
342,384,29783,1,2,0:3:0:0:
295,213,29930,2,0,P|313:155|251:70,1,143.999995605469,10|0,0:2|0:0,0:0:0:0:
88,224,30224,2,0,L|78:296,1,71.9999978027344,2|0,0:2|2:0,0:0:0:0:
199,382,30371,2,0,L|210:295,1,71.9999978027344,2|0,0:2|2:0,0:0:0:0:
144,179,30518,2,0,L|134:251,1,71.9999978027344,10|0,0:3|2:0,0:0:0:0:
299,359,30665,2,0,L|308:276,1,71.9999978027344,2|0,0:3|2:0,0:0:0:0:
256,126,30812,2,0,P|335:188|307:288,1,215.999993408203,2|0,0:2|2:0,0:0:0:0:
212,213,31106,2,0,P|265:175|346:206,1,143.999995605469,10|0,0:3|0:0,0:0:0:0:
509,76,31400,6,0,L|501:4,1,71.9999978027344,2|0,0:3|2:0,0:0:0:0:
420,146,31547,2,0,L|412:74,1,71.9999978027344,2|0,0:3|2:0,0:0:0:0:
507,231,31695,2,0,L|499:159,1,71.9999978027344,10|0,0:2|2:0,0:0:0:0:
420,300,31842,2,0,L|412:228,1,71.9999978027344,2|0,0:3|2:0,0:0:0:0:
296,141,31989,2,0,P|199:129|125:212,1,215.999993408203,6|0,0:2|2:0,0:0:0:0:
241,253,32283,2,0,P|265:202|233:122,1,143.999995605469,10|0,0:3|0:0,0:0:0:0:
140,375,32577,5,2,0:3:0:0:
314,379,32724,1,2,0:2:0:0:
406,244,32871,2,0,P|474:263|499:337,1,143.999995605469,10|0,0:2|0:0,0:0:0:0:
234,218,33165,5,10,0:2:0:0:
235,201,33239,1,4,3:0:0:0:
236,185,33312,1,6,3:0:0:0:
237,168,33386,1,4,3:0:0:0:
207,140,33459,5,10,0:3:0:0:
208,123,33533,1,4,3:0:0:0:
207,107,33606,1,4,3:0:0:0:
207,90,33680,1,4,3:0:0:0:
141,47,33753,5,10,0:2:0:0:
102,63,33827,1,8,0:0:0:0:
75,105,33900,1,4,3:0:0:0:
77,154,33974,1,4,3:0:0:0:
122,226,34047,5,8,0:0:0:0:
132,266,34121,1,8,0:0:0:0:
116,313,34194,1,8,0:0:0:0:
76,341,34268,1,8,0:0:0:0:
2,317,34342,5,4,1:2:0:0:
122,226,34636,2,0,P|166:212|219:243,1,90.0000034332277,0|0,3:0|0:0,0:0:0:0:
228,259,34930,1,0,3:0:0:0:
161,376,35224,1,0,3:0:0:0:
55,149,35518,6,0,P|44:111|63:59,1,90.0000034332277,8|0,1:0|0:0,0:0:0:0:
93,45,35812,1,0,3:0:0:0:
182,270,36106,5,8,1:0:0:0:
240,98,36253,1,8,1:0:0:0:
293,223,36400,5,4,3:0:0:0:
354,156,36547,1,4,3:0:0:0:
440,224,36695,6,0,P|473:196|466:139,1,90.0000034332277,4|0,1:0|0:0,0:0:0:0:
451,119,36989,1,0,3:0:0:0:
364,249,37283,1,0,3:0:0:0:
289,111,37577,2,0,L|200:100,1,90.0000034332277,0|0,3:0|0:0,0:0:0:0:
129,94,37871,5,8,1:0:0:0:
36,219,38165,2,0,L|41:323,1,90.0000034332277,0|0,3:0|0:0,0:0:0:0:
46,380,38459,5,8,1:0:0:0:
117,202,38606,1,8,1:0:0:0:
160,354,38753,1,8,1:0:0:0:
241,210,38900,1,8,1:0:0:0:
308,333,39047,5,4,1:0:0:0:
435,242,39342,2,0,P|458:284|440:328,1,90.0000034332277,0|0,3:0|0:0,0:0:0:0:
414,345,39636,1,0,3:0:0:0:
338,208,39930,1,0,3:0:0:0:
509,25,40224,6,0,P|463:16|419:53,1,90.0000034332277,8|0,1:0|0:0,0:0:0:0:
417,75,40518,1,0,3:0:0:0:
497,285,40812,5,8,1:0:0:0:
337,372,40959,1,8,1:0:0:0:
384,244,41106,5,4,3:0:0:0:
293,251,41253,1,4,3:0:0:0:
368,146,41400,6,0,L|267:134,1,90.0000034332277,4|0,1:0|0:0,0:0:0:0:
238,134,41695,1,0,3:0:0:0:
160,269,41989,1,0,3:0:0:0:
160,269,42283,1,0,3:0:0:0:
256,14,42577,5,8,1:0:0:0:
256,192,42650,12,0,43680,0:0:0:0:
256,14,43753,6,0,P|280:58|223:148,1,160,6|10,1:2|1:2,0:0:0:0:
230,145,44342,1,2,0:0:0:0:
195,236,44489,1,4,3:0:0:0:
127,121,44636,1,10,1:3:0:0:
54,184,44783,1,2,0:3:0:0:
195,236,44930,6,0,P|240:272|280:261,1,80,4|4,3:0|3:0,0:0:0:0:
315,180,45224,2,0,P|376:157|455:221,1,160,10|2,1:3|0:3,0:0:0:0:
506,309,45665,1,6,3:0:0:0:
373,240,45812,1,10,1:2:0:0:
501,150,45959,1,6,3:0:0:0:
363,27,46106,6,0,B|312:189,1,160,6|10,1:2|1:3,0:0:0:0:
314,179,46695,1,2,0:3:0:0:
249,260,46842,1,4,3:0:0:0:
171,190,46989,1,10,1:2:0:0:
171,190,47283,5,4,3:0:0:0:
235,114,47430,1,6,3:0:0:0:
249,260,47577,2,0,P|213:281|160:281,1,80,10|0,1:2|0:0,0:0:0:0:
94,195,47871,2,0,P|53:205|35:275,1,120,2|0,0:0|0:0,0:0:0:0:
95,330,48165,5,8,1:0:0:0:
147,329,48239,1,8,1:0:0:0:
175,284,48312,1,4,3:0:0:0:
163,249,48386,1,4,3:0:0:0:
94,195,48459,6,0,P|95:101|147:70,1,160,6|10,1:2|1:2,0:0:0:0:
144,70,49047,1,2,0:0:0:0:
224,139,49195,1,4,3:0:0:0:
295,12,49342,1,10,1:3:0:0:
221,59,49489,1,2,0:3:0:0:
326,125,49636,6,0,L|422:117,1,80,4|4,3:0|3:0,0:0:0:0:
379,235,49930,2,0,L|458:217,1,80,10|4,1:3|3:0,0:0:0:0:
299,201,50224,1,2,0:3:0:0:
270,338,50371,1,6,3:0:0:0:
177,240,50518,1,10,1:2:0:0:
136,338,50665,1,6,3:0:0:0:
28,263,50812,5,6,1:2:0:0:
17,131,50959,1,0,0:0:0:0:
15,108,51033,1,0,0:0:0:0:
24,91,51106,1,6,3:0:0:0:
39,75,51180,1,0,0:0:0:0:
60,69,51253,2,0,P|83:68|104:80,1,40,0|0,0:0|2:0,0:0:0:0:
184,65,51400,5,6,3:0:0:0:
203,85,51474,1,0,0:0:0:0:
215,109,51547,1,2,0:2:0:0:
216,137,51621,1,0,0:0:0:0:
206,162,51695,2,0,P|193:173|158:176,1,40,4|0,3:0|2:0,0:0:0:0:
99,280,51842,2,0,P|120:270|151:275,1,40,0|0,0:0|2:0,0:0:0:0:
220,324,51989,5,4,3:0:0:0:
251,342,52062,1,0,0:0:0:0:
287,342,52136,1,2,0:3:0:0:
319,328,52209,1,0,0:0:0:0:
389,272,52283,5,10,0:3:0:0:
368,233,52356,1,8,0:0:0:0:
368,188,52430,1,8,0:0:0:0:
395,153,52503,1,8,0:0:0:0:
472,118,52577,5,4,3:0:0:0:
479,87,52650,1,4,3:0:0:0:
473,51,52724,1,4,3:0:0:0:
465,25,52797,1,4,3:0:0:0:
392,50,52871,5,0,0:0:0:0:
376,53,52945,1,0,0:0:0:0:
360,54,53018,1,0,0:0:0:0:
344,51,53092,1,0,0:0:0:0:
271,22,53165,6,0,P|209:10|168:56,1,111.999996582031,14|4,0:2|3:0,0:0:0:0:
344,51,53459,1,4,3:0:0:0:
292,194,53606,2,0,P|343:211|409:179,1,111.999996582031,10|4,0:2|3:0,0:0:0:0:
238,268,53900,1,4,3:0:0:0:
86,197,54047,2,0,L|100:76,1,111.999996582031,10|4,0:2|3:0,0:0:0:0:
271,20,54342,6,0,B|309:88|224:89|276:188,1,167.999994873047,14|0,0:2|2:0,0:0:0:0:
332,255,54636,1,6,3:0:0:0:
416,60,54783,2,0,P|392:99|403:167,2,111.999996582031,10|4|4,0:2|3:0|3:0,0:0:0:0:
266,98,55224,1,10,0:2:0:0:
179,217,55371,1,6,3:0:0:0:
179,217,55445,1,0,0:0:0:0:
179,217,55518,5,14,0:2:0:0:
43,134,55665,1,6,3:0:0:0:
174,75,55812,1,4,3:0:0:0:
79,283,55959,2,0,P|122:314|213:304,1,111.999996582031,10|6,0:2|3:0,0:0:0:0:
47,357,56253,1,4,3:0:0:0:
179,217,56400,1,10,0:2:0:0:
348,326,56547,1,6,3:0:0:0:
348,326,56621,1,0,0:0:0:0:
348,326,56695,6,0,L|355:203,1,111.999996582031,14|4,0:2|3:0,0:0:0:0:
412,46,56989,1,4,3:0:0:0:
512,216,57136,1,10,0:2:0:0:
330,136,57283,2,0,P|274:148|201:115,1,111.999996582031,6|4,3:0|3:0,0:0:0:0:
96,33,57577,2,0,P|46:33|38:142,1,167.999994873047,10|0,0:2|2:0,0:0:0:0:
114,240,57871,6,0,L|65:361,1,111.999996582031,14|4,0:2|3:0,0:0:0:0:
214,200,58165,1,4,3:0:0:0:
305,314,58312,2,0,L|326:177,1,111.999996582031,10|4,0:2|3:0,0:0:0:0:
219,344,58606,1,4,3:0:0:0:
424,277,58753,2,0,L|287:247,1,111.999996582031,10|4,0:2|3:0,0:0:0:0:
144,228,59047,6,0,B|127:178|127:178|174:154|194:83,1,167.999994873047,14|0,0:2|2:0,0:0:0:0:
155,9,59342,1,6,3:0:0:0:
292,133,59489,2,0,P|303:80|273:25,2,111.999996582031,10|4|4,0:2|3:0|3:0,0:0:0:0:
437,88,59930,1,10,0:2:0:0:
398,228,60077,1,4,3:0:0:0:
398,228,60150,1,0,0:0:0:0:
398,228,60224,5,14,0:2:0:0:
256,145,60371,2,0,P|241:192|274:270,1,111.999996582031,6|4,3:0|3:0,0:0:0:0:
331,91,60665,1,10,0:2:0:0:
257,250,60812,2,0,B|202:260|202:260|133:237,1,111.999996582031,6|6,3:0|3:0,0:0:0:0:
329,309,61106,1,10,0:2:0:0:
426,191,61253,1,6,3:0:0:0:
234,80,61400,5,14,0:2:0:0:
148,242,61547,1,4,3:0:0:0:
344,70,61695,5,6,3:0:0:0:
257,250,61842,1,8,0:0:0:0:
147,100,61989,5,6,3:0:0:0:
328,178,62136,1,4,3:0:0:0:
122,151,62283,5,10,0:2:0:0:
329,226,62430,1,4,3:0:0:0:
121,50,62577,6,0,P|74:44|17:93,1,111.999996582031,14|4,0:2|3:0,0:0:0:0:
211,157,62871,1,4,3:0:0:0:
58,249,63018,2,0,P|55:305|92:359,1,111.999996582031,10|4,0:2|3:0,0:0:0:0:
111,185,63312,1,4,3:0:0:0:
237,297,63459,2,0,P|290:318|348:284,1,111.999996582031,10|4,0:2|3:0,0:0:0:0:
287,62,63753,6,0,B|334:144|244:141|300:248,1,167.999994873047,14|0,0:2|2:0,0:0:0:0:
337,297,64047,1,6,3:0:0:0:
164,154,64195,2,0,P|159:209|190:260,2,111.999996582031,10|4|4,0:2|3:0|3:0,0:0:0:0:
58,249,64636,1,10,0:2:0:0:
184,363,64783,1,6,3:0:0:0:
184,363,64856,1,0,0:0:0:0:
184,363,64930,5,14,0:2:0:0:
272,255,65077,1,6,3:0:0:0:
133,150,65224,1,4,3:0:0:0:
259,58,65371,2,0,P|273:115|230:182,1,111.999996582031,10|6,0:2|3:0,0:0:0:0:
329,31,65665,1,4,3:0:0:0:
427,187,65812,2,0,L|450:77,1,111.999996582031,10|6,0:2|3:0,0:0:0:0:
339,252,66106,6,0,P|279:260|227:215,1,111.999996582031,14|4,0:2|3:0,0:0:0:0:
404,297,66400,1,4,3:0:0:0:
306,63,66547,2,0,P|286:115|313:191,1,111.999996582031,10|6,0:2|3:0,0:0:0:0:
368,9,66842,1,4,3:0:0:0:
216,109,66989,1,10,0:2:0:0:
83,34,67136,1,4,3:0:0:0:
83,34,67209,1,0,0:0:0:0:
83,34,67283,5,14,0:2:0:0:
132,207,67430,2,0,P|147:160|114:82,1,111.999996582031,4|4,3:0|3:0,0:0:0:0:
54,247,67724,1,10,0:2:0:0:
196,353,67871,2,0,B|251:343|251:343|320:366,1,111.999996582031,4|4,3:0|3:0,0:0:0:0:
190,230,68165,1,10,0:2:0:0:
353,171,68312,1,4,3:0:0:0:
269,274,68459,6,0,B|314:192|224:195|271:113,1,167.999994873047,14|0,0:2|2:0,0:0:0:0:
308,42,68753,1,6,3:0:0:0:
155,202,68901,2,0,P|149:140|190:93,2,111.999996582031,10|4|4,0:2|3:0|3:0,0:0:0:0:
158,13,69342,1,10,0:2:0:0:
277,123,69489,1,4,3:0:0:0:
277,123,69562,1,0,0:0:0:0:
277,123,69636,5,14,0:2:0:0:
443,104,69783,2,0,P|457:149|422:220,1,111.999996582031,6|4,3:0|3:0,0:0:0:0:
495,37,70077,1,10,0:2:0:0:
361,158,70224,2,0,P|347:215|372:273,1,111.999996582031,6|6,3:0|3:0,0:0:0:0:
381,40,70518,2,0,B|322:93|297:-6|213:64,1,167.999994873047,10|0,0:2|2:0,0:0:0:0:
160,136,70812,5,14,0:2:0:0:
128,159,70886,1,8,0:0:0:0:
89,159,70959,1,0,0:0:0:0:
51,144,71033,1,0,0:0:0:0:
93,80,71106,5,6,3:0:0:0:
119,116,71180,1,4,3:0:0:0:
128,159,71253,1,4,3:0:0:0:
110,201,71327,1,4,3:0:0:0:
58,250,71400,5,2,0:2:0:0:
49,276,71474,1,0,0:0:0:0:
50,303,71547,1,0,0:0:0:0:
64,327,71621,1,0,0:0:0:0:
140,360,71695,5,10,0:2:0:0:
179,337,71768,1,8,0:0:0:0:
222,364,71842,1,8,0:0:0:0:
260,343,71915,1,8,0:0:0:0:
312,374,71989,5,6,1:2:0:0:
456,309,72136,1,2,0:3:0:0:
391,167,72283,2,0,P|344:219|350:289,1,143.999995605469,10|0,0:2|0:0,0:0:0:0:
320,110,72577,2,0,P|269:101|229:117,1,71.9999978027344,2|0,0:2|2:0,0:0:0:0:
158,217,72724,2,0,P|195:234|245:231,1,71.9999978027344,2|0,0:2|2:0,0:0:0:0:
189,49,72871,2,0,P|138:40|98:56,1,71.9999978027344,10|0,0:3|2:0,0:0:0:0:
9,137,73018,2,0,P|46:154|96:151,1,71.9999978027344,2|0,0:3|2:0,0:0:0:0:
250,105,73166,2,0,P|280:59|427:78,1,215.999993408203,2|0,0:2|2:0,0:0:0:0:
365,171,73460,2,0,P|346:160|328:43,1,143.999995605469,10|0,0:3|0:0,0:0:0:0:
457,224,73753,6,0,P|468:256|454:300,1,71.9999978027344,2|0,0:3|2:0,0:0:0:0:
294,256,73900,2,0,P|333:245|374:263,1,71.9999978027344,2|0,0:3|2:0,0:0:0:0:
226,361,74047,2,0,P|192:338|179:295,1,71.9999978027344,10|0,0:2|2:0,0:0:0:0:
169,196,74194,2,0,P|202:218|215:261,1,71.9999978027344,2|0,0:3|2:0,0:0:0:0:
21,287,74341,2,0,P|18:193|114:101,1,215.999993408203,6|0,0:2|2:0,0:0:0:0:
136,261,74635,2,0,P|55:250|13:193,1,143.999995605469,10|0,0:3|0:0,0:0:0:0:
184,104,74929,5,2,0:3:0:0:
310,232,75077,1,2,0:2:0:0:
469,166,75224,2,0,P|475:101|408:39,1,143.999995605469,10|0,0:2|0:0,0:0:0:0:
418,250,75518,1,2,0:2:0:0:
318,74,75665,1,2,0:3:0:0:
148,257,75812,2,0,P|122:314|174:393,1,143.999995605469,10|2,0:2|0:3,0:0:0:0:
224,216,76106,2,0,P|258:158|153:50,1,215.999993408203,2|0,0:2|2:0,0:0:0:0:
91,86,76400,1,8,0:0:0:0:
91,86,76694,5,6,0:2:0:0:
224,216,76841,1,2,0:3:0:0:
337,57,76988,2,0,P|395:39|480:101,1,143.999995605469,10|0,0:2|0:0,0:0:0:0:
324,205,77282,2,0,L|251:202,1,71.9999978027344,2|0,0:2|2:0,0:0:0:0:
395,278,77429,2,0,L|412:347,1,71.9999978027344,2|0,0:2|2:0,0:0:0:0:
438,190,77576,2,0,L|524:178,1,71.9999978027344,10|0,0:3|2:0,0:0:0:0:
362,124,77723,2,0,L|334:51,1,71.9999978027344,2|0,0:3|2:0,0:0:0:0:
180,38,77871,2,0,P|140:137|37:143,1,215.999993408203,2|0,0:2|2:0,0:0:0:0:
66,23,78164,2,0,P|129:51|164:128,1,143.999995605469,10|0,0:2|0:0,0:0:0:0:
117,257,78459,6,0,P|113:290|137:328,1,71.9999978027344,2|0,0:3|2:0,0:0:0:0:
252,358,78606,2,0,L|221:278,1,71.9999978027344,2|0,0:3|2:0,0:0:0:0:
310,149,78753,2,0,P|338:176|348:222,1,71.9999978027344,10|0,0:2|2:0,0:0:0:0:
329,329,78900,2,0,L|294:253,1,71.9999978027344,2|0,0:3|2:0,0:0:0:0:
203,165,79047,2,0,P|212:60|313:39,1,215.999993408203,6|0,0:2|2:0,0:0:0:0:
310,149,79341,2,0,P|239:145|193:93,1,143.999995605469,10|0,0:3|0:0,0:0:0:0:
396,49,79635,5,2,0:3:0:0:
468,236,79782,1,2,0:2:0:0:
306,349,79929,2,0,P|291:277|343:217,1,143.999995605469,10|0,0:2|0:0,0:0:0:0:
496,121,80223,1,2,0:2:0:0:
327,13,80370,1,2,0:3:0:0:
174,136,80517,2,0,P|83:156|51:113,1,143.999995605469,10|0,0:3|0:0,0:0:0:0:
247,26,80812,5,6,0:2:0:0:
370,174,80959,1,8,0:0:0:0:
396,197,81032,1,8,0:0:0:0:
422,222,81106,1,4,3:0:0:0:
255,165,81253,1,8,0:0:0:0:
240,198,81327,1,8,0:0:0:0:
225,232,81400,5,6,1:2:0:0:
337,65,81547,1,2,0:3:0:0:
141,130,81694,2,0,P|134:67|197:22,1,143.999995605469,10|0,0:2|0:0,0:0:0:0:
240,198,81988,2,0,L|316:190,1,71.9999978027344,2|0,0:2|2:0,0:0:0:0:
453,212,82135,2,0,L|384:229,1,71.9999978027344,2|0,0:2|2:0,0:0:0:0:
295,364,82282,2,0,L|380:355,1,71.9999978027344,10|0,0:3|2:0,0:0:0:0:
501,305,82429,2,0,L|429:304,1,71.9999978027344,2|0,0:3|2:0,0:0:0:0:
283,278,82577,2,0,P|194:292|113:199,1,215.999993408203,2|0,0:2|2:0,0:0:0:0:
230,166,82871,2,0,P|240:247|191:304,1,143.999995605469,10|0,0:3|0:0,0:0:0:0:
135,99,83165,6,0,P|136:63|154:32,1,71.9999978027344,2|0,0:3|2:0,0:0:0:0:
295,79,83312,2,0,P|325:59|360:57,1,71.9999978027344,2|0,0:3|2:0,0:0:0:0:
371,199,83459,2,0,P|403:212|426:240,1,71.9999978027344,10|0,0:2|2:0,0:0:0:0:
288,295,83606,2,0,P|295:329|285:364,1,71.9999978027344,2|0,0:3|2:0,0:0:0:0:
150,302,83753,2,0,P|38:321|0:237,1,215.999993408203,6|0,0:2|2:0,0:0:0:0:
112,202,84047,2,0,P|126:300|93:343,1,143.999995605469,10|0,0:3|0:0,0:0:0:0:
196,137,84341,5,2,0:3:0:0:
288,295,84489,1,2,0:2:0:0:
444,187,84636,2,0,P|444:119|375:81,1,143.999995605469,10|0,0:2|0:0,0:0:0:0:
196,137,84930,1,2,0:2:0:0:
288,295,85077,1,2,0:3:0:0:
32,232,85224,2,0,P|6:289|58:368,1,143.999995605469,10|2,0:2|0:3,0:0:0:0:
105,194,85518,2,0,P|133:126|52:14,1,215.999993408203,2|0,0:2|2:0,0:0:0:0:
0,96,85812,1,8,0:0:0:0:
0,96,86106,5,6,0:2:0:0:
88,269,86253,1,2,0:3:0:0:
196,137,86400,2,0,P|254:119|339:181,1,143.999995605469,10|0,0:2|0:0,0:0:0:0:
263,305,86694,2,0,L|313:369,1,71.9999978027344,2|0,0:2|2:0,0:0:0:0:
490,234,86841,2,0,L|418:222,1,71.9999978027344,2|0,0:2|2:0,0:0:0:0:
359,287,86988,2,0,L|423:322,1,71.9999978027344,10|0,0:3|2:0,0:0:0:0:
478,127,87135,2,0,L|398:142,1,71.9999978027344,2|0,0:3|2:0,0:0:0:0:
260,183,87282,2,0,P|226:72|310:15,1,215.999993408203,2|0,0:2|2:0,0:0:0:0:
352,89,87577,2,0,P|324:153|260:182,1,143.999995605469,10|0,0:3|0:0,0:0:0:0:
478,127,87871,6,0,P|493:157|495:202,1,71.9999978027344,2|0,0:2|2:0,0:0:0:0:
409,273,88018,2,0,P|397:239|405:203,1,71.9999978027344,2|0,0:2|2:0,0:0:0:0:
468,351,88165,2,0,L|388:347,1,71.9999978027344,10|0,0:2|2:0,0:0:0:0:
266,284,88312,2,0,L|338:290,1,71.9999978027344,6|0,0:3|2:0,0:0:0:0:
260,183,88459,6,0,L|173:207,1,71.9999978027344,14|0,0:2|2:0,0:0:0:0:
103,231,88606,1,4,3:0:0:0:
24,46,88753,2,0,L|47:140,1,71.9999978027344,10|0,0:3|2:0,0:0:0:0:
68,199,88900,1,4,3:0:0:0:
203,50,89047,5,10,0:3:0:0:
333,220,89194,1,4,3:0:0:0:
206,245,89342,1,10,0:2:0:0:
203,209,89415,1,8,0:0:0:0:
202,171,89489,1,4,3:0:0:0:
41,206,89635,5,10,0:2:0:0:
42,223,89709,1,4,3:0:0:0:
43,239,89782,1,6,3:0:0:0:
44,256,89856,1,4,3:0:0:0:
14,284,89929,5,10,0:3:0:0:
15,301,90003,1,4,3:0:0:0:
14,317,90076,1,4,3:0:0:0:
14,334,90150,1,4,3:0:0:0:
91,353,90223,5,10,0:2:0:0:
126,375,90297,1,8,0:0:0:0:
176,372,90370,1,8,0:0:0:0:
215,341,90444,1,8,0:0:0:0:
285,301,90517,5,8,0:0:0:0:
319,274,90591,1,8,0:0:0:0:
361,274,90664,1,8,0:0:0:0:
398,295,90738,1,8,0:0:0:0:
452,359,90812,5,4,0:0:0:0:
