osu file format v14

[General]
AudioFilename: beatmap-637117741815504006-Miku_Cover_2.mp3
AudioLeadIn: 0
PreviewTime: 15445
Countdown: 0
SampleSet: Soft
StackLeniency: 0.7
Mode: 0
LetterboxInBreaks: 0
WidescreenStoryboard: 1

[Editor]
Bookmarks: 43753,53165
DistanceSpacing: 1
BeatDivisor: 4
GridSize: 4
TimelineZoom: 1

[Metadata]
Title:Ai no Sukima (Rock Cover)
TitleUnicode:哀の隙間 (Rock Cover)
Artist:MIMI feat. Hatsune Miku
ArtistUnicode:MIMI feat. 初音ミク
Creator:Nuvolina
Version:Anto's Light Insane
Source:
Tags:schianovus instrumental rock vocaloid myxo myxomatosis anto maridius kalibe log_off_now logoffnow lon lmt
BeatmapID:2283635
BeatmapSetID:1092468

[Difficulty]
HPDrainRate:5
CircleSize:4.1
OverallDifficulty:7
ApproachRate:9
SliderMultiplier:1.4
SliderTickRate:1

[Events]
//Background and Video events
0,0,"miku.jpg",0,0
//Break Periods
//Storyboard Layer 0 (Background)
//Storyboard Layer 1 (Fail)
//Storyboard Layer 2 (Pass)
//Storyboard Layer 3 (Foreground)
//Storyboard Layer 4 (Overlay)
//Storyboard Sound Samples

[TimingPoints]
-952,294.117647058823,4,2,1,40,1,0
6106,-111.111111111111,4,2,1,70,0,0
14342,-166.666666666667,4,1,1,80,0,0
15518,-90.9090909090909,4,1,1,90,0,1
34342,-125,4,2,1,70,0,0
43753,-111.111111111111,4,2,1,80,0,0
50959,-111.111111111111,4,1,1,80,0,0
51989,-66.6666666666666,4,1,1,80,0,0
53165,-90.9090909090909,4,1,1,90,0,0
71989,-90.9090909090909,4,1,1,90,0,1
90812,-100,4,1,1,90,0,0

[Colours]
Combo1 : 165,181,201
Combo2 : 61,186,222
Combo3 : 183,114,192
Combo4 : 84,130,250

[HitObjects]
256,192,812,12,0,5518,0:0:0:0:
92,40,6106,5,6,1:2:0:0:
72,112,6253,1,2,0:3:0:0:
145,94,6400,1,2,1:2:0:0:
145,94,6695,2,0,P|146:127|126:165,1,62.9999980773926,2|2,0:0|0:0,0:0:0:0:
68,188,6989,2,0,P|67:221|87:259,1,62.9999980773926,2|2,1:3|0:3,0:0:0:0:
180,304,7283,6,0,B|216:300|238:324|238:324|256:348|296:344,1,125.999996154785,2|2,0:0|1:3,0:0:0:0:
402,239,7871,2,0,P|404:206|430:172,1,62.9999980773926,2|2,0:3|0:3,0:0:0:0:
362,130,8165,2,0,P|357:93|329:60,1,62.9999980773926,2|2,1:2|0:3,0:0:0:0:
228,52,8459,6,0,P|208:88|108:92,1,125.999996154785,2|2,0:0|1:3,0:0:0:0:
24,212,9047,2,0,L|28:292,1,62.9999980773926,2|2,0:3|0:0,0:0:0:0:
32,352,9342,1,2,1:2:0:0:
272,284,9636,5,2,0:0:0:0:
220,227,9783,1,2,0:3:0:0:
264,164,9930,1,2,1:2:0:0:
348,36,10224,2,0,B|396:48|396:48|416:36|416:36|472:48,1,125.999996154785,2|0,0:0|1:0,0:0:0:0:
448,284,10812,5,6,1:2:0:0:
428,358,10959,1,2,0:3:0:0:
373,303,11106,1,2,1:2:0:0:
373,303,11400,2,0,L|308:240,1,62.9999980773926,2|2,0:0|0:0,0:0:0:0:
248,284,11695,2,0,L|180:220,1,62.9999980773926,2|2,1:3|0:3,0:0:0:0:
264,136,11989,6,0,B|240:164|240:164|124:144,1,125.999996154785,2|2,0:0|1:3,0:0:0:0:
46,256,12577,2,0,L|50:324,1,62.9999980773926,2|2,0:3|0:3,0:0:0:0:
125,322,12871,2,0,L|180:372,1,62.9999980773926,2|2,1:2|0:3,0:0:0:0:
280,300,13165,6,0,P|292:260|384:260,1,125.999996154785,2|2,0:0|1:3,0:0:0:0:
468,132,13753,1,2,0:3:0:0:
460,56,13900,1,2,0:0:0:0:
384,56,14047,1,2,1:2:0:0:
288,156,14342,6,0,B|220:144|240:192|168:176,1,125.999996154785,6|2,0:2|0:3,0:0:0:0:
60,148,14930,1,10,0:2:0:0:
60,148,15077,1,4,3:0:0:0:
92,56,15224,1,8,0:0:0:0:
92,56,15371,1,4,3:0:0:0:
184,96,15518,6,0,P|236:116|272:92,1,77.0000023498536,6|2,1:2|0:3,0:0:0:0:
317,54,15812,2,0,P|373:50|417:98,1,115.50000352478,10|0,0:2|2:0,0:0:0:0:
416,131,16106,1,2,0:2:0:0:
349,183,16253,1,2,0:2:0:0:
400,252,16400,2,0,L|404:348,1,77.0000023498536,10|2,0:3|0:3,0:0:0:0:
284,352,16695,6,0,B|216:320|216:320|204:227,1,154.000004699707,2|10,0:2|0:3,0:0:0:0:
275,193,17136,1,0,0:0:0:0:
240,116,17283,2,0,P|208:96|168:100,1,77.0000023498536,2|2,0:3|0:3,0:0:0:0:
85,92,17577,2,0,P|61:120|61:172,1,77.0000023498536,10|2,0:2|0:3,0:0:0:0:
156,228,17871,6,0,P|228:256|228:308,1,115.50000352478,6|0,0:2|2:0,0:0:0:0:
257,321,18165,2,0,P|289:345|337:333,1,77.0000023498536,10|0,0:3|0:0,0:0:0:0:
362,266,18459,1,2,0:3:0:0:
443,290,18606,1,2,0:2:0:0:
484,216,18753,2,0,L|480:120,1,77.0000023498536,10|0,0:2|0:0,0:0:0:0:
412,48,19047,5,2,0:2:0:0:
341,0,19195,1,2,0:3:0:0:
304,76,19342,2,0,L|308:164,1,77.0000023498536,10|2,0:2|0:3,0:0:0:0:
230,187,19636,2,0,L|234:311,1,115.50000352478,2|0,0:2|2:0,0:0:0:0:
217,341,19930,2,0,L|129:345,1,77.0000023498536,8|0,0:0|0:0,0:0:0:0:
56,252,20224,6,0,P|88:220|80:172,1,77.0000023498536,6|2,0:2|0:3,0:0:0:0:
79,106,20518,2,0,P|91:62|159:34,1,115.50000352478,10|0,0:2|2:0,0:0:0:0:
185,57,20812,1,2,0:2:0:0:
247,114,20959,1,2,0:2:0:0:
308,56,21106,2,0,P|344:32|388:40,1,77.0000023498536,10|2,0:3|0:3,0:0:0:0:
468,104,21400,6,0,B|460:159|460:159|483:190|483:190|472:254,1,154.000004699707,2|10,0:2|0:3,0:0:0:0:
493,331,21842,1,0,0:0:0:0:
410,349,21989,2,0,P|370:337|346:301,1,77.0000023498536,2|2,0:3|0:3,0:0:0:0:
276,268,22283,2,0,P|272:228|292:192,1,77.0000023498536,10|2,0:2|0:3,0:0:0:0:
240,96,22577,6,0,B|172:72|172:72|112:80,1,115.50000352478,6|0,0:2|2:0,0:0:0:0:
98,107,22871,2,0,L|34:163,1,77.0000023498536,10|0,0:3|0:0,0:0:0:0:
91,224,23165,1,2,0:3:0:0:
31,283,23312,1,2,0:2:0:0:
76,356,23459,2,0,L|168:368,1,77.0000023498536,10|0,0:2|0:0,0:0:0:0:
252,300,23753,5,2,0:2:0:0:
312,240,23900,1,2,0:3:0:0:
244,188,24047,2,0,L|232:96,1,77.0000023498536,10|0,0:3|0:0,0:0:0:0:
280,39,24342,1,6,0:2:0:0:
363,26,24489,2,0,L|407:18,2,38.5000011749268,8|8|4,0:0|0:0|3:0,0:0:0:0:
355,117,24783,1,8,0:0:0:0:
355,117,24856,1,8,0:0:0:0:
355,117,24930,6,0,P|383:153|443:149,1,77.0000023498536,6|2,1:2|0:3,0:0:0:0:
486,199,25224,2,0,P|514:235|498:303,1,115.50000352478,10|0,0:2|2:0,0:0:0:0:
477,335,25518,1,2,0:2:0:0:
402,376,25665,1,2,0:2:0:0:
357,304,25812,2,0,P|325:288|285:300,1,77.0000023498536,10|2,0:3|0:3,0:0:0:0:
168,336,26106,6,0,B|92:352|92:352|24:304,1,154.000004699707,2|10,0:2|0:3,0:0:0:0:
14,224,26547,1,0,0:0:0:0:
43,144,26695,2,0,L|67:60,1,77.0000023498536,2|2,0:3|0:3,0:0:0:0:
147,57,26989,2,0,L|239:37,1,77.0000023498536,10|2,0:2|0:3,0:0:0:0:
304,124,27283,6,0,P|316:164|244:200,1,115.50000352478,6|0,0:2|2:0,0:0:0:0:
226,225,27577,2,0,P|210:265|234:305,1,77.0000023498536,10|0,0:3|0:0,0:0:0:0:
273,361,27871,1,2,0:3:0:0:
338,307,28018,1,2,0:2:0:0:
400,364,28165,2,0,P|440:360|464:312,1,77.0000023498536,10|0,0:2|0:0,0:0:0:0:
480,212,28459,5,2,0:2:0:0:
436,139,28606,1,2,0:3:0:0:
360,180,28753,2,0,B|324:192|324:192|284:168,1,77.0000023498536,10|2,0:2|0:3,0:0:0:0:
218,127,29047,2,0,B|178:75|178:75|186:19,1,115.50000352478,2|0,0:2|2:0,0:0:0:0:
142,18,29342,2,0,P|98:18|66:50,1,77.0000023498536,8|0,0:0|0:0,0:0:0:0:
23,139,29636,6,0,L|27:227,1,77.0000023498536,6|2,0:2|0:3,0:0:0:0:
103,250,29930,2,0,P|163:242|179:170,1,115.50000352478,10|0,0:2|2:0,0:0:0:0:
157,164,30224,1,2,0:2:0:0:
165,79,30371,1,2,0:2:0:0:
248,96,30518,2,0,P|300:88|320:64,1,77.0000023498536,10|2,0:3|0:3,0:0:0:0:
424,24,30812,6,0,P|468:32|485:129,1,154.000004699707,2|10,0:2|0:3,0:0:0:0:
427,186,31253,1,0,0:0:0:0:
476,256,31400,2,0,P|464:296|432:320,1,77.0000023498536,2|2,0:3|0:3,0:0:0:0:
372,372,31695,2,0,P|332:376|296:352,1,77.0000023498536,10|2,0:2|0:3,0:0:0:0:
255,253,31989,6,0,L|259:133,1,115.50000352478,6|0,0:2|2:0,0:0:0:0:
230,105,32283,2,0,L|154:102,1,77.0000023498536,10|0,0:3|0:0,0:0:0:0:
68,98,32577,1,2,0:3:0:0:
23,170,32724,1,2,0:2:0:0:
76,236,32871,2,0,L|72:320,1,77.0000023498536,10|0,0:2|0:0,0:0:0:0:
168,364,33165,5,10,0:2:0:0:
168,364,33312,1,6,3:0:0:0:
248,292,33459,1,10,0:3:0:0:
248,292,33606,1,4,3:0:0:0:
344,340,33753,2,0,L|400:364,3,38.5000011749268,10|8|4|4,0:2|0:0|3:0|3:0,0:0:0:0:
404,324,34047,2,0,L|460:312,3,38.5000011749268,8|8|8|8,0:0|0:0|0:0|0:0,0:0:0:0:
460,280,34342,6,0,P|440:256|460:168,1,112,4|0,1:2|3:0,0:0:0:0:
360,64,34930,2,0,P|380:88|360:176,1,112,0|0,3:0|3:0,0:0:0:0:
292,284,35518,2,0,L|224:288,1,56,8|0,1:0|0:0,0:0:0:0:
184,336,35812,1,0,3:0:0:0:
68,248,36106,2,0,P|48:224|16:216,1,56,8|8,1:0|1:0,0:0:0:0:
16,144,36400,2,0,L|12:84,1,56,4|4,3:0|3:0,0:0:0:0:
112,24,36695,6,0,P|132:60|200:44,1,112,4|0,1:0|3:0,0:0:0:0:
288,164,37283,2,0,B|264:200|264:200|276:272,1,112,0|0,3:0|3:0,0:0:0:0:
392,356,37871,2,0,P|424:356|448:336,1,56,8|0,1:0|0:0,0:0:0:0:
480,280,38165,1,0,3:0:0:0:
424,148,38459,1,8,1:0:0:0:
424,148,38606,1,8,1:0:0:0:
452,80,38753,1,8,1:0:0:0:
452,80,38900,1,8,1:0:0:0:
360,16,39047,6,0,L|244:20,1,112,4|0,1:0|3:0,0:0:0:0:
232,164,39636,2,0,L|116:168,1,112,0|0,3:0|3:0,0:0:0:0:
128,312,40224,2,0,L|183:309,1,56,8|0,1:0|0:0,0:0:0:0:
256,304,40518,1,0,3:0:0:0:
388,248,40812,2,0,L|448:220,1,56,8|8,1:0|1:0,0:0:0:0:
404,160,41106,2,0,L|416:96,1,56,4|4,3:0|3:0,0:0:0:0:
348,28,41400,6,0,B|316:28|296:48|296:48|276:64|244:64,1,112,4|0,1:0|3:0,0:0:0:0:
152,176,41989,2,0,B|184:176|204:196|204:196|224:212|256:212,1,112,0|0,3:0|3:0,0:0:0:0:
392,256,42577,2,0,B|344:256|336:216|328:212|328:212|327:254|297:288|262:289|246:285|216:280|216:280|168:264|132:296|132:360|188:380|232:348,1,420,8|0,1:0|0:0,0:0:0:0:
256,372,43753,6,0,P|312:372|352:320,1,125.999996154785,6|10,1:2|1:2,0:0:0:0:
424,300,44195,2,0,P|426:239|476:203,1,125.999996154785,4|4,3:0|3:0,0:0:0:0:
484,128,44636,2,0,P|484:104|448:72,1,62.9999980773926,10|2,1:3|0:3,0:0:0:0:
372,24,44930,5,4,3:0:0:0:
332,88,45077,1,4,3:0:0:0:
264,52,45224,1,10,1:3:0:0:
208,104,45371,2,0,P|196:156|248:196,1,125.999996154785,4|6,3:0|3:0,0:0:0:0:
272,268,45812,2,0,L|268:332,1,62.9999980773926,10|6,1:2|3:0,0:0:0:0:
168,364,46106,6,0,P|120:360|92:284,1,125.999996154785,6|10,1:2|1:3,0:0:0:0:
64,224,46547,2,0,P|105:199|97:118,1,125.999996154785,4|4,3:0|3:0,0:0:0:0:
148,64,46989,2,0,P|176:48|212:52,1,62.9999980773926,10|0,1:2|0:0,0:0:0:0:
308,96,47283,5,4,3:0:0:0:
356,36,47430,1,6,3:0:0:0:
420,80,47577,2,0,B|456:108|456:108|448:200,1,125.999996154785,10|2,1:2|0:0,0:0:0:0:
440,264,48018,1,4,3:0:0:0:
432,340,48165,2,0,L|429:376,3,31.4999990386963,8|8|4|4,1:0|1:0|3:0|3:0,0:0:0:0:
392,376,48459,6,0,B|340:364|340:364|324:376|324:376|272:368,1,125.999996154785,6|10,1:2|1:2,0:0:0:0:
232,304,48900,2,0,B|244:252|244:252|232:236|232:236|240:184,1,125.999996154785,4|4,3:0|3:0,0:0:0:0:
256,108,49342,2,0,L|271:28,1,62.9999980773926,10|2,1:3|0:3,0:0:0:0:
160,4,49636,5,4,3:0:0:0:
92,36,49783,1,4,3:0:0:0:
124,104,49930,1,10,1:3:0:0:
56,136,50077,2,0,B|24:152|24:152|60:248,1,125.999996154785,4|6,3:0|3:0,0:0:0:0:
88,304,50518,2,0,L|160:324,1,62.9999980773926,10|6,1:2|3:0,0:0:0:0:
236,352,50812,6,0,L|272:360,3,31.4999990386963,6|0|0|0,1:2|0:0|0:0|0:0,0:0:0:0:
300,308,51106,2,0,L|335:296,3,31.4999990386963,6|0|0|0,3:0|0:0|0:0|0:0,0:0:0:0:
333,237,51400,2,0,L|357:209,3,31.4999990386963,6|0|2|0,3:0|0:0|0:2|0:0,0:0:0:0:
326,159,51695,2,0,L|334:122,3,31.4999990386963,4|0|0|0,3:0|0:0|0:0|0:0,0:0:0:0:
380,72,51989,6,0,P|408:76|440:104,3,52.5000020027161,4|0|2|0,3:0|0:0|0:3|0:0,0:0:0:0:
475,143,52283,2,0,P|489:167|489:209,3,52.5000020027161,10|8|8|8,0:3|0:0|0:0|0:0,0:0:0:0:
487,263,52577,2,0,P|478:289|445:316,3,52.5000020027161,4|4|4|4,3:0|3:0|3:0|3:0,0:0:0:0:
402,346,52871,2,0,P|375:356|334:348,3,52.5000020027161,0|0|0|0,0:0|0:0|0:0|0:0,0:0:0:0:
297,306,53165,6,0,L|306:214,2,77.0000023498536,14|4|4,0:2|3:0|3:0,0:0:0:0:
212,314,53606,2,0,P|221:350|249:378,2,77.0000023498536,10|4|4,0:2|3:0|3:0,0:0:0:0:
165,243,54047,1,10,0:2:0:0:
92,287,54195,1,4,3:0:0:0:
39,186,54342,6,0,L|-3:103,1,77.0000023498536,14|4,0:2|3:0,0:0:0:0:
41,41,54636,1,6,3:0:0:0:
116,79,54783,2,0,P|148:62|200:72,1,77.0000023498536,10|4,0:2|3:0,0:0:0:0:
256,115,55077,1,4,3:0:0:0:
323,63,55224,2,0,P|360:66|394:49,1,77.0000023498536,10|6,0:2|3:0,0:0:0:0:
462,139,55518,6,0,L|512:212,2,77.0000023498536,14|6|4,0:2|3:0|3:0,0:0:0:0:
409,205,55959,2,0,L|352:281,2,77.0000023498536,10|6|4,0:2|3:0|3:0,0:0:0:0:
342,152,56400,1,10,0:2:0:0:
378,75,56547,1,6,3:0:0:0:
278,20,56695,6,0,L|197:30,1,77.0000023498536,14|4,0:2|3:0,0:0:0:0:
118,45,56989,1,4,3:0:0:0:
76,118,57136,2,0,P|66:159|26:190,1,77.0000023498536,10|6,0:2|3:0,0:0:0:0:
85,255,57430,1,4,3:0:0:0:
161,218,57577,2,0,P|203:219|240:244,1,77.0000023498536,10|4,0:2|3:0,0:0:0:0:
331,308,57871,6,0,P|305:353|282:367,2,77.0000023498536,14|4|4,0:2|3:0|3:0,0:0:0:0:
394,251,58312,1,10,0:2:0:0:
336,188,58459,2,0,P|311:151|317:103,1,77.0000023498536,4|4,3:0|3:0,0:0:0:0:
235,79,58753,2,0,P|232:116|209:147,1,77.0000023498536,10|4,0:2|3:0,0:0:0:0:
128,234,59047,6,0,L|117:324,1,77.0000023498536,14|4,0:2|3:0,0:0:0:0:
33,300,59342,1,6,3:0:0:0:
46,216,59489,2,0,L|55:139,2,77.0000023498536,10|0|0,0:2|0:0|0:0,0:0:0:0:
128,234,59930,2,0,P|158:205|164:160,1,77.0000023498536,10|4,0:2|3:0,0:0:0:0:
268,210,60224,6,0,P|312:222|356:202,2,77.0000023498536,14|6|4,0:2|3:0|3:0,0:0:0:0:
306,134,60665,1,10,0:2:0:0:
272,56,60812,2,0,P|309:47|345:59,1,77.0000023498536,6|6,3:0|3:0,0:0:0:0:
418,100,61106,2,0,L|421:183,1,77.0000023498536,10|6,0:2|3:0,0:0:0:0:
425,279,61400,6,0,P|393:301|378:355,1,77.0000023498536,14|4,0:2|3:0,0:0:0:0:
300,370,61695,1,6,3:0:0:0:
217,350,61842,2,0,L|126:329,2,77.0000023498536,8|0|0,0:0|0:0|0:0,0:0:0:0:
271,285,62283,2,0,P|292:256|296:210,1,77.0000023498536,10|4,0:2|3:0,0:0:0:0:
270,107,62577,6,0,P|313:96|357:118,2,77.0000023498536,14|4|4,0:2|3:0|3:0,0:0:0:0:
196,65,63018,2,0,P|173:31|123:18,2,77.0000023498536,10|4|4,0:2|3:0|3:0,0:0:0:0:
161,142,63459,1,10,0:2:0:0:
79,119,63606,1,4,3:0:0:0:
46,216,63753,6,0,L|50:303,1,77.0000023498536,14|4,0:2|3:0,0:0:0:0:
109,352,64047,1,6,3:0:0:0:
178,302,64195,2,0,P|220:304|249:328,1,77.0000023498536,10|4,0:2|3:0,0:0:0:0:
306,264,64489,1,4,3:0:0:0:
380,303,64636,2,0,P|419:303|451:279,1,77.0000023498536,10|6,0:2|3:0,0:0:0:0:
488,175,64930,6,0,L|511:94,2,77.0000023498536,14|6|4,0:2|3:0|3:0,0:0:0:0:
408,145,65371,2,0,L|385:226,2,77.0000023498536,10|6|4,0:2|3:0|3:0,0:0:0:0:
432,63,65812,1,10,0:2:0:0:
364,12,65959,1,6,3:0:0:0:
265,48,66106,6,0,P|240:76|235:121,1,77.0000023498536,14|4,0:2|3:0,0:0:0:0:
277,186,66400,1,4,3:0:0:0:
325,255,66547,2,0,P|320:303|299:331,1,77.0000023498536,10|6,0:2|3:0,0:0:0:0:
232,371,66842,1,4,3:0:0:0:
158,329,66989,2,0,L|66:337,1,77.0000023498536,10|4,0:2|3:0,0:0:0:0:
41,237,67283,6,0,P|11:254|-14:288,2,77.0000023498536,14|4|4,0:2|3:0|3:0,0:0:0:0:
123,218,67724,1,10,0:2:0:0:
198,180,67871,2,0,P|225:152|235:98,1,77.0000023498536,4|4,3:0|3:0,0:0:0:0:
301,63,68165,2,0,P|351:84|400:73,1,77.0000023498536,10|4,0:2|3:0,0:0:0:0:
465,141,68459,6,0,L|457:229,1,77.0000023498536,14|4,0:2|3:0,0:0:0:0:
384,259,68753,1,6,3:0:0:0:
397,342,68900,2,0,P|441:346|476:327,2,77.0000023498536,10|4|4,0:2|3:0|3:0,0:0:0:0:
318,307,69342,2,0,P|277:314|243:352,1,77.0000023498536,10|4,0:2|3:0,0:0:0:0:
163,276,69636,6,0,L|160:190,2,77.0000023498536,14|6|4,0:2|3:0|3:0,0:0:0:0:
165,360,70077,1,10,0:2:0:0:
80,362,70224,2,0,P|66:323|34:303,1,77.0000023498536,6|6,3:0|3:0,0:0:0:0:
10,223,70518,2,0,P|48:210|73:179,1,77.0000023498536,10|6,0:2|3:0,0:0:0:0:
136,88,70812,6,0,L|132:40,3,38.5000011749268,14|8|0|0,0:2|0:0|0:0|0:0,0:0:0:0:
188,76,71106,2,0,L|184:28,3,38.5000011749268,6|4|4|4,3:0|3:0|3:0|3:0,0:0:0:0:
240,64,71400,2,0,L|236:16,3,38.5000011749268,2|0|0|0,0:2|0:0|0:0|0:0,0:0:0:0:
312,80,71695,5,10,0:2:0:0:
324,84,71768,1,8,0:0:0:0:
336,88,71842,1,8,0:0:0:0:
348,92,71915,1,8,0:0:0:0:
372,124,71989,6,0,P|408:132|444:116,1,77.0000023498536,6|2,1:2|0:3,0:0:0:0:
509,169,72283,2,0,L|501:289,1,115.50000352478,10|0,0:2|2:0,0:0:0:0:
495,326,72577,1,2,0:2:0:0:
426,375,72724,1,2,0:2:0:0:
352,332,72871,2,0,L|260:340,1,77.0000023498536,10|2,0:3|0:3,0:0:0:0:
182,262,73165,6,0,B|124:268|124:268|103:290|103:290|39:296,1,154.000004699707,2|10,0:2|0:3,0:0:0:0:
4,218,73606,1,0,0:0:0:0:
70,165,73753,2,0,P|94:141|94:85,1,77.0000023498536,2|2,0:3|0:3,0:0:0:0:
177,67,74047,2,0,P|201:39|245:31,1,77.0000023498536,10|2,0:2|0:3,0:0:0:0:
324,124,74342,6,0,L|320:248,1,115.50000352478,6|0,0:2|2:0,0:0:0:0:
337,278,74636,2,0,P|365:310|405:318,1,77.0000023498536,10|0,0:3|0:0,0:0:0:0:
478,295,74930,1,2,0:3:0:0:
429,225,75077,1,2,0:2:0:0:
496,172,75224,2,0,P|512:136|496:92,1,77.0000023498536,10|0,0:2|0:0,0:0:0:0:
420,24,75518,5,2,0:2:0:0:
380,98,75665,1,2,0:3:0:0:
308,52,75812,2,0,P|272:32|224:40,1,77.0000023498536,10|2,0:2|0:3,0:0:0:0:
188,103,76106,2,0,P|144:135|76:123,1,115.50000352478,2|0,0:2|2:0,0:0:0:0:
51,154,76400,2,0,L|55:238,1,77.0000023498536,8|0,0:0|0:0,0:0:0:0:
172,256,76695,6,0,L|175:332,1,77.0000023498536,6|2,0:2|0:3,0:0:0:0:
256,356,76989,2,0,P|300:352|340:280,1,115.50000352478,10|0,0:2|2:0,0:0:0:0:
346,255,77283,1,2,0:2:0:0:
277,205,77430,1,2,0:2:0:0:
320,132,77577,2,0,L|312:56,1,77.0000023498536,10|2,0:3|0:3,0:0:0:0:
424,16,77871,6,0,P|464:20|460:114,1,154.000004699707,2|10,0:2|0:3,0:0:0:0:
508,184,78312,1,0,0:0:0:0:
455,250,78459,2,0,L|363:262,1,77.0000023498536,2|2,0:3|0:3,0:0:0:0:
371,338,78753,2,0,L|279:350,1,77.0000023498536,10|2,0:2|0:3,0:0:0:0:
200,268,79047,6,0,P|160:224|84:244,1,115.50000352478,6|0,0:2|2:0,0:0:0:0:
69,245,79342,2,0,P|29:225|17:181,1,77.0000023498536,10|0,0:3|0:0,0:0:0:0:
70,131,79636,1,2,0:3:0:0:
18,63,79783,1,2,0:2:0:0:
88,16,79930,2,0,L|168:20,1,77.0000023498536,10|0,0:2|0:0,0:0:0:0:
268,80,80224,5,2,0:2:0:0:
346,112,80371,1,2,0:3:0:0:
384,36,80518,2,0,P|420:20|460:28,1,77.0000023498536,10|0,0:3|0:0,0:0:0:0:
511,90,80812,1,6,0:2:0:0:
501,174,80959,2,0,L|497:230,2,38.5000011749268,8|8|4,0:0|0:0|3:0,0:0:0:0:
424,140,81253,1,8,0:0:0:0:
424,140,81327,1,8,0:0:0:0:
424,140,81400,6,0,P|384:152|360:188,1,77.0000023498536,6|2,1:2|0:3,0:0:0:0:
279,162,81695,2,0,B|263:126|263:126|267:98|267:98|243:42,1,115.50000352478,10|0,0:2|2:0,0:0:0:0:
228,15,81989,1,2,0:2:0:0:
163,69,82136,1,2,0:2:0:0:
91,24,82283,2,0,L|-1:28,1,77.0000023498536,10|2,0:3|0:3,0:0:0:0:
0,144,82577,6,0,P|40:152|51:254,1,154.000004699707,2|10,0:2|0:3,0:0:0:0:
77,330,83018,1,0,0:0:0:0:
152,288,83165,2,0,P|192:280|224:296,1,77.0000023498536,2|2,0:3|0:3,0:0:0:0:
304,272,83459,2,0,P|340:296|352:328,1,77.0000023498536,10|2,0:2|0:3,0:0:0:0:
449,255,83753,6,0,B|481:227|481:227|465:139,1,115.50000352478,6|0,0:2|2:0,0:0:0:0:
428,140,84047,2,0,L|412:48,1,77.0000023498536,10|0,0:3|0:0,0:0:0:0:
351,7,84342,1,2,0:3:0:0:
280,53,84489,1,2,0:2:0:0:
313,130,84636,2,0,P|341:158|333:206,1,77.0000023498536,10|0,0:2|0:0,0:0:0:0:
260,292,84930,5,2,0:2:0:0:
192,240,85077,1,2,0:3:0:0:
124,292,85224,2,0,B|88:308|88:308|48:272,1,77.0000023498536,10|2,0:2|0:3,0:0:0:0:
27,204,85518,2,0,L|35:76,1,115.50000352478,2|0,0:2|2:0,0:0:0:0:
70,65,85812,2,0,L|154:69,1,77.0000023498536,8|0,0:0|0:0,0:0:0:0:
247,14,86106,6,0,L|331:18,1,77.0000023498536,6|2,0:2|0:3,0:0:0:0:
392,66,86400,2,0,P|456:82|472:142,1,115.50000352478,10|0,0:2|2:0,0:0:0:0:
463,165,86695,1,2,0:2:0:0:
499,241,86842,1,2,0:2:0:0:
422,277,86989,2,0,P|379:281|351:316,1,77.0000023498536,10|2,0:3|0:3,0:0:0:0:
236,368,87283,6,0,B|175:366|175:366|155:345|155:345|81:341,1,154.000004699707,2|10,0:2|0:3,0:0:0:0:
40,273,87724,1,0,0:0:0:0:
99,213,87871,2,0,P|139:209|175:237,1,77.0000023498536,2|2,0:3|0:3,0:0:0:0:
235,176,88165,2,0,P|267:152|279:108,1,77.0000023498536,10|6,0:2|0:3,0:0:0:0:
360,32,88459,5,14,0:2:0:0:
360,32,88606,1,4,3:0:0:0:
440,104,88753,1,10,0:3:0:0:
440,104,88900,1,4,3:0:0:0:
384,196,89047,1,10,0:3:0:0:
384,196,89194,1,4,3:0:0:0:
424,296,89342,2,0,L|440:340,2,38.5000011749268,10|8|4,0:2|0:0|3:0,0:0:0:0:
320,268,89636,5,10,0:2:0:0:
320,268,89783,1,6,3:0:0:0:
228,324,89930,1,10,0:3:0:0:
228,324,90077,1,4,3:0:0:0:
160,240,90224,2,0,L|128:200,3,38.5000011749268,10|8|8|8,0:2|0:0|0:0|0:0,0:0:0:0:
164,180,90518,2,0,L|164:116,3,38.5000011749268,8|8|8|8,0:0|0:0|0:0|0:0,0:0:0:0:
200,140,90812,1,4,0:0:0:0:
