osu file format v14

[General]
AudioFilename: audio.mp3
AudioLeadIn: 0
PreviewTime: 15437
Countdown: 0
SampleSet: Normal
StackLeniency: 0.2
Mode: 1
LetterboxInBreaks: 0
WidescreenStoryboard: 0

[Editor]
Bookmarks: 6100,15511,34335,43747,53158,62570,71982,90805
DistanceSpacing: 0.6
BeatDivisor: 4
GridSize: 32
TimelineZoom: 1.8

[Metadata]
Title:Ai no Sukima (Rock Cover)
TitleUnicode:哀の隙間 (Rock Cover)
Artist:MIMI feat. Hatsune Miku
ArtistUnicode:MIMI feat. 初音ミク
Creator:Hivie
Version:Kantan
Source:
Tags:schianovus instrumental rock vocaloid kpy kanpakyin
BeatmapID:2295515
BeatmapSetID:1096932

[Difficulty]
HPDrainRate:7
CircleSize:3
OverallDifficulty:3
ApproachRate:9.5
SliderMultiplier:1.4
SliderTickRate:1

[Events]
//Background and Video events
0,0,"bg.jpg",0,75
//Break Periods
//Storyboard Layer 0 (Background)
//Storyboard Layer 1 (Fail)
//Storyboard Layer 2 (Pass)
//Storyboard Layer 3 (Foreground)
//Storyboard Layer 4 (Overlay)
//Storyboard Sound Samples

[TimingPoints]
4923,294.117647058823,4,1,0,80,1,0
4923,-142.857142857143,4,1,0,80,0,0
15511,-142.857142857143,4,1,0,100,0,1
34334,-142.857142857143,4,1,0,100,0,0
34482,-142.857142857143,4,1,0,80,0,0
43747,-142.857142857143,4,1,0,85,0,0
53159,-142.857142857143,4,1,0,90,0,0
71981,-142.857142857143,4,1,0,100,0,1
90805,-142.857142857143,4,1,0,100,0,0

[Colours]
Combo1 : 165,181,201
Combo2 : 61,186,222
Combo3 : 183,114,192
Combo4 : 84,130,250

[HitObjects]
256,192,6099,5,4,0:0:0:0:
256,192,6687,1,8,0:0:0:0:
256,192,7275,1,8,0:0:0:0:
256,192,8452,1,8,0:0:0:0:
256,192,9040,1,0,0:0:0:0:
256,192,9628,1,0,0:0:0:0:
256,192,10217,1,8,0:0:0:0:
256,192,10805,1,4,0:0:0:0:
256,192,11393,1,8,0:0:0:0:
256,192,11981,1,8,0:0:0:0:
256,192,13158,1,0,0:0:0:0:
256,192,13746,1,0,0:0:0:0:
256,192,14334,1,12,0:0:0:0:
256,192,14922,1,8,0:0:0:0:
256,192,15511,1,4,0:0:0:0:
256,192,16099,1,8,0:0:0:0:
256,192,16687,1,8,0:0:0:0:
256,192,17570,1,0,0:0:0:0:
256,192,17864,1,8,0:0:0:0:
256,192,18452,1,0,0:0:0:0:
256,192,19040,1,8,0:0:0:0:
256,192,19628,1,0,0:0:0:0:
256,192,20217,1,0,0:0:0:0:
256,192,20805,1,8,0:0:0:0:
256,192,21393,1,8,0:0:0:0:
256,192,22275,1,8,0:0:0:0:
256,192,22570,1,8,0:0:0:0:
256,192,23158,1,0,0:0:0:0:
256,192,23746,1,8,0:0:0:0:
256,192,24334,1,0,0:0:0:0:
256,192,24922,1,0,0:0:0:0:
256,192,25511,1,8,0:0:0:0:
256,192,26099,1,8,0:0:0:0:
256,192,26981,1,0,0:0:0:0:
256,192,27275,1,8,0:0:0:0:
256,192,27864,1,8,0:0:0:0:
256,192,28452,1,8,0:0:0:0:
256,192,29040,1,0,0:0:0:0:
256,192,29628,1,0,0:0:0:0:
256,192,30217,1,8,0:0:0:0:
256,192,30805,1,8,0:0:0:0:
256,192,31687,1,8,0:0:0:0:
256,192,31981,1,8,0:0:0:0:
256,192,32570,1,0,0:0:0:0:
256,192,32864,1,8,0:0:0:0:
256,192,33158,1,8,0:0:0:0:
256,192,33746,1,8,0:0:0:0:
256,192,34040,1,8,0:0:0:0:
256,192,34334,1,0,0:0:0:0:
256,192,34922,1,8,0:0:0:0:
256,192,35511,1,8,0:0:0:0:
256,192,36099,1,8,0:0:0:0:
256,192,36687,1,12,0:0:0:0:
256,192,37275,1,0,0:0:0:0:
256,192,37864,1,8,0:0:0:0:
256,192,39040,1,4,0:0:0:0:
256,192,39628,1,8,0:0:0:0:
256,192,40217,1,8,0:0:0:0:
256,192,40805,1,8,0:0:0:0:
256,192,41393,1,12,0:0:0:0:
256,192,41981,1,0,0:0:0:0:
256,192,42570,1,8,0:0:0:0:
197,136,42864,2,0,B|226:98|276:113|276:113|217:67|161:80,1,195.999994018555
256,192,43746,5,4,0:0:0:0:
256,192,44628,1,8,0:0:0:0:
256,192,44922,1,8,0:0:0:0:
256,192,45805,1,8,0:0:0:0:
256,192,46099,1,0,0:0:0:0:
256,192,46981,1,8,0:0:0:0:
256,192,47275,1,0,0:0:0:0:
256,192,47864,1,0,0:0:0:0:
256,192,48452,1,0,0:0:0:0:
256,192,48746,1,8,0:0:0:0:
256,192,49334,1,0,0:0:0:0:
256,192,49628,1,8,0:0:0:0:
256,192,50511,1,8,0:0:0:0:
256,192,50805,1,12,0:0:0:0:
256,192,51687,1,8,0:0:0:0:
256,192,51981,1,0,0:0:0:0:
256,192,52570,1,8,0:0:0:0:
256,192,53158,1,0,0:0:0:0:
256,192,53599,1,8,0:0:0:0:
256,192,54334,1,0,0:0:0:0:
256,192,54775,1,8,0:0:0:0:
256,192,55511,1,8,0:0:0:0:
256,192,55952,1,8,0:0:0:0:
256,192,56687,1,8,0:0:0:0:
256,192,57864,1,0,0:0:0:0:
256,192,58305,1,0,0:0:0:0:
256,192,59040,1,0,0:0:0:0:
256,192,59481,1,0,0:0:0:0:
256,192,60217,1,8,0:0:0:0:
256,192,60658,1,8,0:0:0:0:
256,192,61393,1,8,0:0:0:0:
256,192,61981,1,0,0:0:0:0:
256,192,62570,1,8,0:0:0:0:
256,192,63011,1,8,0:0:0:0:
256,192,63746,1,0,0:0:0:0:
256,192,64187,1,0,0:0:0:0:
256,192,64922,1,0,0:0:0:0:
256,192,65364,1,8,0:0:0:0:
256,192,66099,1,8,0:0:0:0:
256,192,67275,1,0,0:0:0:0:
256,192,67717,1,8,0:0:0:0:
256,192,68452,1,8,0:0:0:0:
256,192,68893,1,0,0:0:0:0:
256,192,69628,1,8,0:0:0:0:
256,192,70070,1,8,0:0:0:0:
256,192,70805,1,8,0:0:0:0:
256,192,71393,1,0,0:0:0:0:
256,192,71687,1,8,0:0:0:0:
256,192,71981,1,4,0:0:0:0:
256,192,72570,1,8,0:0:0:0:
256,192,73158,1,0,0:0:0:0:
256,192,74040,1,0,0:0:0:0:
256,192,74334,1,8,0:0:0:0:
256,192,74922,1,8,0:0:0:0:
256,192,75511,1,8,0:0:0:0:
256,192,76099,1,8,0:0:0:0:
256,192,76687,1,0,0:0:0:0:
256,192,77275,1,8,0:0:0:0:
256,192,77864,1,0,0:0:0:0:
256,192,78746,1,0,0:0:0:0:
256,192,79040,1,8,0:0:0:0:
256,192,79628,1,0,0:0:0:0:
256,192,80217,1,8,0:0:0:0:
256,192,80805,1,8,0:0:0:0:
256,192,81393,1,0,0:0:0:0:
256,192,81981,1,8,0:0:0:0:
256,192,82570,1,0,0:0:0:0:
256,192,83452,1,0,0:0:0:0:
256,192,83746,1,8,0:0:0:0:
256,192,84334,1,0,0:0:0:0:
256,192,84922,1,8,0:0:0:0:
256,192,85511,1,0,0:0:0:0:
256,192,86099,1,0,0:0:0:0:
256,192,86687,1,8,0:0:0:0:
256,192,87275,1,8,0:0:0:0:
256,192,88158,5,0,0:0:0:0:
256,192,88452,1,8,0:0:0:0:
256,192,89040,1,8,0:0:0:0:
256,192,89334,1,8,0:0:0:0:
256,192,89628,1,8,0:0:0:0:
256,192,90217,1,0,0:0:0:0:
256,192,90511,1,8,0:0:0:0:
256,192,90805,1,4,0:0:0:0:
