osu file format v14

[General]
AudioFilename: audio.mp3
AudioLeadIn: 0
PreviewTime: 15437
Countdown: 0
SampleSet: Normal
StackLeniency: 0.2
Mode: 1
LetterboxInBreaks: 0
WidescreenStoryboard: 0

[Editor]
Bookmarks: 6105,24928,43752,53164,62576,71987,81399
DistanceSpacing: 0.6
BeatDivisor: 4
GridSize: 32
TimelineZoom: 2.9

[Metadata]
Title:Ai no Sukima (Rock Cover)
TitleUnicode:哀の隙間 (Rock Cover)
Artist:MIMI feat. Hatsune Miku
ArtistUnicode:MIMI feat. 初音ミク
Creator:Hivie
Version:Kanpakyin's Inner Oni
Source:
Tags:schianovus instrumental rock vocaloid kpy kanpakyin
BeatmapID:2310610
BeatmapSetID:1096932

[Difficulty]
HPDrainRate:5.5
CircleSize:3
OverallDifficulty:6.5
ApproachRate:9.5
SliderMultiplier:1.4
SliderTickRate:1

[Events]
//Background and Video events
0,0,"bg.jpg",0,75
//Break Periods
//Storyboard Layer 0 (Background)
//Storyboard Layer 1 (Fail)
//Storyboard Layer 2 (Pass)
//Storyboard Layer 3 (Foreground)
//Storyboard Layer 4 (Overlay)
//Storyboard Sound Samples

[TimingPoints]
4923,294.117647058823,4,1,0,90,1,0
15511,-100,4,1,0,100,0,1
34334,-100,4,1,0,90,0,0
43746,-100,4,1,0,95,0,0
53158,-100,4,1,0,100,0,0
71981,-100,4,1,0,100,0,1
90805,-100,4,1,0,100,0,0

[Colours]
Combo1 : 165,181,201
Combo2 : 61,186,222
Combo3 : 183,114,192
Combo4 : 84,130,250

[HitObjects]
405,105,6099,5,4,0:0:0:0:
405,105,6246,1,0,0:0:0:0:
416,105,6393,1,8,0:0:0:0:
405,105,6687,1,0,0:0:0:0:
405,105,6834,1,0,0:0:0:0:
405,105,6981,1,8,0:0:0:0:
405,105,7128,1,8,0:0:0:0:
405,105,7275,1,0,0:0:0:0:
404,106,7422,1,0,0:0:0:0:
407,97,7570,1,8,0:0:0:0:
405,105,7717,1,0,0:0:0:0:
407,97,7864,1,0,0:0:0:0:
407,97,8011,1,0,0:0:0:0:
407,97,8158,1,8,0:0:0:0:
407,97,8305,1,0,0:0:0:0:
407,97,8452,1,0,0:0:0:0:
407,97,8599,1,0,0:0:0:0:
407,97,8746,1,8,0:0:0:0:
404,105,8893,1,0,0:0:0:0:
407,97,9040,1,0,0:0:0:0:
407,97,9187,1,0,0:0:0:0:
407,97,9334,1,8,0:0:0:0:
396,96,9481,1,8,0:0:0:0:
407,97,9628,1,0,0:0:0:0:
407,97,9775,1,0,0:0:0:0:
407,97,9922,1,8,0:0:0:0:
390,94,10070,1,0,0:0:0:0:
407,97,10217,1,0,0:0:0:0:
407,97,10364,1,0,0:0:0:0:
407,97,10511,1,8,0:0:0:0:
407,97,10805,1,4,0:0:0:0:
398,96,10952,1,0,0:0:0:0:
390,94,11099,1,8,0:0:0:0:
395,106,11246,1,0,0:0:0:0:
390,94,11393,1,0,0:0:0:0:
390,94,11540,1,0,0:0:0:0:
375,100,11687,1,8,0:0:0:0:
375,100,11834,1,0,0:0:0:0:
375,100,11981,1,0,0:0:0:0:
390,94,12128,1,0,0:0:0:0:
396,102,12275,1,8,0:0:0:0:
390,94,12422,1,0,0:0:0:0:
396,102,12570,1,0,0:0:0:0:
396,102,12717,1,0,0:0:0:0:
396,102,12864,1,8,0:0:0:0:
396,102,13011,1,8,0:0:0:0:
396,102,13158,1,0,0:0:0:0:
396,102,13452,1,8,0:0:0:0:
388,99,13599,1,0,0:0:0:0:
396,102,13746,1,0,0:0:0:0:
396,102,13893,1,0,0:0:0:0:
396,102,14040,1,8,0:0:0:0:
396,102,14334,1,4,0:0:0:0:
396,102,14628,1,0,0:0:0:0:
396,102,14775,1,0,0:0:0:0:
396,102,14849,1,0,0:0:0:0:
396,102,14922,1,8,0:0:0:0:
396,102,15070,1,0,0:0:0:0:
396,102,15217,1,8,0:0:0:0:
389,95,15364,1,0,0:0:0:0:
389,95,15511,1,4,0:0:0:0:
382,90,15805,1,8,0:0:0:0:
396,102,15952,1,0,0:0:0:0:
376,89,16099,1,0,0:0:0:0:
376,89,16246,1,0,0:0:0:0:
382,102,16320,1,0,0:0:0:0:
376,89,16393,1,8,0:0:0:0:
382,90,16540,1,0,0:0:0:0:
382,90,16687,1,0,0:0:0:0:
405,90,16981,1,8,0:0:0:0:
405,90,17275,1,0,0:0:0:0:
405,90,17422,1,0,0:0:0:0:
391,94,17496,1,0,0:0:0:0:
390,94,17570,1,8,0:0:0:0:
382,90,17717,1,0,0:0:0:0:
385,92,17864,1,0,0:0:0:0:
385,92,18011,1,0,0:0:0:0:
379,81,18158,1,8,0:0:0:0:
391,94,18452,1,0,0:0:0:0:
390,94,18599,1,0,0:0:0:0:
390,93,18672,1,0,0:0:0:0:
391,94,18746,1,8,0:0:0:0:
379,93,18893,1,0,0:0:0:0:
390,85,19040,1,0,0:0:0:0:
391,94,19187,1,0,0:0:0:0:
391,94,19261,1,0,0:0:0:0:
391,94,19334,1,8,0:0:0:0:
391,94,19481,1,0,0:0:0:0:
390,94,19628,1,8,0:0:0:0:
414,106,19702,1,0,0:0:0:0:
391,94,19775,1,0,0:0:0:0:
414,106,19849,1,0,0:0:0:0:
390,93,19922,1,8,0:0:0:0:
390,93,19996,1,0,0:0:0:0:
390,93,20070,1,0,0:0:0:0:
391,94,20143,1,0,0:0:0:0:
391,94,20217,1,8,0:0:0:0:
391,94,20364,1,0,0:0:0:0:
391,94,20511,1,8,0:0:0:0:
390,94,20658,1,0,0:0:0:0:
391,94,20805,1,0,0:0:0:0:
393,103,20952,1,0,0:0:0:0:
394,103,21025,1,0,0:0:0:0:
390,93,21099,1,8,0:0:0:0:
391,94,21246,1,0,0:0:0:0:
391,94,21393,1,0,0:0:0:0:
390,94,21687,1,8,0:0:0:0:
392,103,21834,1,0,0:0:0:0:
393,99,21981,1,0,0:0:0:0:
397,91,22128,1,0,0:0:0:0:
397,91,22275,1,8,0:0:0:0:
409,93,22422,1,0,0:0:0:0:
409,93,22496,1,8,0:0:0:0:
409,93,22570,1,0,0:0:0:0:
403,92,22717,1,0,0:0:0:0:
403,92,22864,1,8,0:0:0:0:
397,91,23158,1,0,0:0:0:0:
397,91,23305,1,8,0:0:0:0:
409,93,23452,1,8,0:0:0:0:
409,93,23599,1,0,0:0:0:0:
403,92,23746,1,0,0:0:0:0:
403,99,23893,1,0,0:0:0:0:
403,99,24040,1,8,0:0:0:0:
396,101,24187,1,0,0:0:0:0:
388,101,24334,5,0,0:0:0:0:
402,100,24408,1,0,0:0:0:0:
388,101,24481,1,8,0:0:0:0:
388,101,24555,1,8,0:0:0:0:
388,101,24628,1,0,0:0:0:0:
388,101,24775,1,8,0:0:0:0:
388,101,24849,1,8,0:0:0:0:
388,101,24922,1,0,0:0:0:0:
392,102,25070,1,0,0:0:0:0:
388,101,25217,1,8,0:0:0:0:
392,102,25364,1,0,0:0:0:0:
392,102,25437,1,0,0:0:0:0:
388,101,25511,1,8,0:0:0:0:
388,101,25658,1,0,0:0:0:0:
388,101,25805,1,8,0:0:0:0:
388,101,25952,1,0,0:0:0:0:
392,102,26099,1,0,0:0:0:0:
388,101,26246,1,0,0:0:0:0:
392,102,26320,1,0,0:0:0:0:
392,102,26393,1,8,0:0:0:0:
405,116,26540,1,0,0:0:0:0:
405,116,26687,1,8,0:0:0:0:
405,116,26761,1,8,0:0:0:0:
405,116,26834,1,0,0:0:0:0:
405,116,26981,1,8,0:0:0:0:
405,116,27128,1,0,0:0:0:0:
405,116,27275,1,0,0:0:0:0:
412,99,27496,1,0,0:0:0:0:
412,99,27570,1,8,0:0:0:0:
412,99,27717,1,0,0:0:0:0:
412,99,27864,1,8,0:0:0:0:
412,99,27937,1,8,0:0:0:0:
412,99,28011,1,0,0:0:0:0:
412,99,28158,1,8,0:0:0:0:
409,101,28305,1,0,0:0:0:0:
412,99,28378,1,0,0:0:0:0:
412,99,28452,1,0,0:0:0:0:
412,99,28599,1,0,0:0:0:0:
412,99,28746,1,8,0:0:0:0:
412,99,28893,1,0,0:0:0:0:
412,99,28967,1,0,0:0:0:0:
412,99,29040,1,8,0:0:0:0:
412,99,29187,1,0,0:0:0:0:
409,101,29334,1,8,0:0:0:0:
412,99,29481,1,0,0:0:0:0:
412,99,29628,1,0,0:0:0:0:
412,99,29775,1,0,0:0:0:0:
412,99,29849,1,0,0:0:0:0:
412,99,29922,1,8,0:0:0:0:
412,99,30070,1,0,0:0:0:0:
412,99,30217,1,8,0:0:0:0:
409,101,30290,1,0,0:0:0:0:
409,101,30364,1,0,0:0:0:0:
412,99,30511,1,8,0:0:0:0:
412,99,30658,1,8,0:0:0:0:
412,99,30805,1,0,0:0:0:0:
433,104,31025,1,0,0:0:0:0:
432,104,31099,1,8,0:0:0:0:
432,104,31246,1,0,0:0:0:0:
432,104,31393,1,0,0:0:0:0:
423,102,31540,1,0,0:0:0:0:
423,102,31614,1,0,0:0:0:0:
428,98,31687,1,8,0:0:0:0:
430,98,31834,1,0,0:0:0:0:
433,104,31981,1,0,0:0:0:0:
430,95,32128,1,0,0:0:0:0:
430,95,32275,1,8,0:0:0:0:
430,95,32422,1,0,0:0:0:0:
430,95,32496,1,0,0:0:0:0:
430,95,32570,1,8,0:0:0:0:
428,98,32717,1,0,0:0:0:0:
430,98,32864,1,8,0:0:0:0:
430,95,33011,1,0,0:0:0:0:
430,95,33084,1,0,0:0:0:0:
430,95,33158,1,8,0:0:0:0:
430,95,33305,1,0,0:0:0:0:
430,95,33452,1,8,0:0:0:0:
430,95,33599,1,0,0:0:0:0:
428,98,33746,1,0,0:0:0:0:
430,98,33820,1,8,0:0:0:0:
430,98,33893,1,8,0:0:0:0:
430,95,33967,1,8,0:0:0:0:
430,95,34040,1,0,0:0:0:0:
430,95,34114,1,8,0:0:0:0:
430,95,34187,1,8,0:0:0:0:
430,95,34261,1,8,0:0:0:0:
430,95,34334,1,0,0:0:0:0:
430,95,34628,1,0,0:0:0:0:
430,98,34922,1,0,0:0:0:0:
449,98,35070,1,0,0:0:0:0:
430,95,35217,1,0,0:0:0:0:
446,96,35364,1,0,0:0:0:0:
430,95,35511,1,8,0:0:0:0:
430,98,35805,1,0,0:0:0:0:
430,95,36099,1,8,0:0:0:0:
430,95,36246,1,8,0:0:0:0:
465,100,36393,1,0,0:0:0:0:
465,100,36540,1,0,0:0:0:0:
430,98,36687,1,12,0:0:0:0:
462,96,36981,1,0,0:0:0:0:
454,102,37275,1,0,0:0:0:0:
455,93,37422,1,0,0:0:0:0:
454,102,37570,1,0,0:0:0:0:
454,102,37864,1,8,0:0:0:0:
455,93,38011,1,0,0:0:0:0:
454,102,38158,1,0,0:0:0:0:
454,102,38452,1,8,0:0:0:0:
454,102,38599,1,8,0:0:0:0:
454,102,38746,1,8,0:0:0:0:
454,102,38893,1,8,0:0:0:0:
454,102,39040,1,4,0:0:0:0:
454,102,39334,1,0,0:0:0:0:
480,107,39628,1,0,0:0:0:0:
455,93,39775,1,0,0:0:0:0:
454,102,39922,1,0,0:0:0:0:
447,98,40070,1,0,0:0:0:0:
454,102,40217,1,8,0:0:0:0:
456,105,40511,1,0,0:0:0:0:
454,102,40805,1,8,0:0:0:0:
451,108,40952,1,8,0:0:0:0:
451,108,41099,1,0,0:0:0:0:
451,108,41246,1,0,0:0:0:0:
456,105,41393,1,4,0:0:0:0:
448,98,41687,1,0,0:0:0:0:
448,98,41981,1,0,0:0:0:0:
448,98,42128,1,0,0:0:0:0:
448,98,42275,1,0,0:0:0:0:
448,98,42570,1,8,0:0:0:0:
448,98,42717,1,0,0:0:0:0:
448,98,42864,2,0,P|369:134|173:118,1,280
467,106,43746,5,0,0:0:0:0:
467,106,43893,1,0,0:0:0:0:
467,106,44040,1,8,0:0:0:0:
467,106,44187,1,0,0:0:0:0:
443,119,44481,1,0,0:0:0:0:
443,119,44628,1,8,0:0:0:0:
414,126,44775,1,0,0:0:0:0:
414,126,44922,1,0,0:0:0:0:
414,126,45070,1,0,0:0:0:0:
440,118,45143,1,0,0:0:0:0:
414,126,45217,1,8,0:0:0:0:
443,119,45364,1,0,0:0:0:0:
446,118,45658,1,0,0:0:0:0:
446,118,45805,1,8,0:0:0:0:
444,114,45952,1,8,0:0:0:0:
444,114,46099,1,0,0:0:0:0:
429,138,46393,1,8,0:0:0:0:
424,134,46540,1,0,0:0:0:0:
430,127,46614,1,0,0:0:0:0:
446,118,46687,1,0,0:0:0:0:
446,118,46834,1,0,0:0:0:0:
447,120,46981,1,8,0:0:0:0:
433,124,47275,1,0,0:0:0:0:
433,124,47422,1,0,0:0:0:0:
433,124,47570,1,8,0:0:0:0:
432,125,47717,1,0,0:0:0:0:
432,125,47864,1,0,0:0:0:0:
432,125,48011,1,0,0:0:0:0:
433,124,48158,1,8,0:0:0:0:
433,124,48231,1,8,0:0:0:0:
433,124,48305,1,0,0:0:0:0:
433,124,48378,1,0,0:0:0:0:
433,124,48452,1,0,0:0:0:0:
461,127,48599,1,0,0:0:0:0:
461,127,48746,1,8,0:0:0:0:
460,120,48893,1,0,0:0:0:0:
476,115,49187,1,0,0:0:0:0:
458,125,49261,1,0,0:0:0:0:
464,123,49334,1,8,0:0:0:0:
452,131,49481,1,0,0:0:0:0:
449,131,49628,1,0,0:0:0:0:
442,134,49775,1,8,0:0:0:0:
440,134,49922,1,8,0:0:0:0:
420,139,50070,1,0,0:0:0:0:
424,140,50217,1,0,0:0:0:0:
410,138,50364,1,8,0:0:0:0:
410,138,50511,1,8,0:0:0:0:
414,145,50658,1,0,0:0:0:0:
413,146,50805,1,4,0:0:0:0:
417,153,50952,1,0,0:0:0:0:
414,153,51025,1,0,0:0:0:0:
417,153,51099,1,0,0:0:0:0:
414,153,51172,1,0,0:0:0:0:
414,153,51246,1,0,0:0:0:0:
414,153,51320,1,0,0:0:0:0:
414,153,51393,1,8,0:0:0:0:
414,153,51467,1,0,0:0:0:0:
414,153,51540,1,0,0:0:0:0:
414,153,51614,1,0,0:0:0:0:
414,153,51687,1,8,0:0:0:0:
414,153,51761,1,0,0:0:0:0:
414,153,51834,1,0,0:0:0:0:
417,153,51908,1,0,0:0:0:0:
417,153,51981,1,8,0:0:0:0:
414,153,52055,1,0,0:0:0:0:
417,153,52128,1,0,0:0:0:0:
414,153,52202,1,0,0:0:0:0:
414,153,52275,1,8,0:0:0:0:
414,153,52349,1,8,0:0:0:0:
414,153,52422,1,8,0:0:0:0:
414,153,52496,1,8,0:0:0:0:
414,153,52570,1,0,0:0:0:0:
414,153,52643,1,0,0:0:0:0:
414,153,52717,1,0,0:0:0:0:
414,153,52790,1,0,0:0:0:0:
414,153,52864,1,8,0:0:0:0:
417,153,52937,1,0,0:0:0:0:
417,153,53011,1,0,0:0:0:0:
414,153,53084,1,0,0:0:0:0:
417,153,53158,1,8,0:0:0:0:
423,136,53305,1,0,0:0:0:0:
423,136,53452,1,0,0:0:0:0:
423,136,53599,1,8,0:0:0:0:
423,136,53746,1,0,0:0:0:0:
423,136,53893,1,0,0:0:0:0:
423,136,54040,1,8,0:0:0:0:
423,136,54187,1,0,0:0:0:0:
423,136,54334,1,8,0:0:0:0:
423,136,54481,1,0,0:0:0:0:
423,136,54555,1,0,0:0:0:0:
423,136,54628,1,0,0:0:0:0:
423,136,54775,1,8,0:0:0:0:
423,136,54922,1,0,0:0:0:0:
423,136,55070,1,0,0:0:0:0:
423,136,55217,1,8,0:0:0:0:
423,136,55290,1,8,0:0:0:0:
423,136,55364,1,0,0:0:0:0:
423,136,55437,1,0,0:0:0:0:
423,136,55511,1,8,0:0:0:0:
423,136,55658,1,0,0:0:0:0:
423,136,55805,1,0,0:0:0:0:
423,136,55952,1,8,0:0:0:0:
423,136,56025,1,8,0:0:0:0:
423,136,56099,1,0,0:0:0:0:
423,136,56246,1,0,0:0:0:0:
423,136,56393,1,8,0:0:0:0:
423,136,56467,1,8,0:0:0:0:
423,136,56540,1,0,0:0:0:0:
423,136,56687,1,8,0:0:0:0:
423,136,56834,1,0,0:0:0:0:
423,136,56908,1,0,0:0:0:0:
423,136,56981,1,0,0:0:0:0:
423,136,57128,1,8,0:0:0:0:
423,136,57275,1,0,0:0:0:0:
423,136,57349,1,0,0:0:0:0:
423,136,57422,1,0,0:0:0:0:
423,136,57570,1,8,0:0:0:0:
423,136,57717,1,0,0:0:0:0:
423,136,57864,1,8,0:0:0:0:
431,134,58011,1,0,0:0:0:0:
431,134,58084,1,0,0:0:0:0:
431,134,58158,1,0,0:0:0:0:
431,134,58305,1,8,0:0:0:0:
431,134,58452,1,0,0:0:0:0:
430,134,58599,1,0,0:0:0:0:
430,134,58746,1,8,0:0:0:0:
430,132,58893,1,0,0:0:0:0:
431,134,58967,1,0,0:0:0:0:
431,134,59040,1,8,0:0:0:0:
431,134,59187,1,0,0:0:0:0:
431,134,59334,1,0,0:0:0:0:
431,134,59481,1,8,0:0:0:0:
134,260,59628,1,0,0:0:0:0:
440,132,59775,1,0,0:0:0:0:
439,133,59922,1,8,0:0:0:0:
438,134,60070,1,0,0:0:0:0:
438,134,60143,1,0,0:0:0:0:
438,134,60217,1,8,0:0:0:0:
438,134,60364,1,0,0:0:0:0:
438,134,60511,1,0,0:0:0:0:
440,132,60658,1,8,0:0:0:0:
440,132,60731,1,8,0:0:0:0:
440,132,60805,1,0,0:0:0:0:
439,133,60952,1,0,0:0:0:0:
438,134,61025,1,0,0:0:0:0:
438,134,61099,1,8,0:0:0:0:
438,134,61246,1,0,0:0:0:0:
438,134,61393,1,8,0:0:0:0:
438,134,61467,1,8,0:0:0:0:
438,134,61540,1,0,0:0:0:0:
440,132,61614,1,0,0:0:0:0:
440,132,61687,1,0,0:0:0:0:
440,132,61761,1,0,0:0:0:0:
440,132,61834,1,8,0:0:0:0:
439,133,61908,1,8,0:0:0:0:
439,133,61981,1,0,0:0:0:0:
438,134,62128,1,0,0:0:0:0:
438,134,62275,1,8,0:0:0:0:
438,134,62422,1,0,0:0:0:0:
438,134,62496,1,0,0:0:0:0:
394,112,62570,5,8,0:0:0:0:
397,123,62717,1,0,0:0:0:0:
397,123,62864,1,0,0:0:0:0:
398,121,63011,1,8,0:0:0:0:
381,120,63158,1,0,0:0:0:0:
381,120,63305,1,0,0:0:0:0:
394,112,63378,1,0,0:0:0:0:
373,114,63452,1,8,0:0:0:0:
394,112,63599,1,0,0:0:0:0:
390,110,63746,1,8,0:0:0:0:
392,113,63893,1,0,0:0:0:0:
392,113,64040,1,0,0:0:0:0:
388,116,64187,1,8,0:0:0:0:
388,127,64334,1,0,0:0:0:0:
388,127,64481,1,0,0:0:0:0:
388,127,64555,1,0,0:0:0:0:
388,127,64628,1,8,0:0:0:0:
391,124,64775,1,0,0:0:0:0:
389,124,64922,1,8,0:0:0:0:
380,130,65070,1,0,0:0:0:0:
380,130,65217,1,0,0:0:0:0:
388,120,65364,1,8,0:0:0:0:
374,129,65511,1,0,0:0:0:0:
372,129,65658,1,0,0:0:0:0:
372,129,65731,1,0,0:0:0:0:
371,129,65805,1,8,0:0:0:0:
358,126,65952,1,0,0:0:0:0:
358,126,66099,1,8,0:0:0:0:
364,128,66246,1,0,0:0:0:0:
362,128,66393,1,0,0:0:0:0:
361,129,66540,1,8,0:0:0:0:
360,125,66687,1,0,0:0:0:0:
360,125,66834,1,0,0:0:0:0:
354,133,66908,1,0,0:0:0:0:
358,126,66981,1,8,0:0:0:0:
358,126,67128,1,0,0:0:0:0:
353,137,67275,1,8,0:0:0:0:
353,133,67349,1,8,0:0:0:0:
353,133,67422,1,0,0:0:0:0:
353,133,67496,1,0,0:0:0:0:
353,133,67570,1,0,0:0:0:0:
353,133,67717,1,8,0:0:0:0:
350,134,67864,1,0,0:0:0:0:
350,134,68011,1,0,0:0:0:0:
351,133,68158,1,8,0:0:0:0:
353,137,68305,1,0,0:0:0:0:
331,131,68378,1,0,0:0:0:0:
353,133,68452,1,8,0:0:0:0:
348,139,68599,1,0,0:0:0:0:
348,139,68746,1,0,0:0:0:0:
350,134,68893,1,8,0:0:0:0:
350,134,69040,1,0,0:0:0:0:
348,139,69187,1,0,0:0:0:0:
353,137,69261,1,0,0:0:0:0:
353,137,69334,1,8,0:0:0:0:
353,133,69481,1,0,0:0:0:0:
348,139,69628,1,8,0:0:0:0:
348,139,69702,1,0,0:0:0:0:
348,139,69775,1,0,0:0:0:0:
353,140,69849,1,0,0:0:0:0:
353,140,69922,1,0,0:0:0:0:
348,139,70070,1,8,0:0:0:0:
348,139,70217,1,0,0:0:0:0:
353,137,70364,1,0,0:0:0:0:
353,140,70437,1,0,0:0:0:0:
348,139,70511,1,8,0:0:0:0:
348,139,70658,1,0,0:0:0:0:
343,103,70805,5,8,0:0:0:0:
343,103,70878,1,8,0:0:0:0:
343,103,70952,1,0,0:0:0:0:
343,103,71025,1,0,0:0:0:0:
343,103,71099,1,8,0:0:0:0:
343,103,71172,1,0,0:0:0:0:
343,103,71246,1,0,0:0:0:0:
343,103,71320,1,0,0:0:0:0:
343,103,71393,1,8,0:0:0:0:
343,103,71467,1,0,0:0:0:0:
343,103,71540,1,0,0:0:0:0:
343,103,71614,1,0,0:0:0:0:
343,103,71687,1,8,0:0:0:0:
343,103,71761,1,8,0:0:0:0:
343,103,71834,1,8,0:0:0:0:
343,103,71908,1,8,0:0:0:0:
343,103,71981,1,0,0:0:0:0:
340,109,72128,1,0,0:0:0:0:
340,109,72275,1,8,0:0:0:0:
340,109,72422,1,0,0:0:0:0:
339,108,72496,1,0,0:0:0:0:
340,109,72570,1,0,0:0:0:0:
340,109,72717,1,0,0:0:0:0:
337,108,72864,1,8,0:0:0:0:
337,108,72937,1,0,0:0:0:0:
337,108,73011,1,0,0:0:0:0:
340,109,73158,1,0,0:0:0:0:
340,109,73305,1,0,0:0:0:0:
340,109,73452,1,8,0:0:0:0:
340,109,73599,1,0,0:0:0:0:
340,109,73672,1,0,0:0:0:0:
340,109,73746,1,0,0:0:0:0:
337,108,73893,1,0,0:0:0:0:
337,108,74040,1,8,0:0:0:0:
340,109,74187,1,8,0:0:0:0:
340,109,74261,1,0,0:0:0:0:
340,109,74334,1,8,0:0:0:0:
340,109,74628,1,8,0:0:0:0:
340,109,74775,1,0,0:0:0:0:
345,108,74922,1,0,0:0:0:0:
345,108,75070,1,0,0:0:0:0:
340,109,75217,1,8,0:0:0:0:
340,109,75364,1,8,0:0:0:0:
340,109,75437,1,8,0:0:0:0:
340,109,75511,1,0,0:0:0:0:
349,116,75658,1,0,0:0:0:0:
349,116,75805,1,8,0:0:0:0:
352,114,75952,1,0,0:0:0:0:
352,114,76099,1,0,0:0:0:0:
351,114,76246,1,0,0:0:0:0:
352,114,76320,1,0,0:0:0:0:
351,114,76393,1,8,0:0:0:0:
351,114,76540,1,0,0:0:0:0:
349,116,76687,1,0,0:0:0:0:
349,116,76834,1,0,0:0:0:0:
373,111,76908,1,0,0:0:0:0:
352,114,76981,1,8,0:0:0:0:
343,113,77275,1,8,0:0:0:0:
351,114,77422,1,0,0:0:0:0:
351,114,77570,1,8,0:0:0:0:
355,109,77717,1,0,0:0:0:0:
355,109,77790,1,8,0:0:0:0:
355,109,77864,1,0,0:0:0:0:
337,110,78011,1,0,0:0:0:0:
351,114,78158,1,8,0:0:0:0:
365,118,78305,1,0,0:0:0:0:
351,114,78452,1,0,0:0:0:0:
365,118,78599,1,0,0:0:0:0:
365,118,78672,1,0,0:0:0:0:
365,118,78746,1,8,0:0:0:0:
365,117,78893,1,8,0:0:0:0:
365,117,79040,1,0,0:0:0:0:
365,118,79334,1,8,0:0:0:0:
361,120,79481,1,0,0:0:0:0:
365,118,79628,1,0,0:0:0:0:
365,118,79702,1,0,0:0:0:0:
365,117,79775,1,0,0:0:0:0:
365,117,79922,1,8,0:0:0:0:
365,117,80070,1,0,0:0:0:0:
365,117,80217,1,0,0:0:0:0:
357,116,80364,1,0,0:0:0:0:
361,120,80437,1,0,0:0:0:0:
361,120,80511,1,8,0:0:0:0:
358,116,80658,1,0,0:0:0:0:
355,117,80805,1,0,0:0:0:0:
355,117,80952,1,8,0:0:0:0:
355,114,81025,1,8,0:0:0:0:
355,117,81099,1,0,0:0:0:0:
355,117,81246,1,8,0:0:0:0:
343,113,81320,1,8,0:0:0:0:
366,132,81393,5,0,0:0:0:0:
366,132,81540,1,0,0:0:0:0:
366,132,81687,1,8,0:0:0:0:
366,132,81834,1,0,0:0:0:0:
368,125,81908,1,0,0:0:0:0:
366,132,81981,1,0,0:0:0:0:
366,132,82128,1,0,0:0:0:0:
369,125,82202,1,0,0:0:0:0:
366,132,82275,1,8,0:0:0:0:
369,125,82422,1,0,0:0:0:0:
368,125,82570,1,8,0:0:0:0:
368,125,82717,1,0,0:0:0:0:
368,125,82790,1,0,0:0:0:0:
367,125,82864,1,8,0:0:0:0:
359,129,83011,1,0,0:0:0:0:
359,129,83158,1,0,0:0:0:0:
359,129,83231,1,0,0:0:0:0:
359,129,83305,1,0,0:0:0:0:
359,129,83378,1,0,0:0:0:0:
359,130,83452,1,8,0:0:0:0:
359,131,83599,1,8,0:0:0:0:
359,131,83746,1,0,0:0:0:0:
363,130,83893,1,0,0:0:0:0:
359,129,83967,1,0,0:0:0:0:
359,129,84040,1,8,0:0:0:0:
359,129,84187,1,0,0:0:0:0:
359,129,84334,1,8,0:0:0:0:
359,130,84408,1,8,0:0:0:0:
359,131,84481,1,0,0:0:0:0:
359,131,84628,1,8,0:0:0:0:
359,131,84775,1,0,0:0:0:0:
363,130,84922,1,0,0:0:0:0:
359,129,85070,1,0,0:0:0:0:
359,129,85143,1,0,0:0:0:0:
359,129,85217,1,8,0:0:0:0:
359,129,85364,1,0,0:0:0:0:
359,131,85511,1,8,0:0:0:0:
359,131,85805,1,8,0:0:0:0:
363,130,85952,1,0,0:0:0:0:
359,129,86099,1,0,0:0:0:0:
359,129,86246,1,0,0:0:0:0:
359,129,86320,1,0,0:0:0:0:
359,129,86393,1,8,0:0:0:0:
359,131,86540,1,0,0:0:0:0:
359,131,86687,1,0,0:0:0:0:
359,131,86761,1,0,0:0:0:0:
359,131,86834,1,0,0:0:0:0:
363,130,86908,1,0,0:0:0:0:
363,130,86981,1,8,0:0:0:0:
359,129,87128,1,0,0:0:0:0:
359,129,87275,1,0,0:0:0:0:
359,129,87422,1,0,0:0:0:0:
359,131,87570,1,8,0:0:0:0:
359,131,87717,1,0,0:0:0:0:
359,131,87790,1,0,0:0:0:0:
359,131,87864,1,8,0:0:0:0:
363,130,88011,1,0,0:0:0:0:
359,129,88158,1,8,0:0:0:0:
359,129,88305,1,0,0:0:0:0:
445,128,88452,5,8,0:0:0:0:
445,128,88599,1,0,0:0:0:0:
445,128,88746,1,8,0:0:0:0:
445,120,88893,1,0,0:0:0:0:
445,120,89040,1,8,0:0:0:0:
444,120,89187,1,0,0:0:0:0:
392,109,89334,5,8,0:0:0:0:
392,109,89408,1,8,0:0:0:0:
392,109,89481,1,0,0:0:0:0:
392,109,89628,1,8,0:0:0:0:
392,109,89775,1,0,0:0:0:0:
392,109,89922,1,8,0:0:0:0:
392,109,90070,1,0,0:0:0:0:
392,127,90217,5,0,0:0:0:0:
392,127,90290,1,8,0:0:0:0:
392,127,90364,1,8,0:0:0:0:
392,127,90437,1,8,0:0:0:0:
392,127,90511,1,0,0:0:0:0:
392,127,90584,1,8,0:0:0:0:
392,127,90658,1,8,0:0:0:0:
392,127,90731,1,8,0:0:0:0:
392,127,90805,1,0,0:0:0:0:
