osu file format v14

[General]
AudioFilename: audio.mp3
AudioLeadIn: 0
PreviewTime: 47992
Countdown: 0
SampleSet: Soft
StackLeniency: 0.4
Mode: 0
LetterboxInBreaks: 0
WidescreenStoryboard: 0

[Editor]
Bookmarks: 28522,38522,66757
DistanceSpacing: 1.3
BeatDivisor: 4
GridSize: 32
TimelineZoom: 1

[Metadata]
Title:Ai no Sukima
TitleUnicode:哀の隙間
Artist:MIMI feat. Hatsune Miku
ArtistUnicode:MIMI feat. 初音ミク
Creator:Log Off Now
Version:Radiance
Source:
Tags:佐藤主税 sorrow's gap vocaloid japanese
BeatmapID:1988753
BeatmapSetID:952409

[Difficulty]
HPDrainRate:5.2
CircleSize:3.8
OverallDifficulty:9
ApproachRate:9.4
SliderMultiplier:1.1
SliderTickRate:1

[Events]
//Background and Video events
0,0,"ilovemiku1.jpg",0,0
//Break Periods
//Storyboard Layer 0 (Background)
//Storyboard Layer 1 (Fail)
//Storyboard Layer 2 (Pass)
//Storyboard Layer 3 (Foreground)
//Storyboard Sound Samples

[TimingPoints]
934,294.117647058824,4,2,1,40,1,0
10345,-83.3333333333333,4,2,1,50,0,0
29169,-125,4,2,1,40,0,0
39463,-100,4,2,1,40,0,0
40934,-125,4,2,1,40,0,0
41816,-100,4,2,1,40,0,0
46816,-100,4,2,1,45,0,0
47110,-90.9090909090909,4,2,1,50,0,0
47404,-83.3333333333333,4,2,1,55,0,0
47698,-76.9230769230769,4,2,1,60,0,0
47992,-71.4285714285714,4,2,1,65,0,1
66816,-100,4,2,1,65,0,0

[Colours]
Combo1 : 255,213,85
Combo2 : 121,255,145
Combo3 : 64,226,255
Combo4 : 248,120,139

[HitObjects]
198,29,934,6,0,P|160:16|122:14,2,55,2|0|2,0:0|0:0|0:0,0:0:0:0:
316,91,1522,2,0,P|345:86|373:75,1,55,2|0,0:0|0:0,0:0:0:0:
447,102,1816,2,0,P|457:129|462:159,1,55,2|0,0:0|0:0,0:0:0:0:
411,227,2110,6,0,P|400:273|409:352,1,110,2|0,0:0|0:0,0:0:0:0:
275,293,2698,2,0,P|247:282|217:277,1,55,2|0,0:0|0:0,0:0:0:0:
148,326,2992,2,0,P|120:336|90:341,1,55,2|0,0:0|0:0,0:0:0:0:
32,274,3286,6,0,P|45:227|34:149,1,110,2|0,0:0|0:0,0:0:0:0:
116,66,3875,2,0,L|110:0,2,55,2|0|2,0:0|0:0|0:0,0:0:0:0:
190,156,4463,2,0,L|184:222,2,55,2|0|2,0:0|0:0|0:0,0:0:0:0:
263,61,5051,1,2,0:0:0:0:
263,61,5639,6,0,P|301:74|339:76,2,55,2|0|2,0:0|0:0|0:0,0:0:0:0:
130,20,6227,2,0,P|100:24|72:35,1,55,2|0,0:0|0:0,0:0:0:0:
50,111,6522,2,0,P|60:138|65:168,1,55,2|0,0:0|0:0,0:0:0:0:
8,230,6816,6,0,P|-3:277|6:355,1,110,2|0,0:0|0:0,0:0:0:0:
206,332,7404,2,0,P|178:321|148:316,1,55,2|0,0:0|0:0,0:0:0:0:
119,229,7697,2,0,P|146:224|171:214,1,55,2|0,0:0|0:0,0:0:0:0:
246,253,7992,6,0,P|286:275|369:265,1,110,2|0,0:0|0:0,0:0:0:0:
307,130,8581,2,0,L|311:184,2,55,2|0|2,0:0|0:0|0:0,0:0:0:0:
187,21,9169,2,0,L|183:76,1,55,2|0,0:0|0:0,0:0:0:0:
109,138,9463,1,2,0:0:0:0:
109,138,9757,1,2,0:0:0:0:
109,138,10345,6,0,L|120:283,1,131.99999597168,4|10,0:0|0:0,0:0:0:0:
185,344,10786,1,0,0:0:0:0:
305,279,10934,1,2,0:0:0:0:
218,250,11081,1,2,0:0:0:0:
299,372,11228,2,0,P|331:368|361:355,1,65.9999979858399,10|2,0:0|0:0,0:0:0:0:
341,202,11522,5,2,0:0:0:0:
450,294,11669,1,0,0:0:0:0:
450,294,11816,2,0,L|461:149,1,131.99999597168,8|0,0:0|0:0,0:0:0:0:
385,82,12257,1,2,0:0:0:0:
286,189,12404,1,10,0:0:0:0:
374,171,12551,1,2,0:0:0:0:
299,100,12698,6,0,P|238:75|147:100,2,131.99999597168,2|8|0,0:0|0:0|0:0,0:0:0:0:
227,165,13434,1,2,0:0:0:0:
301,297,13581,2,0,L|293:225,1,65.9999979858399,10|0,0:0|0:0,0:0:0:0:
221,345,13875,5,2,0:0:0:0:
136,278,14022,1,2,0:0:0:0:
27,372,14169,2,0,L|35:300,1,65.9999979858399,10|0,0:0|0:0,0:0:0:0:
76,204,14463,2,0,L|60:61,1,131.99999597168,2|8,0:0|0:0,0:0:0:0:
242,137,15051,5,2,0:0:0:0:
157,104,15198,1,2,0:0:0:0:
307,13,15345,2,0,L|316:93,1,65.9999979858399,10|0,0:0|0:0,0:0:0:0:
334,248,15639,1,2,0:0:0:0:
408,152,15786,1,2,0:0:0:0:
429,314,15934,1,10,0:0:0:0:
312,236,16081,1,2,0:0:0:0:
222,358,16228,6,0,L|230:283,1,65.9999979858399,2|0,0:0|0:0,0:0:0:0:
153,202,16522,2,0,L|132:58,1,131.99999597168,8|0,0:0|0:0,0:0:0:0:
233,143,16963,1,2,0:0:0:0:
283,23,17110,1,10,0:0:0:0:
317,193,17257,1,2,0:0:0:0:
454,118,17404,6,0,P|383:106|319:102,2,131.99999597168,2|8|0,0:0|0:0|0:0,0:0:0:0:
512,189,18139,1,2,0:0:0:0:
417,280,18286,2,0,L|426:208,1,65.9999979858399,10|0,0:0|0:0,0:0:0:0:
486,335,18581,5,2,0:0:0:0:
401,381,18728,1,2,0:0:0:0:
330,304,18875,2,0,L|321:232,1,65.9999979858399,10|0,0:0|0:0,0:0:0:0:
248,110,19169,2,0,L|239:182,1,65.9999979858399,2|0,0:0|0:0,0:0:0:0:
163,269,19463,2,0,L|154:197,1,65.9999979858399,8|0,0:0|0:0,0:0:0:0:
176,46,19757,5,2,0:0:0:0:
248,110,19904,1,2,0:0:0:0:
328,18,20051,2,0,L|248:31,1,65.9999979858399,10|0,0:0|0:0,0:0:0:0:
87,64,20345,1,2,0:0:0:0:
159,128,20492,1,2,0:0:0:0:
53,239,20639,1,10,0:0:0:0:
73,153,20786,1,2,0:0:0:0:
138,274,20934,6,0,L|125:354,1,65.9999979858399,2|0,0:0|0:0,0:0:0:0:
220,234,21228,2,0,P|266:200|365:208,1,131.99999597168,8|0,0:0|0:0,0:0:0:0:
413,268,21669,1,2,0:0:0:0:
326,329,21816,1,10,0:0:0:0:
338,196,21963,1,2,0:0:0:0:
461,344,22110,6,0,L|477:209,2,131.99999597168,2|8|0,0:0|0:0|0:0,0:0:0:0:
377,257,22845,1,2,0:0:0:0:
303,361,22992,2,0,L|368:352,1,65.9999979858399,10|0,0:0|0:0,0:0:0:0:
275,263,23287,5,2,0:0:0:0:
207,361,23434,1,2,0:0:0:0:
125,260,23581,2,0,L|116:188,1,65.9999979858399,10|0,0:0|0:0,0:0:0:0:
260,52,23875,2,0,P|238:112|165:119,1,131.99999597168,2|8,0:0|0:0,0:0:0:0:
0,81,24463,5,2,0:0:0:0:
88,27,24610,1,2,0:0:0:0:
71,149,24757,2,0,L|62:221,1,65.9999979858399,10|0,0:0|0:0,0:0:0:0:
45,366,25051,1,2,0:0:0:0:
184,226,25198,1,2,0:0:0:0:
112,296,25345,1,10,0:0:0:0:
237,358,25492,1,2,0:0:0:0:
88,384,25639,6,0,L|161:370,1,65.9999979858399,2|0,0:0|0:0,0:0:0:0:
327,292,25934,2,0,L|181:264,1,131.99999597168,8|0,0:0|0:0,0:0:0:0:
99,245,26375,1,2,0:0:0:0:
189,175,26522,1,10,0:0:0:0:
237,358,26669,1,2,0:0:0:0:
338,265,26816,6,0,P|374:245|471:261,2,131.99999597168,2|8|0,0:0|0:0|0:0,0:0:0:0:
268,196,27551,1,2,0:0:0:0:
354,94,27698,2,0,L|346:168,1,65.9999979858399,10|0,0:0|0:0,0:0:0:0:
282,41,27992,5,2,0:0:0:0:
368,2,28139,1,2,0:0:0:0:
443,85,28286,2,0,L|451:159,1,65.9999979858399,10|0,0:0|0:0,0:0:0:0:
464,313,28581,2,0,P|413:291|379:293,1,65.9999979858399,2|0,0:0|0:0,0:0:0:0:
263,359,28875,2,0,L|275:234,1,98.9999969787599,10|0,0:0|0:0,0:0:0:0:
276,227,29169,5,4,0:0:0:0:
171,335,29463,1,0,0:0:0:0:
116,147,29757,1,2,0:0:0:0:
116,147,30345,5,0,0:0:0:0:
58,270,30639,1,0,0:0:0:0:
323,197,30933,1,2,0:0:0:0:
323,197,31522,5,0,0:0:0:0:
299,322,31816,1,0,0:0:0:0:
246,117,32110,1,2,0:0:0:0:
246,117,32698,5,0,0:0:0:0:
323,197,32992,1,0,0:0:0:0:
370,22,33286,1,2,0:0:0:0:
370,22,33875,5,0,0:0:0:0:
415,121,34169,1,0,0:0:0:0:
290,80,34463,1,2,0:0:0:0:
290,80,35051,5,0,0:0:0:0:
245,196,35345,1,0,0:0:0:0:
415,121,35639,1,2,0:0:0:0:
415,121,36228,5,0,0:0:0:0:
474,205,36522,1,0,0:0:0:0:
408,283,36816,1,2,0:0:0:0:
165,223,37404,1,2,0:0:0:0:
165,223,38581,6,0,B|272:255|226:198|348:225,1,176,2|0,1:2|1:0,0:0:0:0:
405,284,39316,1,2,0:0:0:0:
468,211,39463,2,0,L|459:133,1,55,2|0,0:0|0:0,0:0:0:0:
450,66,39757,1,2,1:2:0:0:
450,66,40345,1,0,1:0:0:0:
358,145,40639,1,2,0:0:0:0:
261,32,40934,6,0,B|154:0|200:57|78:30,1,176,2|0,1:2|1:0,0:0:0:0:
3,11,41669,1,2,0:0:0:0:
30,98,41816,2,0,P|35:137|28:172,1,55,2|0,0:0|0:0,0:0:0:0:
2,239,42110,1,2,1:2:0:0:
2,239,42698,1,0,1:0:0:0:
121,181,42992,2,0,L|114:247,1,55,2|2,1:2|0:0,0:0:0:0:
105,344,43286,6,0,P|155:315|215:320,1,110,2|0,1:2|0:0,0:0:0:0:
346,365,43875,2,0,L|335:272,1,82.5,2|0,1:2|0:0,0:0:0:0:
355,256,44169,2,0,L|364:186,2,55,2|0|2,0:0|0:0|1:2,0:0:0:0:
231,86,44757,6,0,L|243:195,1,110,2|0,0:0|1:0,0:0:0:0:
265,340,45345,1,2,0:0:0:0:
148,295,45639,2,0,P|100:282|38:290,1,110,2|2,1:2|0:0,0:0:0:0:
120,177,46228,2,0,P|138:129|122:61,1,110,2|2,1:2|0:0,0:0:0:0:
0,129,46816,6,0,L|73:117,1,55,0|2,1:0|0:3,0:0:0:0:
133,201,47110,2,0,L|209:214,1,60.5000018463135,0|2,1:0|0:3,0:0:0:0:
235,68,47404,6,0,L|312:54,1,65.9999979858399,0|2,1:0|0:3,0:0:0:0:
393,184,47698,2,0,L|467:196,1,71.4999967269899,0|2,1:0|0:3,0:0:0:0:
254,367,47992,6,0,P|280:314|264:267,1,76.9999976501466,4|0,1:2|0:0,0:0:0:0:
225,117,48286,1,10,0:0:0:0:
174,303,48434,1,2,0:0:0:0:
365,186,48581,2,0,L|279:201,1,76.9999976501466,0|0,1:0|0:0,0:0:0:0:
116,95,48875,2,0,L|202:110,1,76.9999976501466,10|0,0:0|0:0,0:0:0:0:
366,29,49169,6,0,P|384:62|382:100,1,76.9999976501466,2|0,1:2|0:0,0:0:0:0:
348,277,49463,1,10,0:0:0:0:
261,179,49611,1,2,0:0:0:0:
216,367,49757,2,0,L|291:353,1,76.9999976501466,0|0,1:0|0:0,0:0:0:0:
446,274,50051,2,0,L|370:260,1,76.9999976501466,10|0,0:0|0:0,0:0:0:0:
129,220,50345,5,2,1:2:0:0:
323,355,50492,1,2,0:0:0:0:
90,337,50639,1,10,0:0:0:0:
353,232,50786,1,2,0:0:0:0:
113,138,50934,5,2,1:2:0:0:
282,280,51081,1,2,0:0:0:0:
49,258,51228,1,10,0:0:0:0:
313,161,51375,1,2,0:0:0:0:
187,11,51522,6,0,L|198:100,1,76.9999976501466,2|0,1:2|0:0,0:0:0:0:
217,274,51816,1,10,0:0:0:0:
355,77,51963,2,0,L|344:166,1,76.9999976501466,2|0,0:0|1:0,0:0:0:0:
317,355,52257,1,0,0:0:0:0:
198,193,52404,2,0,P|236:193|270:210,1,76.9999976501466,10|0,0:0|0:0,0:0:0:0:
403,382,52698,6,0,L|392:293,1,76.9999976501466,2|0,1:2|0:0,0:0:0:0:
371,98,52992,1,10,0:0:0:0:
476,265,53139,1,2,0:0:0:0:
270,164,53286,2,0,L|361:178,1,76.9999976501466,0|0,1:0|0:0,0:0:0:0:
512,37,53581,2,0,L|435:45,1,76.9999976501466,10|0,0:0|0:0,0:0:0:0:
235,49,53875,6,0,P|247:113|232:152,1,76.9999976501466,2|0,1:2|0:0,0:0:0:0:
133,280,54169,1,10,0:0:0:0:
161,98,54316,1,2,0:0:0:0:
225,302,54463,2,0,L|216:379,1,76.9999976501466,0|0,1:0|0:0,0:0:0:0:
84,218,54757,2,0,P|130:199|166:206,1,76.9999976501466,10|0,0:0|0:0,0:0:0:0:
387,288,55051,5,2,1:2:0:0:
217,127,55198,1,2,0:0:0:0:
189,313,55345,1,10,0:0:0:0:
401,135,55492,1,2,0:0:0:0:
415,313,55639,5,2,1:2:0:0:
193,108,55786,1,2,0:0:0:0:
159,331,55934,1,10,0:0:0:0:
429,112,56081,1,2,0:0:0:0:
333,370,56228,6,0,L|319:269,1,76.9999976501466,2|0,1:2|0:0,0:0:0:0:
221,134,56522,2,0,L|207:235,1,76.9999976501466,10|0,0:0|0:0,0:0:0:0:
390,246,56816,2,0,L|379:169,1,76.9999976501466,2|0,1:2|0:0,0:0:0:0:
314,30,57110,2,0,L|304:107,1,76.9999976501466,10|0,0:0|0:0,0:0:0:0:
268,329,57404,6,0,P|224:300|171:298,1,76.9999976501466,2|0,1:2|0:0,0:0:0:0:
33,331,57698,1,10,0:0:0:0:
191,383,57846,1,2,0:0:0:0:
122,203,57992,2,0,L|106:288,1,76.9999976501466,0|0,1:0|0:0,0:0:0:0:
217,101,58286,2,0,L|232:186,1,76.9999976501466,10|0,0:0|0:0,0:0:0:0:
42,35,58581,6,0,P|72:53|116:53,1,76.9999976501466,2|0,1:2|0:0,0:0:0:0:
287,10,58875,1,10,0:0:0:0:
218,202,59023,1,2,0:0:0:0:
382,102,59170,2,0,L|307:116,1,76.9999976501466,0|0,1:0|0:0,0:0:0:0:
115,196,59463,2,0,L|191:210,1,76.9999976501466,10|0,0:0|0:0,0:0:0:0:
443,241,59757,5,2,1:2:0:0:
198,313,59904,1,2,0:0:0:0:
307,116,60051,1,10,0:0:0:0:
397,376,60198,1,2,0:0:0:0:
418,152,60345,5,2,1:2:0:0:
190,209,60492,1,2,0:0:0:0:
346,35,60639,1,10,0:0:0:0:
285,309,60786,1,2,0:0:0:0:
168,122,60934,6,0,L|257:133,1,76.9999976501466,2|0,1:2|0:0,0:0:0:0:
442,156,61228,1,10,0:0:0:0:
238,274,61375,2,0,L|327:263,1,76.9999976501466,2|0,0:0|1:0,0:0:0:0:
511,232,61669,1,0,0:0:0:0:
372,99,61816,2,0,P|354:132|353:170,1,76.9999976501466,10|0,0:0|0:0,0:0:0:0:
406,338,62110,6,0,L|317:349,1,76.9999976501466,2|0,1:2|0:0,0:0:0:0:
161,365,62404,1,10,0:0:0:0:
313,251,62551,1,2,0:0:0:0:
132,159,62698,2,0,L|143:235,1,76.9999976501466,0|0,1:0|0:0,0:0:0:0:
322,109,62992,2,0,P|336:60|326:24,1,76.9999976501466,10|0,0:0|0:0,0:0:0:0:
146,47,63286,6,0,L|249:61,1,76.9999976501466,2|0,1:2|0:0,0:0:0:0:
436,79,63581,1,10,0:0:0:0:
256,185,63728,1,2,0:0:0:0:
488,161,63875,2,0,L|411:170,1,76.9999976501466,0|0,1:0|0:0,0:0:0:0:
318,361,64169,2,0,P|335:327|333:289,1,76.9999976501466,10|0,0:0|0:0,0:0:0:0:
267,59,64463,5,2,1:2:0:0:
231,303,64610,1,2,0:0:0:0:
387,81,64757,1,10,0:0:0:0:
107,167,64904,1,2,0:0:0:0:
434,264,65051,5,2,1:2:0:0:
79,167,65198,1,2,0:0:0:0:
420,75,65346,1,10,0:0:0:0:
245,329,65492,1,2,0:0:0:0:
222,49,65639,6,0,L|234:157,1,76.9999976501466,2|0,1:2|0:0,0:0:0:0:
259,351,65934,1,10,0:0:0:0:
441,188,66081,2,0,B|359:222|359:157|263:201,1,153.999995300293,2|0,0:0|0:0,0:0:0:0:
171,361,66522,2,0,L|183:253,1,76.9999976501466,10|0,0:0|0:0,0:0:0:0:
205,47,66817,1,4,1:2:0:0:
