osu file format v14

[General]
AudioFilename: audio.mp3
AudioLeadIn: 0
PreviewTime: 94467
Countdown: 0
SampleSet: Normal
StackLeniency: 1
Mode: 1
LetterboxInBreaks: 0
WidescreenStoryboard: 0

[Editor]
DistanceSpacing: 0.5
BeatDivisor: 4
GridSize: 32
TimelineZoom: 1.7

[Metadata]
Title:Toumeika
TitleUnicode:透明夏
Artist:MIMI
ArtistUnicode:MIMI
Creator:Axer
Version:Sunrise
Source:osu!
Tags:Hivie featured artist fa mappers' guild mpg mg vocaloid japanese pop hatsune miku 初音ミク
BeatmapID:2457868
BeatmapSetID:1178559

[Difficulty]
HPDrainRate:5
CircleSize:2
OverallDifficulty:6
ApproachRate:10
SliderMultiplier:1.4
SliderTickRate:1

[Events]
//Background and Video events
0,0,"theykindavibindoe.jpg",0,-10
//Break Periods
2,145867,163351
//Storyboard Layer 0 (Background)
//Storyboard Layer 1 (Fail)
//Storyboard Layer 2 (Pass)
//Storyboard Layer 3 (Foreground)
//Storyboard Layer 4 (Overlay)
//Storyboard Sound Samples

[TimingPoints]
693,571.428571428571,4,1,0,25,1,0
693,-133.333333333333,4,1,0,25,0,0
13550,-133.333333333333,4,1,0,25,0,0
13835,576.923076923077,4,1,0,25,1,8
13835,-132.063492063492,4,1,0,25,0,0
14123,591.133004926108,4,1,0,25,1,8
14123,-128.888888888889,4,1,0,25,0,0
14418,641.711229946524,4,1,0,25,1,0
14418,-118.730158730159,4,1,0,25,0,0
14738,677.966101694915,4,1,0,25,1,8
14738,-112.380952380952,4,1,0,25,0,0
15076,701.754385964912,4,1,0,25,1,8
15076,-108.571428571428,4,1,0,25,0,0
15426,750,4,1,0,25,1,8
15426,-101.587301587301,4,1,0,25,0,0
15801,600,4,1,0,25,1,8
15801,-126.984126984127,4,1,0,25,0,0
23001,266.666666666667,4,1,0,50,1,0
23001,-153.846153846153,4,1,0,50,0,0
23534,-142.857142857143,4,1,0,50,0,0
24067,-133.333333333333,4,1,0,75,0,0
78201,-153.846153846153,4,1,0,50,0,0
85534,-133.333333333333,4,1,0,75,0,0
93267,-133.333333333333,4,1,0,75,0,0
93401,-131.158721727098,4,1,0,75,0,0
93534,-129.05390581646,4,1,0,75,0,0
93667,-127.015417131331,4,1,0,75,0,0
93801,-125.040481856001,4,1,0,75,0,0
93934,-123.126021945982,4,1,0,75,0,0
94067,-121.269301525204,4,1,0,75,0,0
94201,-119.467604567008,4,1,0,75,0,0
94334,-117.718798043984,4,1,0,75,0,0
94467,-111.111111111111,4,1,0,90,0,1
128601,-111.111111111111,4,1,0,90,0,0
128867,-114.583369140636,4,1,0,75,0,0
129001,-116.402104084433,4,1,0,75,0,0
129134,-118.279506301341,4,1,0,75,0,0
129267,-120.218605512264,4,1,0,75,0,0
129401,-122.222195061734,4,1,0,75,0,0
129534,-124.293855533252,4,1,0,75,0,0
129667,-126.43679614216,4,1,0,75,0,0
129801,-128.654925618155,4,1,0,75,0,0
129934,-130.952443310687,4,1,0,75,0,0
130067,-133.333333333333,4,1,0,75,0,0
145801,-200,4,1,0,25,0,0
163667,-133.333333333333,4,1,0,75,0,0
164867,-111.111111111111,4,1,0,90,0,1
199001,-111.111111111111,4,1,0,90,0,0
199134,-113.475177304965,4,1,0,75,0,0
199534,-115.942028985507,4,1,0,75,0,0
199801,-118.518518518519,4,1,0,75,0,0
199934,-119.850187265918,4,1,0,75,0,0
200201,-122.605363984674,4,1,0,75,0,0
200334,-124.031007751938,4,1,0,75,0,0
200601,-126.984126984127,4,1,0,75,0,0
200867,-130.081300813008,4,1,0,75,0,0
201134,-133.333333333333,4,1,0,75,0,0
216334,-200,4,1,0,25,0,0
217134,266.666666666667,4,1,0,50,1,8
217134,-200,4,1,0,25,0,0
218201,266.666666666667,4,1,0,50,1,0
218201,-200,4,1,0,25,0,0
219267,279.069767441861,4,1,0,25,1,8
219267,-191.111111111111,4,1,0,25,0,0
219546,294.117647058824,4,1,0,25,1,8
220428,294.117647058824,4,1,0,25,1,0
220428,-181.333333333334,4,1,0,25,0,8
221310,307.692307692308,4,1,0,25,1,8
221617,331.491712707182,4,1,0,25,1,8
221617,-160.888888888889,4,1,0,25,0,8
221948,375,4,1,0,25,1,8
223073,375,4,1,0,25,1,8
223073,-142.222222222222,4,1,0,25,0,8

[HitObjects]
256,192,1693,5,0,0:0:0:0:
256,192,1764,1,0,0:0:0:0:
256,192,1835,1,2,0:0:0:0:
256,192,2121,1,0,0:0:0:0:
256,192,2407,1,0,0:0:0:0:
256,192,2693,1,2,0:0:0:0:
256,192,2978,1,2,0:0:0:0:
256,192,3264,1,0,0:0:0:0:
256,192,3550,1,0,0:0:0:0:
256,192,3835,1,2,0:0:0:0:
256,192,4121,1,2,0:0:0:0:
256,192,4407,1,0,0:0:0:0:
256,192,4693,1,2,0:0:0:0:
256,192,4978,1,2,0:0:0:0:
256,192,5264,1,2,0:0:0:0:
256,192,5550,1,0,0:0:0:0:
256,192,5835,1,0,0:0:0:0:
256,192,6121,1,0,0:0:0:0:
256,192,6407,1,2,0:0:0:0:
256,192,6693,1,0,0:0:0:0:
256,192,6978,1,0,0:0:0:0:
256,192,7264,1,2,0:0:0:0:
256,192,7550,1,2,0:0:0:0:
256,192,7835,1,0,0:0:0:0:
256,192,8121,1,0,0:0:0:0:
256,192,8407,1,2,0:0:0:0:
256,192,8693,1,2,0:0:0:0:
256,192,8978,1,0,0:0:0:0:
256,192,9264,1,2,0:0:0:0:
256,192,9550,1,2,0:0:0:0:
256,192,9835,1,2,0:0:0:0:
256,192,10121,1,0,0:0:0:0:
256,192,10407,1,0,0:0:0:0:
256,192,10693,1,0,0:0:0:0:
256,192,10978,1,2,0:0:0:0:
256,192,11264,1,0,0:0:0:0:
256,192,11550,1,0,0:0:0:0:
256,192,11835,1,2,0:0:0:0:
256,192,12121,1,2,0:0:0:0:
256,192,12407,1,0,0:0:0:0:
256,192,12693,1,0,0:0:0:0:
256,192,12978,1,2,0:0:0:0:
256,192,13264,1,2,0:0:0:0:
256,192,13550,1,0,0:0:0:0:
256,192,13835,1,2,0:0:0:0:
256,192,14123,1,2,0:0:0:0:
256,192,14418,1,2,0:0:0:0:
256,192,14738,1,0,0:0:0:0:
256,192,15076,1,0,0:0:0:0:
256,192,15426,1,0,0:0:0:0:
256,192,15801,12,0,20751,0:0:0:0:
256,192,23002,5,0,0:0:0:0:
256,192,23267,1,0,0:0:0:0:
256,192,23534,1,8,0:0:0:0:
256,192,23801,1,0,0:0:0:0:
256,192,24067,1,12,0:0:0:0:
256,192,24201,1,0,0:0:0:0:
256,192,24334,1,8,0:0:0:0:
256,192,24467,1,0,0:0:0:0:
256,192,24601,1,8,0:0:0:0:
256,192,24867,1,0,0:0:0:0:
256,192,25001,1,8,0:0:0:0:
256,192,25267,1,0,0:0:0:0:
256,192,25401,1,8,0:0:0:0:
256,192,25534,1,8,0:0:0:0:
256,192,25667,1,0,0:0:0:0:
256,192,25801,1,0,0:0:0:0:
256,192,25867,1,0,0:0:0:0:
256,192,25934,1,8,0:0:0:0:
256,192,26201,1,0,0:0:0:0:
256,192,26334,1,0,0:0:0:0:
256,192,26467,1,8,0:0:0:0:
256,192,26601,1,0,0:0:0:0:
256,192,26734,1,8,0:0:0:0:
256,192,27001,1,0,0:0:0:0:
256,192,27134,1,8,0:0:0:0:
256,192,27401,1,0,0:0:0:0:
256,192,27534,1,8,0:0:0:0:
256,192,27667,1,8,0:0:0:0:
256,192,27801,1,0,0:0:0:0:
256,192,27934,1,8,0:0:0:0:
256,192,28001,1,0,0:0:0:0:
256,192,28067,1,8,0:0:0:0:
256,192,28334,1,0,0:0:0:0:
256,192,28467,1,0,0:0:0:0:
256,192,28601,1,8,0:0:0:0:
256,192,28734,1,0,0:0:0:0:
256,192,28867,1,8,0:0:0:0:
256,192,29134,1,0,0:0:0:0:
256,192,29267,1,8,0:0:0:0:
256,192,29534,1,0,0:0:0:0:
256,192,29667,1,8,0:0:0:0:
256,192,29801,1,8,0:0:0:0:
256,192,29934,1,0,0:0:0:0:
256,192,30067,1,0,0:0:0:0:
256,192,30134,1,0,0:0:0:0:
256,192,30201,1,8,0:0:0:0:
256,192,30467,1,0,0:0:0:0:
256,192,30601,1,8,0:0:0:0:
256,192,30734,1,8,0:0:0:0:
256,192,30867,1,0,0:0:0:0:
256,192,31001,1,8,0:0:0:0:
256,192,31267,1,0,0:0:0:0:
256,192,31401,1,8,0:0:0:0:
256,192,31667,1,0,0:0:0:0:
256,192,31801,1,8,0:0:0:0:
256,192,31934,1,8,0:0:0:0:
256,192,32067,1,0,0:0:0:0:
256,192,32334,1,8,0:0:0:0:
256,192,32601,1,0,0:0:0:0:
256,192,32734,1,0,0:0:0:0:
256,192,32867,1,8,0:0:0:0:
256,192,33001,1,0,0:0:0:0:
256,192,33134,1,8,0:0:0:0:
256,192,33401,1,0,0:0:0:0:
256,192,33534,1,8,0:0:0:0:
256,192,33801,1,0,0:0:0:0:
256,192,33934,1,8,0:0:0:0:
256,192,34067,1,8,0:0:0:0:
256,192,34201,1,0,0:0:0:0:
256,192,34334,1,0,0:0:0:0:
256,192,34401,1,0,0:0:0:0:
256,192,34467,1,8,0:0:0:0:
256,192,34734,1,0,0:0:0:0:
256,192,34867,1,8,0:0:0:0:
256,192,35001,1,0,0:0:0:0:
256,192,35134,1,8,0:0:0:0:
256,192,35267,1,8,0:0:0:0:
256,192,35534,1,0,0:0:0:0:
256,192,35667,1,8,0:0:0:0:
256,192,35934,1,0,0:0:0:0:
256,192,36067,1,8,0:0:0:0:
256,192,36201,1,8,0:0:0:0:
256,192,36334,1,0,0:0:0:0:
256,192,36467,1,8,0:0:0:0:
256,192,36534,1,0,0:0:0:0:
256,192,36601,1,8,0:0:0:0:
256,192,36867,1,0,0:0:0:0:
256,192,37001,1,0,0:0:0:0:
256,192,37134,1,8,0:0:0:0:
256,192,37267,1,8,0:0:0:0:
256,192,37401,1,0,0:0:0:0:
256,192,37667,1,8,0:0:0:0:
256,192,37801,1,0,0:0:0:0:
256,192,38067,1,0,0:0:0:0:
256,192,38201,1,8,0:0:0:0:
256,192,38334,1,8,0:0:0:0:
256,192,38467,1,0,0:0:0:0:
256,192,38601,1,0,0:0:0:0:
256,192,38734,1,8,0:0:0:0:
256,192,39001,1,0,0:0:0:0:
256,192,39134,1,0,0:0:0:0:
256,192,39267,1,8,0:0:0:0:
256,192,39401,1,0,0:0:0:0:
256,192,39534,1,8,0:0:0:0:
256,192,39801,1,0,0:0:0:0:
256,192,39934,1,8,0:0:0:0:
256,192,40201,1,0,0:0:0:0:
256,192,40334,1,8,0:0:0:0:
256,192,40467,1,8,0:0:0:0:
256,192,40601,1,0,0:0:0:0:
256,192,40867,1,8,0:0:0:0:
256,192,41134,1,0,0:0:0:0:
256,192,41934,1,0,0:0:0:0:
256,192,42201,1,8,0:0:0:0:
256,192,43001,1,8,0:0:0:0:
256,192,43089,1,8,0:0:0:0:
256,192,43178,1,8,0:0:0:0:
256,192,43267,1,4,0:0:0:0:
256,192,43534,1,8,0:0:0:0:
256,192,43667,1,0,0:0:0:0:
256,192,43801,1,0,0:0:0:0:
256,192,43934,1,8,0:0:0:0:
256,192,44067,1,8,0:0:0:0:
256,192,44201,1,8,0:0:0:0:
256,192,44334,1,0,0:0:0:0:
256,192,44601,1,8,0:0:0:0:
256,192,44734,1,0,0:0:0:0:
256,192,45001,1,0,0:0:0:0:
256,192,45134,1,8,0:0:0:0:
256,192,45267,1,0,0:0:0:0:
256,192,45401,1,8,0:0:0:0:
256,192,45667,1,0,0:0:0:0:
256,192,45801,1,8,0:0:0:0:
256,192,46067,1,0,0:0:0:0:
256,192,46201,1,0,0:0:0:0:
256,192,46334,1,8,0:0:0:0:
256,192,46601,1,0,0:0:0:0:
256,192,46734,1,8,0:0:0:0:
256,192,46867,1,0,0:0:0:0:
256,192,47001,1,8,0:0:0:0:
256,192,47134,1,8,0:0:0:0:
256,192,47267,1,0,0:0:0:0:
256,192,47534,1,8,0:0:0:0:
256,192,47801,1,0,0:0:0:0:
256,192,48067,1,8,0:0:0:0:
256,192,48334,1,8,0:0:0:0:
256,192,48467,1,0,0:0:0:0:
256,192,48734,1,0,0:0:0:0:
256,192,48867,1,8,0:0:0:0:
256,192,49134,1,0,0:0:0:0:
256,192,49401,1,8,0:0:0:0:
256,192,49667,1,0,0:0:0:0:
256,192,49934,1,8,0:0:0:0:
256,192,50067,1,0,0:0:0:0:
256,192,50334,1,0,0:0:0:0:
256,192,50467,1,8,0:0:0:0:
256,192,50601,1,0,0:0:0:0:
256,192,50867,1,0,0:0:0:0:
256,192,51001,1,8,0:0:0:0:
256,192,51134,1,8,0:0:0:0:
256,192,51267,1,0,0:0:0:0:
256,192,51401,1,0,0:0:0:0:
256,192,51534,1,12,0:0:0:0:
256,192,51801,1,4,0:0:0:0:
256,192,52067,1,8,0:0:0:0:
256,192,52201,1,8,0:0:0:0:
256,192,52334,1,0,0:0:0:0:
256,192,52601,1,8,0:0:0:0:
256,192,52734,1,0,0:0:0:0:
256,192,53001,1,0,0:0:0:0:
256,192,53134,1,8,0:0:0:0:
256,192,53401,1,0,0:0:0:0:
256,192,53534,1,0,0:0:0:0:
256,192,53667,1,8,0:0:0:0:
256,192,53801,1,0,0:0:0:0:
256,192,53934,1,8,0:0:0:0:
256,192,54067,1,8,0:0:0:0:
256,192,54201,1,0,0:0:0:0:
256,192,54467,1,8,0:0:0:0:
256,192,54734,1,0,0:0:0:0:
256,192,54867,1,8,0:0:0:0:
256,192,55001,1,0,0:0:0:0:
256,192,55267,1,8,0:0:0:0:
256,192,55401,1,0,0:0:0:0:
256,192,55667,1,0,0:0:0:0:
256,192,55801,1,8,0:0:0:0:
256,192,56067,1,0,0:0:0:0:
256,192,56201,1,0,0:0:0:0:
256,192,56334,1,8,0:0:0:0:
256,192,56601,1,0,0:0:0:0:
256,192,56734,1,8,0:0:0:0:
256,192,56867,1,0,0:0:0:0:
256,192,57001,1,0,0:0:0:0:
256,192,57134,1,8,0:0:0:0:
256,192,57267,1,0,0:0:0:0:
256,192,57401,1,8,0:0:0:0:
256,192,57534,1,8,0:0:0:0:
256,192,57667,1,0,0:0:0:0:
256,192,57801,1,0,0:0:0:0:
256,192,57934,1,8,0:0:0:0:
256,192,58067,1,0,0:0:0:0:
256,192,58201,1,0,0:0:0:0:
256,192,58467,1,8,0:0:0:0:
256,192,58734,1,0,0:0:0:0:
256,192,59001,1,8,0:0:0:0:
256,192,59134,1,0,0:0:0:0:
256,192,59401,1,0,0:0:0:0:
256,192,59534,1,8,0:0:0:0:
256,192,59667,1,0,0:0:0:0:
256,192,59801,1,0,0:0:0:0:
256,192,59934,1,0,0:0:0:0:
256,192,60067,1,8,0:0:0:0:
256,192,60334,1,4,0:0:0:0:
256,192,60601,1,8,0:0:0:0:
256,192,60867,1,0,0:0:0:0:
256,192,61134,1,8,0:0:0:0:
256,192,61267,1,0,0:0:0:0:
256,192,61401,1,8,0:0:0:0:
256,192,61667,1,0,0:0:0:0:
256,192,61801,1,8,0:0:0:0:
256,192,62067,1,0,0:0:0:0:
256,192,62201,1,8,0:0:0:0:
256,192,62334,1,8,0:0:0:0:
256,192,62467,1,0,0:0:0:0:
256,192,62734,1,8,0:0:0:0:
256,192,62867,1,0,0:0:0:0:
256,192,63134,1,0,0:0:0:0:
256,192,63267,1,8,0:0:0:0:
256,192,63401,1,0,0:0:0:0:
256,192,63667,1,0,0:0:0:0:
256,192,63801,1,8,0:0:0:0:
256,192,63934,1,8,0:0:0:0:
256,192,64067,1,0,0:0:0:0:
256,192,64201,1,0,0:0:0:0:
256,192,64334,1,8,0:0:0:0:
256,192,64601,1,0,0:0:0:0:
256,192,64867,1,8,0:0:0:0:
256,192,65134,1,0,0:0:0:0:
256,192,65401,1,8,0:0:0:0:
256,192,65534,1,0,0:0:0:0:
256,192,65801,1,0,0:0:0:0:
256,192,65934,1,8,0:0:0:0:
256,192,66201,1,0,0:0:0:0:
256,192,66467,1,8,0:0:0:0:
256,192,66734,1,0,0:0:0:0:
256,192,67001,1,8,0:0:0:0:
256,192,67134,1,0,0:0:0:0:
256,192,67401,1,0,0:0:0:0:
256,192,67534,1,8,0:0:0:0:
256,192,67667,1,0,0:0:0:0:
256,192,67934,1,0,0:0:0:0:
256,192,68067,1,8,0:0:0:0:
256,192,68201,1,0,0:0:0:0:
256,192,68334,1,8,0:0:0:0:
256,192,68467,1,0,0:0:0:0:
256,192,68601,1,12,0:0:0:0:
256,192,68867,1,4,0:0:0:0:
256,192,69134,1,8,0:0:0:0:
256,192,69401,1,0,0:0:0:0:
256,192,69667,1,8,0:0:0:0:
256,192,69801,1,0,0:0:0:0:
256,192,70067,1,0,0:0:0:0:
256,192,70201,1,8,0:0:0:0:
256,192,70334,1,8,0:0:0:0:
256,192,70467,1,0,0:0:0:0:
256,192,70601,1,8,0:0:0:0:
256,192,70734,1,8,0:0:0:0:
256,192,70867,1,8,0:0:0:0:
256,192,71001,1,0,0:0:0:0:
256,192,71134,1,0,0:0:0:0:
256,192,71267,1,8,0:0:0:0:
256,192,71534,1,0,0:0:0:0:
256,192,71801,1,8,0:0:0:0:
256,192,71934,1,0,0:0:0:0:
256,192,72067,1,0,0:0:0:0:
256,192,72334,1,8,0:0:0:0:
256,192,72467,1,0,0:0:0:0:
256,192,72734,1,0,0:0:0:0:
256,192,72867,1,8,0:0:0:0:
256,192,73134,1,0,0:0:0:0:
256,192,73267,1,8,0:0:0:0:
256,192,73401,1,0,0:0:0:0:
256,192,73534,1,0,0:0:0:0:
256,192,73667,1,8,0:0:0:0:
256,192,73801,1,0,0:0:0:0:
256,192,73934,1,8,0:0:0:0:
256,192,74067,1,8,0:0:0:0:
256,192,74201,1,0,0:0:0:0:
256,192,74334,1,8,0:0:0:0:
256,192,74467,1,0,0:0:0:0:
256,192,74601,1,8,0:0:0:0:
256,192,74867,1,0,0:0:0:0:
256,192,75001,1,8,0:0:0:0:
256,192,75134,1,8,0:0:0:0:
256,192,75267,1,0,0:0:0:0:
256,192,75534,1,8,0:0:0:0:
256,192,75801,1,0,0:0:0:0:
256,192,76067,1,8,0:0:0:0:
256,192,76201,1,0,0:0:0:0:
256,192,76467,1,0,0:0:0:0:
256,192,76601,1,8,0:0:0:0:
256,192,76734,1,0,0:0:0:0:
256,192,76867,1,8,0:0:0:0:
256,192,77001,1,0,0:0:0:0:
256,192,77134,1,0,0:0:0:0:
256,192,77267,1,0,0:0:0:0:
256,192,77401,1,12,0:0:0:0:
256,192,78201,1,0,0:0:0:0:
256,192,78467,1,0,0:0:0:0:
256,192,79267,1,0,0:0:0:0:
256,192,79534,1,0,0:0:0:0:
256,192,80334,1,0,0:0:0:0:
256,192,80601,1,0,0:0:0:0:
256,192,81401,1,0,0:0:0:0:
256,192,81667,1,0,0:0:0:0:
256,192,82467,1,0,0:0:0:0:
256,192,82734,1,0,0:0:0:0:
256,192,83534,1,0,0:0:0:0:
256,192,83801,1,0,0:0:0:0:
256,192,84601,1,0,0:0:0:0:
256,192,84867,1,0,0:0:0:0:
256,192,85534,1,0,0:0:0:0:
256,192,85667,1,12,0:0:0:0:
256,192,85934,1,0,0:0:0:0:
256,192,86201,1,8,0:0:0:0:
256,192,86467,1,0,0:0:0:0:
256,192,86734,1,8,0:0:0:0:
256,192,87001,1,0,0:0:0:0:
256,192,87267,1,8,0:0:0:0:
256,192,87534,1,0,0:0:0:0:
256,192,87667,1,0,0:0:0:0:
256,192,87801,1,8,0:0:0:0:
256,192,88067,1,0,0:0:0:0:
256,192,88334,1,8,0:0:0:0:
256,192,88601,1,0,0:0:0:0:
256,192,88867,1,8,0:0:0:0:
256,192,89001,1,0,0:0:0:0:
256,192,89267,1,0,0:0:0:0:
256,192,89401,1,8,0:0:0:0:
256,192,89667,1,0,0:0:0:0:
256,192,89934,1,8,0:0:0:0:
256,192,90201,1,0,0:0:0:0:
256,192,90467,1,8,0:0:0:0:
256,192,90734,1,0,0:0:0:0:
256,192,91001,1,8,0:0:0:0:
256,192,91267,1,0,0:0:0:0:
256,192,91534,1,8,0:0:0:0:
256,192,91801,1,0,0:0:0:0:
256,192,92067,1,8,0:0:0:0:
256,192,92201,1,8,0:0:0:0:
256,192,92267,1,8,0:0:0:0:
256,192,92334,1,0,0:0:0:0:
256,192,92601,1,8,0:0:0:0:
256,192,92867,1,0,0:0:0:0:
256,192,93001,1,8,0:0:0:0:
256,192,93267,1,8,0:0:0:0:
256,192,93401,1,0,0:0:0:0:
256,192,93534,1,0,0:0:0:0:
256,192,93667,1,8,0:0:0:0:
256,192,93801,1,8,0:0:0:0:
256,192,93934,1,0,0:0:0:0:
256,192,94067,1,8,0:0:0:0:
256,192,94201,1,8,0:0:0:0:
256,192,94334,1,8,0:0:0:0:
256,192,94467,1,4,0:0:0:0:
256,192,94734,1,8,0:0:0:0:
256,192,95001,1,0,0:0:0:0:
256,192,95134,1,0,0:0:0:0:
256,192,95201,1,0,0:0:0:0:
256,192,95267,1,8,0:0:0:0:
256,192,95401,1,0,0:0:0:0:
256,192,95667,1,0,0:0:0:0:
256,192,95801,1,8,0:0:0:0:
256,192,96067,1,0,0:0:0:0:
256,192,96201,1,0,0:0:0:0:
256,192,96267,1,0,0:0:0:0:
256,192,96334,1,8,0:0:0:0:
256,192,96467,1,8,0:0:0:0:
256,192,96601,1,0,0:0:0:0:
256,192,96867,1,8,0:0:0:0:
256,192,97134,1,0,0:0:0:0:
256,192,97267,1,0,0:0:0:0:
256,192,97334,1,0,0:0:0:0:
256,192,97401,1,8,0:0:0:0:
256,192,97534,1,8,0:0:0:0:
256,192,97801,1,8,0:0:0:0:
256,192,97934,1,8,0:0:0:0:
256,192,98201,1,8,0:0:0:0:
256,192,98334,1,0,0:0:0:0:
256,192,98401,1,0,0:0:0:0:
256,192,98467,1,8,0:0:0:0:
256,192,98601,1,8,0:0:0:0:
256,192,98734,1,0,0:0:0:0:
256,192,99001,1,8,0:0:0:0:
256,192,99267,1,0,0:0:0:0:
256,192,99401,1,0,0:0:0:0:
256,192,99467,1,0,0:0:0:0:
256,192,99534,1,8,0:0:0:0:
256,192,99667,1,0,0:0:0:0:
256,192,99934,1,0,0:0:0:0:
256,192,100067,1,8,0:0:0:0:
256,192,100334,1,0,0:0:0:0:
256,192,100467,1,8,0:0:0:0:
256,192,100534,1,0,0:0:0:0:
256,192,100601,1,8,0:0:0:0:
256,192,100734,1,8,0:0:0:0:
256,192,100867,1,0,0:0:0:0:
256,192,101134,1,8,0:0:0:0:
256,192,101267,1,8,0:0:0:0:
256,192,101534,1,0,0:0:0:0:
256,192,101601,1,0,0:0:0:0:
256,192,101667,1,8,0:0:0:0:
256,192,101801,1,0,0:0:0:0:
256,192,102067,1,0,0:0:0:0:
256,192,102201,1,0,0:0:0:0:
256,192,102467,1,8,0:0:0:0:
256,192,102601,1,0,0:0:0:0:
256,192,102667,1,0,0:0:0:0:
256,192,102734,1,0,0:0:0:0:
256,192,102867,1,8,0:0:0:0:
256,192,103001,1,0,0:0:0:0:
256,192,103267,1,8,0:0:0:0:
256,192,103534,1,0,0:0:0:0:
256,192,103667,1,0,0:0:0:0:
256,192,103734,1,0,0:0:0:0:
256,192,103801,1,8,0:0:0:0:
256,192,103934,1,0,0:0:0:0:
256,192,104201,1,0,0:0:0:0:
256,192,104334,1,8,0:0:0:0:
256,192,104601,1,8,0:0:0:0:
256,192,104734,1,0,0:0:0:0:
256,192,104801,1,0,0:0:0:0:
256,192,104867,1,8,0:0:0:0:
256,192,105001,1,8,0:0:0:0:
256,192,105134,1,0,0:0:0:0:
256,192,105401,1,8,0:0:0:0:
256,192,105667,1,0,0:0:0:0:
256,192,105801,1,8,0:0:0:0:
256,192,105867,1,8,0:0:0:0:
256,192,105934,1,8,0:0:0:0:
256,192,106067,1,0,0:0:0:0:
256,192,106334,1,0,0:0:0:0:
256,192,106467,1,8,0:0:0:0:
256,192,106734,1,0,0:0:0:0:
256,192,106867,1,0,0:0:0:0:
256,192,106934,1,0,0:0:0:0:
256,192,107001,1,8,0:0:0:0:
256,192,107267,1,0,0:0:0:0:
256,192,107534,1,8,0:0:0:0:
256,192,107801,1,0,0:0:0:0:
256,192,107934,1,0,0:0:0:0:
256,192,108001,1,0,0:0:0:0:
256,192,108067,1,8,0:0:0:0:
256,192,108201,1,8,0:0:0:0:
256,192,108467,1,0,0:0:0:0:
256,192,108601,1,8,0:0:0:0:
256,192,108867,1,0,0:0:0:0:
256,192,109001,1,0,0:0:0:0:
256,192,109067,1,0,0:0:0:0:
256,192,109134,1,8,0:0:0:0:
256,192,109401,1,0,0:0:0:0:
256,192,109667,1,8,0:0:0:0:
256,192,109934,1,0,0:0:0:0:
256,192,110067,1,0,0:0:0:0:
256,192,110134,1,0,0:0:0:0:
256,192,110201,1,8,0:0:0:0:
256,192,110334,1,0,0:0:0:0:
256,192,110467,1,0,0:0:0:0:
256,192,110601,1,8,0:0:0:0:
256,192,110734,1,8,0:0:0:0:
256,192,111001,1,0,0:0:0:0:
256,192,111134,1,0,0:0:0:0:
256,192,111201,1,0,0:0:0:0:
256,192,111267,1,8,0:0:0:0:
256,192,111334,1,0,0:0:0:0:
256,192,111401,1,8,0:0:0:0:
256,192,111467,1,8,0:0:0:0:
256,192,111534,1,4,0:0:0:0:
256,192,111801,1,8,0:0:0:0:
256,192,112067,1,0,0:0:0:0:
256,192,112201,1,0,0:0:0:0:
256,192,112267,1,0,0:0:0:0:
256,192,112334,1,8,0:0:0:0:
256,192,112467,1,0,0:0:0:0:
256,192,112734,1,0,0:0:0:0:
256,192,112867,1,8,0:0:0:0:
256,192,113134,1,0,0:0:0:0:
256,192,113267,1,0,0:0:0:0:
256,192,113334,1,0,0:0:0:0:
256,192,113401,1,8,0:0:0:0:
256,192,113534,1,8,0:0:0:0:
256,192,113667,1,0,0:0:0:0:
256,192,113801,1,0,0:0:0:0:
256,192,113934,1,8,0:0:0:0:
256,192,114201,1,0,0:0:0:0:
256,192,114334,1,0,0:0:0:0:
256,192,114401,1,0,0:0:0:0:
256,192,114467,1,8,0:0:0:0:
256,192,114601,1,8,0:0:0:0:
256,192,114867,1,8,0:0:0:0:
256,192,115001,1,8,0:0:0:0:
256,192,115267,1,8,0:0:0:0:
256,192,115401,1,0,0:0:0:0:
256,192,115467,1,0,0:0:0:0:
256,192,115534,1,8,0:0:0:0:
256,192,115667,1,8,0:0:0:0:
256,192,115801,1,0,0:0:0:0:
256,192,115934,1,0,0:0:0:0:
256,192,116067,1,8,0:0:0:0:
256,192,116334,1,0,0:0:0:0:
256,192,116467,1,0,0:0:0:0:
256,192,116534,1,0,0:0:0:0:
256,192,116601,1,8,0:0:0:0:
256,192,116734,1,0,0:0:0:0:
256,192,117001,1,0,0:0:0:0:
256,192,117134,1,8,0:0:0:0:
256,192,117401,1,0,0:0:0:0:
256,192,117534,1,8,0:0:0:0:
256,192,117601,1,0,0:0:0:0:
256,192,117667,1,8,0:0:0:0:
256,192,117801,1,8,0:0:0:0:
256,192,117934,1,0,0:0:0:0:
256,192,118067,1,0,0:0:0:0:
256,192,118201,1,8,0:0:0:0:
256,192,118334,1,8,0:0:0:0:
256,192,118601,1,0,0:0:0:0:
256,192,118667,1,0,0:0:0:0:
256,192,118734,1,8,0:0:0:0:
256,192,118867,1,0,0:0:0:0:
256,192,119134,1,0,0:0:0:0:
256,192,119267,1,8,0:0:0:0:
256,192,119401,1,0,0:0:0:0:
256,192,119534,1,8,0:0:0:0:
256,192,119667,1,0,0:0:0:0:
256,192,119734,1,0,0:0:0:0:
256,192,119801,1,0,0:0:0:0:
256,192,119934,1,8,0:0:0:0:
256,192,120067,1,0,0:0:0:0:
256,192,120201,1,0,0:0:0:0:
256,192,120334,1,8,0:0:0:0:
256,192,120601,1,0,0:0:0:0:
256,192,120734,1,0,0:0:0:0:
256,192,120801,1,0,0:0:0:0:
256,192,120867,1,8,0:0:0:0:
256,192,121001,1,0,0:0:0:0:
256,192,121267,1,0,0:0:0:0:
256,192,121401,1,8,0:0:0:0:
256,192,121667,1,8,0:0:0:0:
256,192,121801,1,0,0:0:0:0:
256,192,121867,1,0,0:0:0:0:
256,192,121934,1,8,0:0:0:0:
256,192,122067,1,8,0:0:0:0:
256,192,122201,1,0,0:0:0:0:
256,192,122334,1,0,0:0:0:0:
256,192,122467,1,8,0:0:0:0:
256,192,122734,1,0,0:0:0:0:
256,192,122867,1,8,0:0:0:0:
256,192,122934,1,8,0:0:0:0:
256,192,123001,1,8,0:0:0:0:
256,192,123134,1,0,0:0:0:0:
256,192,123401,1,0,0:0:0:0:
256,192,123534,1,8,0:0:0:0:
256,192,123801,1,0,0:0:0:0:
256,192,123934,1,0,0:0:0:0:
256,192,124001,1,0,0:0:0:0:
256,192,124067,1,8,0:0:0:0:
256,192,124334,1,0,0:0:0:0:
256,192,124467,1,0,0:0:0:0:
256,192,124601,1,8,0:0:0:0:
256,192,124867,1,0,0:0:0:0:
256,192,125001,1,0,0:0:0:0:
256,192,125067,1,0,0:0:0:0:
256,192,125134,1,8,0:0:0:0:
256,192,125401,1,0,0:0:0:0:
256,192,125534,1,0,0:0:0:0:
256,192,125667,1,8,0:0:0:0:
256,192,125934,1,0,0:0:0:0:
256,192,126067,1,0,0:0:0:0:
256,192,126134,1,0,0:0:0:0:
256,192,126201,1,8,0:0:0:0:
256,192,126334,1,0,0:0:0:0:
256,192,126601,1,0,0:0:0:0:
256,192,126734,1,8,0:0:0:0:
256,192,127001,1,0,0:0:0:0:
256,192,127134,1,0,0:0:0:0:
256,192,127201,1,0,0:0:0:0:
256,192,127267,1,8,0:0:0:0:
256,192,127401,1,0,0:0:0:0:
256,192,127534,1,0,0:0:0:0:
256,192,127667,1,8,0:0:0:0:
256,192,127801,1,8,0:0:0:0:
256,192,128067,1,8,0:0:0:0:
256,192,128201,1,0,0:0:0:0:
256,192,128267,1,0,0:0:0:0:
256,192,128334,1,8,0:0:0:0:
256,192,128401,1,0,0:0:0:0:
256,192,128467,1,8,0:0:0:0:
256,192,128534,1,8,0:0:0:0:
256,192,128601,1,4,0:0:0:0:
256,192,128867,1,8,0:0:0:0:
256,192,129001,1,8,0:0:0:0:
256,192,129134,1,0,0:0:0:0:
256,192,129267,1,0,0:0:0:0:
256,192,129401,1,8,0:0:0:0:
256,192,129534,1,0,0:0:0:0:
256,192,129667,1,8,0:0:0:0:
256,192,129801,1,8,0:0:0:0:
256,192,129934,1,0,0:0:0:0:
256,192,130067,1,8,0:0:0:0:
256,192,130467,1,0,0:0:0:0:
256,192,130601,1,0,0:0:0:0:
256,192,130734,1,8,0:0:0:0:
256,192,130867,1,8,0:0:0:0:
256,192,131134,1,0,0:0:0:0:
256,192,131267,1,8,0:0:0:0:
256,192,131401,1,0,0:0:0:0:
256,192,131534,1,8,0:0:0:0:
256,192,131667,1,8,0:0:0:0:
256,192,131801,1,0,0:0:0:0:
256,192,132067,1,8,0:0:0:0:
256,192,132201,1,0,0:0:0:0:
256,192,132467,1,0,0:0:0:0:
256,192,132601,1,8,0:0:0:0:
256,192,132867,1,0,0:0:0:0:
256,192,133001,1,8,0:0:0:0:
256,192,133134,1,0,0:0:0:0:
256,192,133267,1,0,0:0:0:0:
256,192,133401,1,8,0:0:0:0:
256,192,133534,1,8,0:0:0:0:
256,192,133667,1,0,0:0:0:0:
256,192,133934,1,0,0:0:0:0:
256,192,134067,1,0,0:0:0:0:
256,192,134201,1,8,0:0:0:0:
256,192,134467,1,0,0:0:0:0:
256,192,134734,1,8,0:0:0:0:
256,192,135001,1,0,0:0:0:0:
256,192,135267,1,8,0:0:0:0:
256,192,135401,1,0,0:0:0:0:
256,192,135667,1,0,0:0:0:0:
256,192,135801,1,8,0:0:0:0:
256,192,135934,1,0,0:0:0:0:
256,192,136201,1,0,0:0:0:0:
256,192,136334,1,8,0:0:0:0:
256,192,136467,1,8,0:0:0:0:
256,192,136601,1,0,0:0:0:0:
256,192,136734,1,0,0:0:0:0:
256,192,136867,1,12,0:0:0:0:
256,192,137134,1,4,0:0:0:0:
256,192,137401,1,8,0:0:0:0:
256,192,137534,1,0,0:0:0:0:
256,192,137667,1,0,0:0:0:0:
256,192,137934,1,8,0:0:0:0:
256,192,138067,1,0,0:0:0:0:
256,192,138201,1,8,0:0:0:0:
256,192,138467,1,8,0:0:0:0:
256,192,138601,1,0,0:0:0:0:
256,192,138867,1,0,0:0:0:0:
256,192,139001,1,8,0:0:0:0:
256,192,139134,1,0,0:0:0:0:
256,192,139401,1,0,0:0:0:0:
256,192,139534,1,8,0:0:0:0:
256,192,139667,1,0,0:0:0:0:
256,192,139801,1,8,0:0:0:0:
256,192,139934,1,8,0:0:0:0:
256,192,140067,1,0,0:0:0:0:
256,192,140201,1,0,0:0:0:0:
256,192,140334,1,8,0:0:0:0:
256,192,140467,1,0,0:0:0:0:
256,192,140734,1,8,0:0:0:0:
256,192,141001,1,8,0:0:0:0:
256,192,141134,1,0,0:0:0:0:
256,192,141267,1,0,0:0:0:0:
256,192,141401,1,8,0:0:0:0:
256,192,141667,1,0,0:0:0:0:
256,192,141801,1,8,0:0:0:0:
256,192,141934,1,0,0:0:0:0:
256,192,142067,1,0,0:0:0:0:
256,192,142201,1,8,0:0:0:0:
256,192,142334,1,8,0:0:0:0:
256,192,142601,1,0,0:0:0:0:
256,192,142734,1,8,0:0:0:0:
256,192,142867,1,0,0:0:0:0:
256,192,143001,1,8,0:0:0:0:
256,192,143134,1,8,0:0:0:0:
256,192,143267,1,0,0:0:0:0:
256,192,143401,1,0,0:0:0:0:
256,192,143534,1,8,0:0:0:0:
256,192,143801,1,8,0:0:0:0:
256,192,143934,1,0,0:0:0:0:
256,192,144201,1,0,0:0:0:0:
256,192,144334,1,8,0:0:0:0:
256,192,144601,1,0,0:0:0:0:
256,192,144867,1,8,0:0:0:0:
256,192,145134,1,0,0:0:0:0:
256,192,145267,1,0,0:0:0:0:
256,192,145401,1,0,0:0:0:0:
256,192,145534,1,0,0:0:0:0:
256,192,145667,1,12,0:0:0:0:
256,192,163801,12,0,164734,0:0:0:0:
256,192,164867,5,4,0:0:0:0:
256,192,165134,1,8,0:0:0:0:
256,192,165401,1,0,0:0:0:0:
256,192,165534,1,0,0:0:0:0:
256,192,165601,1,0,0:0:0:0:
256,192,165667,1,8,0:0:0:0:
256,192,165801,1,0,0:0:0:0:
256,192,166067,1,0,0:0:0:0:
256,192,166201,1,8,0:0:0:0:
256,192,166467,1,8,0:0:0:0:
256,192,166601,1,0,0:0:0:0:
256,192,166667,1,0,0:0:0:0:
256,192,166734,1,8,0:0:0:0:
256,192,166867,1,8,0:0:0:0:
256,192,167001,1,0,0:0:0:0:
256,192,167267,1,8,0:0:0:0:
256,192,167534,1,0,0:0:0:0:
256,192,167667,1,0,0:0:0:0:
256,192,167734,1,0,0:0:0:0:
256,192,167801,1,8,0:0:0:0:
256,192,167934,1,8,0:0:0:0:
256,192,168201,1,8,0:0:0:0:
256,192,168334,1,8,0:0:0:0:
256,192,168601,1,8,0:0:0:0:
256,192,168734,1,8,0:0:0:0:
256,192,168801,1,0,0:0:0:0:
256,192,168867,1,8,0:0:0:0:
256,192,169001,1,8,0:0:0:0:
256,192,169134,1,0,0:0:0:0:
256,192,169401,1,8,0:0:0:0:
256,192,169534,1,0,0:0:0:0:
256,192,169667,1,8,0:0:0:0:
256,192,169801,1,0,0:0:0:0:
256,192,169867,1,0,0:0:0:0:
256,192,169934,1,8,0:0:0:0:
256,192,170067,1,0,0:0:0:0:
256,192,170334,1,0,0:0:0:0:
256,192,170467,1,8,0:0:0:0:
256,192,170734,1,0,0:0:0:0:
256,192,170867,1,8,0:0:0:0:
256,192,170934,1,0,0:0:0:0:
256,192,171001,1,8,0:0:0:0:
256,192,171134,1,8,0:0:0:0:
256,192,171267,1,0,0:0:0:0:
256,192,171534,1,0,0:0:0:0:
256,192,171667,1,8,0:0:0:0:
256,192,171934,1,0,0:0:0:0:
256,192,172001,1,0,0:0:0:0:
256,192,172067,1,8,0:0:0:0:
256,192,172201,1,0,0:0:0:0:
256,192,172467,1,0,0:0:0:0:
256,192,172601,1,0,0:0:0:0:
256,192,172867,1,8,0:0:0:0:
256,192,173001,1,0,0:0:0:0:
256,192,173067,1,0,0:0:0:0:
256,192,173134,1,0,0:0:0:0:
256,192,173267,1,8,0:0:0:0:
256,192,173401,1,0,0:0:0:0:
256,192,173667,1,8,0:0:0:0:
256,192,173934,1,0,0:0:0:0:
256,192,174067,1,0,0:0:0:0:
256,192,174134,1,0,0:0:0:0:
256,192,174201,1,8,0:0:0:0:
256,192,174334,1,0,0:0:0:0:
256,192,174601,1,0,0:0:0:0:
256,192,174734,1,8,0:0:0:0:
256,192,175001,1,8,0:0:0:0:
256,192,175134,1,0,0:0:0:0:
256,192,175201,1,0,0:0:0:0:
256,192,175267,1,8,0:0:0:0:
256,192,175401,1,8,0:0:0:0:
256,192,175534,1,0,0:0:0:0:
256,192,175801,1,8,0:0:0:0:
256,192,176067,1,0,0:0:0:0:
256,192,176201,1,8,0:0:0:0:
256,192,176267,1,8,0:0:0:0:
256,192,176334,1,8,0:0:0:0:
256,192,176467,1,0,0:0:0:0:
256,192,176734,1,0,0:0:0:0:
256,192,176867,1,8,0:0:0:0:
256,192,177134,1,0,0:0:0:0:
256,192,177267,1,0,0:0:0:0:
256,192,177334,1,0,0:0:0:0:
256,192,177401,1,8,0:0:0:0:
256,192,177667,1,0,0:0:0:0:
256,192,177934,1,8,0:0:0:0:
256,192,178201,1,0,0:0:0:0:
256,192,178334,1,0,0:0:0:0:
256,192,178401,1,0,0:0:0:0:
256,192,178467,1,8,0:0:0:0:
256,192,178601,1,8,0:0:0:0:
256,192,178734,1,0,0:0:0:0:
256,192,178867,1,0,0:0:0:0:
256,192,179001,1,8,0:0:0:0:
256,192,179267,1,0,0:0:0:0:
256,192,179401,1,0,0:0:0:0:
256,192,179467,1,0,0:0:0:0:
256,192,179534,1,8,0:0:0:0:
256,192,179667,1,0,0:0:0:0:
256,192,179934,1,0,0:0:0:0:
256,192,180067,1,8,0:0:0:0:
256,192,180334,1,0,0:0:0:0:
256,192,180467,1,0,0:0:0:0:
256,192,180534,1,0,0:0:0:0:
256,192,180601,1,8,0:0:0:0:
256,192,180734,1,0,0:0:0:0:
256,192,180867,1,0,0:0:0:0:
256,192,181001,1,8,0:0:0:0:
256,192,181134,1,8,0:0:0:0:
256,192,181401,1,0,0:0:0:0:
256,192,181534,1,0,0:0:0:0:
256,192,181601,1,0,0:0:0:0:
256,192,181667,1,8,0:0:0:0:
256,192,181734,1,0,0:0:0:0:
256,192,181801,1,8,0:0:0:0:
256,192,181867,1,8,0:0:0:0:
256,192,181934,1,4,0:0:0:0:
256,192,182201,1,8,0:0:0:0:
256,192,182467,1,0,0:0:0:0:
256,192,182601,1,0,0:0:0:0:
256,192,182667,1,0,0:0:0:0:
256,192,182734,1,8,0:0:0:0:
256,192,182867,1,0,0:0:0:0:
256,192,183134,1,0,0:0:0:0:
256,192,183267,1,8,0:0:0:0:
256,192,183534,1,0,0:0:0:0:
256,192,183667,1,0,0:0:0:0:
256,192,183734,1,0,0:0:0:0:
256,192,183801,1,8,0:0:0:0:
256,192,183934,1,8,0:0:0:0:
256,192,184067,1,0,0:0:0:0:
256,192,184134,1,0,0:0:0:0:
256,192,184201,1,0,0:0:0:0:
256,192,184334,1,8,0:0:0:0:
256,192,184601,1,0,0:0:0:0:
256,192,184734,1,0,0:0:0:0:
256,192,184801,1,0,0:0:0:0:
256,192,184867,1,8,0:0:0:0:
256,192,185001,1,8,0:0:0:0:
256,192,185267,1,8,0:0:0:0:
256,192,185401,1,8,0:0:0:0:
256,192,185667,1,8,0:0:0:0:
256,192,185801,1,0,0:0:0:0:
256,192,185867,1,0,0:0:0:0:
256,192,185934,1,8,0:0:0:0:
256,192,186067,1,8,0:0:0:0:
256,192,186201,1,0,0:0:0:0:
256,192,186267,1,0,0:0:0:0:
256,192,186334,1,0,0:0:0:0:
256,192,186467,1,8,0:0:0:0:
256,192,186734,1,0,0:0:0:0:
256,192,186867,1,0,0:0:0:0:
256,192,186934,1,0,0:0:0:0:
256,192,187001,1,8,0:0:0:0:
256,192,187134,1,0,0:0:0:0:
256,192,187267,1,0,0:0:0:0:
256,192,187334,1,0,0:0:0:0:
256,192,187401,1,0,0:0:0:0:
256,192,187534,1,8,0:0:0:0:
256,192,187801,1,0,0:0:0:0:
256,192,187934,1,8,0:0:0:0:
256,192,188001,1,0,0:0:0:0:
256,192,188067,1,8,0:0:0:0:
256,192,188201,1,8,0:0:0:0:
256,192,188334,1,0,0:0:0:0:
256,192,188401,1,0,0:0:0:0:
256,192,188467,1,0,0:0:0:0:
256,192,188601,1,8,0:0:0:0:
256,192,188734,1,8,0:0:0:0:
256,192,189001,1,0,0:0:0:0:
256,192,189067,1,0,0:0:0:0:
256,192,189134,1,8,0:0:0:0:
256,192,189267,1,0,0:0:0:0:
256,192,189534,1,0,0:0:0:0:
256,192,189667,1,8,0:0:0:0:
256,192,189801,1,0,0:0:0:0:
256,192,189934,1,8,0:0:0:0:
256,192,190067,1,0,0:0:0:0:
256,192,190134,1,0,0:0:0:0:
256,192,190201,1,0,0:0:0:0:
256,192,190334,1,8,0:0:0:0:
256,192,190467,1,0,0:0:0:0:
256,192,190601,1,0,0:0:0:0:
256,192,190734,1,8,0:0:0:0:
256,192,191001,1,0,0:0:0:0:
256,192,191134,1,0,0:0:0:0:
256,192,191201,1,0,0:0:0:0:
256,192,191267,1,8,0:0:0:0:
256,192,191401,1,0,0:0:0:0:
256,192,191667,1,0,0:0:0:0:
256,192,191801,1,8,0:0:0:0:
256,192,192067,1,8,0:0:0:0:
256,192,192201,1,0,0:0:0:0:
256,192,192267,1,0,0:0:0:0:
256,192,192334,1,8,0:0:0:0:
256,192,192467,1,8,0:0:0:0:
256,192,192601,1,0,0:0:0:0:
256,192,192667,1,0,0:0:0:0:
256,192,192734,1,0,0:0:0:0:
256,192,192867,1,8,0:0:0:0:
256,192,193134,1,0,0:0:0:0:
256,192,193267,1,8,0:0:0:0:
256,192,193334,1,8,0:0:0:0:
256,192,193401,1,8,0:0:0:0:
256,192,193534,1,0,0:0:0:0:
256,192,193801,1,0,0:0:0:0:
256,192,193934,1,8,0:0:0:0:
256,192,194201,1,0,0:0:0:0:
256,192,194334,1,0,0:0:0:0:
256,192,194401,1,0,0:0:0:0:
256,192,194467,1,8,0:0:0:0:
256,192,194734,1,0,0:0:0:0:
256,192,194801,1,0,0:0:0:0:
256,192,194867,1,0,0:0:0:0:
256,192,195001,1,8,0:0:0:0:
256,192,195267,1,0,0:0:0:0:
256,192,195401,1,0,0:0:0:0:
256,192,195467,1,0,0:0:0:0:
256,192,195534,1,8,0:0:0:0:
256,192,195801,1,0,0:0:0:0:
256,192,195867,1,0,0:0:0:0:
256,192,195934,1,0,0:0:0:0:
256,192,196067,1,8,0:0:0:0:
256,192,196334,1,0,0:0:0:0:
256,192,196467,1,0,0:0:0:0:
256,192,196534,1,0,0:0:0:0:
256,192,196601,1,8,0:0:0:0:
256,192,196734,1,0,0:0:0:0:
256,192,197001,1,0,0:0:0:0:
256,192,197134,1,8,0:0:0:0:
256,192,197401,1,0,0:0:0:0:
256,192,197534,1,0,0:0:0:0:
256,192,197601,1,0,0:0:0:0:
256,192,197667,1,8,0:0:0:0:
256,192,197801,1,0,0:0:0:0:
256,192,197934,1,0,0:0:0:0:
256,192,198067,1,8,0:0:0:0:
256,192,198201,1,8,0:0:0:0:
256,192,198467,1,8,0:0:0:0:
256,192,198601,1,0,0:0:0:0:
256,192,198667,1,0,0:0:0:0:
256,192,198734,1,8,0:0:0:0:
256,192,198801,1,0,0:0:0:0:
256,192,198867,1,8,0:0:0:0:
256,192,198934,1,8,0:0:0:0:
256,192,199001,1,4,0:0:0:0:
256,192,199267,1,8,0:0:0:0:
256,192,199534,1,0,0:0:0:0:
256,192,199801,1,8,0:0:0:0:
256,192,199934,1,0,0:0:0:0:
256,192,200201,1,0,0:0:0:0:
256,192,200334,1,8,0:0:0:0:
256,192,200601,1,0,0:0:0:0:
256,192,200867,1,8,0:0:0:0:
256,192,201134,1,0,0:0:0:0:
256,192,201401,1,8,0:0:0:0:
256,192,201667,1,0,0:0:0:0:
256,192,201934,1,8,0:0:0:0:
256,192,202067,1,0,0:0:0:0:
256,192,202334,1,0,0:0:0:0:
256,192,202467,1,8,0:0:0:0:
256,192,202734,1,0,0:0:0:0:
256,192,203001,1,8,0:0:0:0:
256,192,203267,1,0,0:0:0:0:
256,192,203534,1,8,0:0:0:0:
256,192,203801,1,0,0:0:0:0:
256,192,204067,1,8,0:0:0:0:
256,192,204201,1,0,0:0:0:0:
256,192,204467,1,0,0:0:0:0:
256,192,204601,1,8,0:0:0:0:
256,192,204734,1,0,0:0:0:0:
256,192,204867,1,0,0:0:0:0:
256,192,205001,1,0,0:0:0:0:
256,192,205134,1,8,0:0:0:0:
256,192,205401,1,0,0:0:0:0:
256,192,205667,1,8,0:0:0:0:
256,192,205934,1,0,0:0:0:0:
256,192,206201,1,8,0:0:0:0:
256,192,206334,1,0,0:0:0:0:
256,192,206601,1,0,0:0:0:0:
256,192,206734,1,8,0:0:0:0:
256,192,207001,1,0,0:0:0:0:
256,192,207267,1,12,0:0:0:0:
256,192,207534,1,4,0:0:0:0:
256,192,207801,1,8,0:0:0:0:
256,192,208067,1,0,0:0:0:0:
256,192,208334,1,8,0:0:0:0:
256,192,208467,1,0,0:0:0:0:
256,192,208734,1,0,0:0:0:0:
256,192,208867,1,8,0:0:0:0:
256,192,209134,1,0,0:0:0:0:
256,192,209401,1,8,0:0:0:0:
256,192,209667,1,0,0:0:0:0:
256,192,209934,1,8,0:0:0:0:
256,192,210201,1,0,0:0:0:0:
256,192,210467,1,8,0:0:0:0:
256,192,210601,1,0,0:0:0:0:
256,192,210867,1,0,0:0:0:0:
256,192,211001,1,8,0:0:0:0:
256,192,211267,1,0,0:0:0:0:
256,192,211534,1,8,0:0:0:0:
256,192,211801,1,0,0:0:0:0:
256,192,212067,1,8,0:0:0:0:
256,192,212334,1,0,0:0:0:0:
256,192,212601,1,8,0:0:0:0:
256,192,212734,1,0,0:0:0:0:
256,192,213001,1,0,0:0:0:0:
256,192,213134,1,8,0:0:0:0:
256,192,213267,1,0,0:0:0:0:
256,192,213534,1,0,0:0:0:0:
256,192,213667,1,8,0:0:0:0:
256,192,213934,1,0,0:0:0:0:
256,192,214201,1,8,0:0:0:0:
256,192,214467,1,0,0:0:0:0:
256,192,214734,1,8,0:0:0:0:
256,192,214867,1,0,0:0:0:0:
256,192,215134,1,0,0:0:0:0:
256,192,215267,1,8,0:0:0:0:
256,192,215534,1,0,0:0:0:0:
256,192,215801,1,12,0:0:0:0:
256,192,216067,1,4,0:0:0:0:
256,192,217134,1,8,0:0:0:0:
256,192,218201,1,0,0:0:0:0:
256,192,219267,1,8,0:0:0:0:
256,192,220428,1,0,0:0:0:0:
256,192,221617,1,8,0:0:0:0:
256,192,223073,12,0,225135,0:0:0:0:
