osu file format v14

[General]
AudioFilename: audio.mp3
AudioLeadIn: 0
PreviewTime: 94467
Countdown: 0
SampleSet: Normal
StackLeniency: 1
Mode: 1
LetterboxInBreaks: 0
WidescreenStoryboard: 1

[Editor]
DistanceSpacing: 0.5
BeatDivisor: 4
GridSize: 32
TimelineZoom: 1.6

[Metadata]
Title:Toumeika
TitleUnicode:透明夏
Artist:MIMI
ArtistUnicode:MIMI
Creator:Axer
Version:Muzukashii
Source:osu!
Tags:Hivie featured artist fa mappers' guild mpg mg vocaloid japanese pop hatsune miku 初音ミク
BeatmapID:2459705
BeatmapSetID:1178559

[Difficulty]
HPDrainRate:7
CircleSize:2
OverallDifficulty:4
ApproachRate:10
SliderMultiplier:1.4
SliderTickRate:1

[Events]
//Background and Video events
0,0,"theykindavibindoe.jpg",0,-10
//Break Periods
2,145867,163351
//Storyboard Layer 0 (Background)
//Storyboard Layer 1 (Fail)
//Storyboard Layer 2 (Pass)
//Storyboard Layer 3 (Foreground)
//Storyboard Layer 4 (Overlay)
//Storyboard Sound Samples

[TimingPoints]
693,571.428571428571,4,1,0,25,1,0
693,-153.846153846154,4,1,0,25,0,0
13550,-153.846153846154,4,1,0,25,0,0
13835,576.923076923077,4,1,0,25,1,8
13835,-152.160681679854,4,1,0,25,0,0
14123,591.133004926108,4,1,0,25,1,8
14123,-147.950880307738,4,1,0,25,0,0
14418,641.711229946524,4,1,0,25,1,0
14418,-134.734572891404,4,1,0,25,0,0
14738,677.966101694915,4,1,0,25,1,8
14738,-126.614332742466,4,1,0,25,0,0
15076,701.754385964912,4,1,0,25,1,8
15076,-121.787845573012,4,1,0,25,0,0
15426,750,4,1,0,25,1,8
15426,-113.071008593397,4,1,0,25,0,0
15801,600,4,1,0,25,1,8
15801,-145.454545454545,4,1,0,25,0,0
23001,266.666666666667,4,1,0,50,1,0
23001,-181.818181818182,4,1,0,50,0,0
23534,-166.666666666667,4,1,0,50,0,0
24067,-153.846153846154,4,1,0,75,0,0
78201,-181.818181818182,4,1,0,50,0,0
85534,-153.846153846154,4,1,0,75,0,0
93267,-153.846153846154,4,1,0,75,0,0
93534,-148.170099273967,4,1,0,75,0,0
93667,-145.496871817256,4,1,0,75,0,0
93934,-140.4099971918,4,1,0,75,0,0
94201,-135.685210312076,4,1,0,75,0,0
94334,-133.422281521014,4,1,0,75,0,0
94467,-125,4,1,0,90,0,1
128601,-125,4,1,0,90,0,0
128867,-129.416332341141,4,1,0,75,0,0
129001,-131.734949282045,4,1,0,75,0,0
129134,-134.138162307176,4,1,0,75,0,0
129401,-139.236981342245,4,1,0,75,0,0
129534,-141.94464158978,4,1,0,75,0,0
129667,-144.738746562455,4,1,0,75,0,0
129934,-150.693188667872,4,1,0,75,0,0
130067,-153.846153846154,4,1,0,75,0,0
145801,-250,4,1,0,25,0,0
163667,-153.846153846154,4,1,0,75,0,0
164867,-125,4,1,0,90,0,1
199001,-125,4,1,0,90,0,0
199534,-131.147540983607,4,1,0,75,0,0
199801,-134.462821029985,4,1,0,75,0,0
199934,-136.165577342048,4,1,0,75,0,0
200201,-139.742873113471,4,1,0,75,0,0
200334,-141.582896786068,4,1,0,75,0,0
200601,-145.454545454545,4,1,0,75,0,0
200867,-149.521531100478,4,1,0,75,0,0
201134,-153.846153846154,4,1,0,75,0,0
216334,-250,4,1,0,25,0,0
217134,266.666666666667,4,1,0,50,1,8
217134,-250,4,1,0,25,0,0
218201,266.666666666667,4,1,0,50,1,0
218201,-250,4,1,0,25,0,0
219267,279.069767441861,4,1,0,25,1,8
219267,-236.23907394283,4,1,0,25,0,0
219546,294.117647058824,4,1,0,25,1,8
220428,294.117647058824,4,1,0,25,1,0
220428,-221.483942414175,4,1,0,25,0,8
221310,307.692307692308,4,1,0,25,1,8
221617,331.491712707182,4,1,0,25,1,8
221617,-191.754554170662,4,1,0,25,0,8
221948,375,4,1,0,25,1,8
223073,375,4,1,0,25,1,8
223073,-165.809981760902,4,1,0,25,0,8

[HitObjects]
256,192,1835,5,2,0:0:0:0:
256,192,2407,1,0,0:0:0:0:
256,192,2692,1,2,0:0:0:0:
256,192,2978,1,2,0:0:0:0:
256,192,3550,1,0,0:0:0:0:
256,192,3835,1,2,0:0:0:0:
256,192,4121,1,2,0:0:0:0:
256,192,4692,1,2,0:0:0:0:
256,192,4978,1,2,0:0:0:0:
256,192,5264,1,2,0:0:0:0:
256,192,5550,1,0,0:0:0:0:
256,192,5835,1,0,0:0:0:0:
256,192,6407,1,2,0:0:0:0:
256,192,6978,1,0,0:0:0:0:
256,192,7264,1,2,0:0:0:0:
256,192,7550,1,2,0:0:0:0:
256,192,8121,1,0,0:0:0:0:
256,192,8407,1,2,0:0:0:0:
256,192,8692,1,2,0:0:0:0:
256,192,9264,1,2,0:0:0:0:
256,192,9550,1,2,0:0:0:0:
256,192,9835,1,2,0:0:0:0:
256,192,10121,1,0,0:0:0:0:
256,192,10407,1,0,0:0:0:0:
256,192,10978,1,2,0:0:0:0:
256,192,11550,1,0,0:0:0:0:
256,192,11835,1,2,0:0:0:0:
256,192,12121,1,2,0:0:0:0:
256,192,12692,1,0,0:0:0:0:
256,192,12978,1,2,0:0:0:0:
256,192,13264,1,2,0:0:0:0:
256,192,13835,1,2,0:0:0:0:
256,192,14123,1,2,0:0:0:0:
256,192,14418,1,2,0:0:0:0:
256,192,14738,1,0,0:0:0:0:
256,192,15076,1,0,0:0:0:0:
256,192,15801,12,0,20751,0:0:0:0:
256,192,23001,5,0,0:0:0:0:
256,192,23267,1,0,0:0:0:0:
256,192,23534,1,8,0:0:0:0:
256,192,24067,1,12,0:0:0:0:
256,192,24334,1,0,0:0:0:0:
256,192,24467,1,0,0:0:0:0:
256,192,24601,1,8,0:0:0:0:
256,192,24867,1,0,0:0:0:0:
256,192,25001,1,8,0:0:0:0:
256,192,25267,1,8,0:0:0:0:
256,192,25401,1,0,0:0:0:0:
256,192,25667,1,8,0:0:0:0:
256,192,26201,1,0,0:0:0:0:
256,192,26467,1,8,0:0:0:0:
256,192,26601,1,0,0:0:0:0:
256,192,26734,1,8,0:0:0:0:
256,192,27001,1,0,0:0:0:0:
256,192,27134,1,8,0:0:0:0:
256,192,27401,1,0,0:0:0:0:
256,192,27534,1,8,0:0:0:0:
256,192,27801,1,0,0:0:0:0:
256,192,28334,1,0,0:0:0:0:
256,192,28601,1,8,0:0:0:0:
256,192,28734,1,8,0:0:0:0:
256,192,28867,1,0,0:0:0:0:
256,192,29134,1,8,0:0:0:0:
256,192,29267,1,0,0:0:0:0:
256,192,29534,1,0,0:0:0:0:
256,192,29667,1,8,0:0:0:0:
256,192,29934,1,0,0:0:0:0:
256,192,30467,1,0,0:0:0:0:
256,192,30734,1,8,0:0:0:0:
256,192,30867,1,0,0:0:0:0:
256,192,31001,1,8,0:0:0:0:
256,192,31267,1,0,0:0:0:0:
256,192,31401,1,8,0:0:0:0:
256,192,31667,1,0,0:0:0:0:
256,192,31801,1,8,0:0:0:0:
256,192,32067,1,0,0:0:0:0:
256,192,32601,1,0,0:0:0:0:
256,192,32867,1,8,0:0:0:0:
256,192,33001,1,0,0:0:0:0:
256,192,33134,1,8,0:0:0:0:
256,192,33401,1,0,0:0:0:0:
256,192,33534,1,8,0:0:0:0:
256,192,33801,1,8,0:0:0:0:
256,192,33934,1,0,0:0:0:0:
256,192,34201,1,8,0:0:0:0:
256,192,34734,1,0,0:0:0:0:
256,192,34867,1,8,0:0:0:0:
256,192,35134,1,8,0:0:0:0:
256,192,35267,1,0,0:0:0:0:
256,192,35534,1,0,0:0:0:0:
256,192,35667,1,8,0:0:0:0:
256,192,35934,1,0,0:0:0:0:
256,192,36067,1,8,0:0:0:0:
256,192,36334,1,0,0:0:0:0:
256,192,36867,1,0,0:0:0:0:
256,192,37134,1,8,0:0:0:0:
256,192,37267,1,8,0:0:0:0:
256,192,37401,1,0,0:0:0:0:
256,192,37667,1,8,0:0:0:0:
256,192,37801,1,0,0:0:0:0:
256,192,38067,1,0,0:0:0:0:
256,192,38201,1,8,0:0:0:0:
256,192,38467,1,0,0:0:0:0:
256,192,39001,1,0,0:0:0:0:
256,192,39267,1,8,0:0:0:0:
256,192,39401,1,0,0:0:0:0:
256,192,39534,1,8,0:0:0:0:
256,192,39801,1,0,0:0:0:0:
256,192,39934,1,8,0:0:0:0:
256,192,40201,1,0,0:0:0:0:
256,192,40334,1,8,0:0:0:0:
256,192,40601,1,0,0:0:0:0:
256,192,41134,1,0,0:0:0:0:
256,192,41934,1,0,0:0:0:0:
256,192,42201,1,8,0:0:0:0:
256,192,43267,1,4,0:0:0:0:
256,192,43534,1,8,0:0:0:0:
256,192,43801,1,0,0:0:0:0:
256,192,44067,1,8,0:0:0:0:
256,192,44201,1,8,0:0:0:0:
256,192,44334,1,0,0:0:0:0:
256,192,44601,1,8,0:0:0:0:
256,192,44734,1,0,0:0:0:0:
256,192,45001,1,0,0:0:0:0:
256,192,45134,1,8,0:0:0:0:
256,192,45401,1,8,0:0:0:0:
256,192,45667,1,0,0:0:0:0:
256,192,45801,1,8,0:0:0:0:
256,192,46067,1,0,0:0:0:0:
256,192,46201,1,0,0:0:0:0:
256,192,46334,1,8,0:0:0:0:
256,192,46734,1,8,0:0:0:0:
256,192,47001,1,8,0:0:0:0:
256,192,47267,1,0,0:0:0:0:
256,192,47534,1,8,0:0:0:0:
256,192,47801,1,0,0:0:0:0:
256,192,48067,1,8,0:0:0:0:
256,192,48334,1,8,0:0:0:0:
256,192,48467,1,0,0:0:0:0:
256,192,48867,1,8,0:0:0:0:
256,192,49134,1,0,0:0:0:0:
256,192,49401,1,8,0:0:0:0:
256,192,49667,1,0,0:0:0:0:
256,192,49934,1,8,0:0:0:0:
256,192,50067,1,0,0:0:0:0:
256,192,50334,1,0,0:0:0:0:
256,192,50467,1,8,0:0:0:0:
256,192,50867,1,0,0:0:0:0:
256,192,51001,1,8,0:0:0:0:
256,192,51267,1,0,0:0:0:0:
256,192,51534,1,12,0:0:0:0:
256,192,51801,1,4,0:0:0:0:
256,192,52067,1,8,0:0:0:0:
256,192,52201,1,8,0:0:0:0:
256,192,52334,1,0,0:0:0:0:
256,192,52601,1,8,0:0:0:0:
256,192,52867,1,0,0:0:0:0:
256,192,53134,1,8,0:0:0:0:
256,192,53401,1,0,0:0:0:0:
256,192,53667,1,8,0:0:0:0:
256,192,53934,1,8,0:0:0:0:
256,192,54201,1,0,0:0:0:0:
256,192,54467,1,8,0:0:0:0:
256,192,54734,1,0,0:0:0:0:
256,192,54867,1,8,0:0:0:0:
256,192,55267,1,8,0:0:0:0:
256,192,55534,1,0,0:0:0:0:
256,192,55801,1,8,0:0:0:0:
256,192,56067,1,0,0:0:0:0:
256,192,56201,1,0,0:0:0:0:
256,192,56334,1,8,0:0:0:0:
256,192,56601,1,0,0:0:0:0:
256,192,56734,1,8,0:0:0:0:
256,192,56867,1,0,0:0:0:0:
256,192,57134,1,8,0:0:0:0:
256,192,57401,1,0,0:0:0:0:
256,192,57534,1,8,0:0:0:0:
256,192,57801,1,0,0:0:0:0:
256,192,57934,1,8,0:0:0:0:
256,192,58201,1,0,0:0:0:0:
256,192,58467,1,8,0:0:0:0:
256,192,58734,1,0,0:0:0:0:
256,192,59001,1,8,0:0:0:0:
256,192,59134,1,0,0:0:0:0:
256,192,59401,1,0,0:0:0:0:
256,192,59534,1,8,0:0:0:0:
256,192,59801,1,0,0:0:0:0:
256,192,60067,1,8,0:0:0:0:
256,192,60334,1,4,0:0:0:0:
256,192,60867,1,0,0:0:0:0:
256,192,61134,1,8,0:0:0:0:
256,192,61401,1,8,0:0:0:0:
256,192,61667,1,0,0:0:0:0:
256,192,61801,1,8,0:0:0:0:
256,192,62067,1,0,0:0:0:0:
256,192,62201,1,8,0:0:0:0:
256,192,62467,1,0,0:0:0:0:
256,192,62734,1,8,0:0:0:0:
256,192,62867,1,0,0:0:0:0:
256,192,63134,1,0,0:0:0:0:
256,192,63267,1,8,0:0:0:0:
256,192,63401,1,0,0:0:0:0:
256,192,63801,1,8,0:0:0:0:
256,192,64067,1,0,0:0:0:0:
256,192,64334,1,8,0:0:0:0:
256,192,64601,1,0,0:0:0:0:
256,192,64867,1,8,0:0:0:0:
256,192,65134,1,0,0:0:0:0:
256,192,65401,1,8,0:0:0:0:
256,192,65534,1,0,0:0:0:0:
256,192,65801,1,0,0:0:0:0:
256,192,65934,1,8,0:0:0:0:
256,192,66201,1,0,0:0:0:0:
256,192,66467,1,8,0:0:0:0:
256,192,66734,1,0,0:0:0:0:
256,192,67001,1,8,0:0:0:0:
256,192,67134,1,0,0:0:0:0:
256,192,67534,1,8,0:0:0:0:
256,192,67667,1,0,0:0:0:0:
256,192,67934,1,0,0:0:0:0:
256,192,68067,1,8,0:0:0:0:
256,192,68334,1,0,0:0:0:0:
256,192,68601,1,12,0:0:0:0:
256,192,68867,1,4,0:0:0:0:
256,192,69134,1,8,0:0:0:0:
256,192,69401,1,0,0:0:0:0:
256,192,69667,1,8,0:0:0:0:
256,192,69801,1,0,0:0:0:0:
256,192,70067,1,0,0:0:0:0:
256,192,70201,1,8,0:0:0:0:
256,192,70467,1,0,0:0:0:0:
256,192,70734,1,8,0:0:0:0:
256,192,71001,1,0,0:0:0:0:
256,192,71267,1,8,0:0:0:0:
256,192,71534,1,0,0:0:0:0:
256,192,71801,1,8,0:0:0:0:
256,192,71934,1,0,0:0:0:0:
256,192,72334,1,8,0:0:0:0:
256,192,72601,1,0,0:0:0:0:
256,192,72867,1,8,0:0:0:0:
256,192,73134,1,0,0:0:0:0:
256,192,73267,1,8,0:0:0:0:
256,192,73401,1,0,0:0:0:0:
256,192,73667,1,8,0:0:0:0:
256,192,73801,1,0,0:0:0:0:
256,192,73934,1,8,0:0:0:0:
256,192,74201,1,0,0:0:0:0:
256,192,74467,1,8,0:0:0:0:
256,192,74601,1,0,0:0:0:0:
256,192,74867,1,0,0:0:0:0:
256,192,75001,1,8,0:0:0:0:
256,192,75267,1,0,0:0:0:0:
256,192,75534,1,8,0:0:0:0:
256,192,75801,1,0,0:0:0:0:
256,192,76067,1,8,0:0:0:0:
256,192,76201,1,0,0:0:0:0:
256,192,76467,1,0,0:0:0:0:
256,192,76601,1,8,0:0:0:0:
256,192,76867,1,0,0:0:0:0:
256,192,77134,1,0,0:0:0:0:
256,192,77401,1,12,0:0:0:0:
256,192,78201,1,0,0:0:0:0:
256,192,78467,1,0,0:0:0:0:
256,192,79267,1,0,0:0:0:0:
256,192,79534,1,0,0:0:0:0:
256,192,80334,1,0,0:0:0:0:
256,192,80601,1,0,0:0:0:0:
256,192,81401,1,0,0:0:0:0:
256,192,81667,1,0,0:0:0:0:
256,192,82467,1,0,0:0:0:0:
256,192,82734,1,0,0:0:0:0:
256,192,83534,1,0,0:0:0:0:
256,192,83801,1,0,0:0:0:0:
256,192,84601,1,0,0:0:0:0:
256,192,84867,1,0,0:0:0:0:
256,192,85534,1,0,0:0:0:0:
256,192,85667,1,12,0:0:0:0:
256,192,85934,1,0,0:0:0:0:
256,192,86201,1,8,0:0:0:0:
256,192,86467,1,0,0:0:0:0:
256,192,86734,1,8,0:0:0:0:
256,192,87001,1,0,0:0:0:0:
256,192,87267,1,8,0:0:0:0:
256,192,87534,1,0,0:0:0:0:
256,192,87667,1,0,0:0:0:0:
256,192,87801,1,8,0:0:0:0:
256,192,88067,1,0,0:0:0:0:
256,192,88334,1,8,0:0:0:0:
256,192,88601,1,0,0:0:0:0:
256,192,88867,1,8,0:0:0:0:
256,192,89001,1,0,0:0:0:0:
256,192,89267,1,0,0:0:0:0:
256,192,89401,1,8,0:0:0:0:
256,192,89667,1,0,0:0:0:0:
256,192,89934,1,8,0:0:0:0:
256,192,90201,1,0,0:0:0:0:
256,192,90734,1,0,0:0:0:0:
256,192,91001,1,8,0:0:0:0:
256,192,91267,1,0,0:0:0:0:
256,192,91534,1,8,0:0:0:0:
256,192,91801,1,0,0:0:0:0:
256,192,92067,1,8,0:0:0:0:
256,192,92334,1,0,0:0:0:0:
256,192,92601,1,8,0:0:0:0:
256,192,92867,1,0,0:0:0:0:
256,192,93001,1,8,0:0:0:0:
256,192,93267,1,8,0:0:0:0:
256,192,93667,1,8,0:0:0:0:
256,192,93934,1,0,0:0:0:0:
256,192,94201,1,8,0:0:0:0:
256,192,94334,1,8,0:0:0:0:
256,192,94467,1,4,0:0:0:0:
256,192,94734,1,8,0:0:0:0:
256,192,95001,1,0,0:0:0:0:
256,192,95267,1,8,0:0:0:0:
256,192,95401,1,0,0:0:0:0:
256,192,95667,1,0,0:0:0:0:
256,192,95801,1,8,0:0:0:0:
256,192,96067,1,0,0:0:0:0:
256,192,96334,1,8,0:0:0:0:
256,192,96867,1,8,0:0:0:0:
256,192,97134,1,0,0:0:0:0:
256,192,97401,1,8,0:0:0:0:
256,192,97534,1,8,0:0:0:0:
256,192,97801,1,0,0:0:0:0:
256,192,97934,1,8,0:0:0:0:
256,192,98201,1,0,0:0:0:0:
256,192,98467,1,8,0:0:0:0:
256,192,99001,1,8,0:0:0:0:
256,192,99267,1,0,0:0:0:0:
256,192,99534,1,8,0:0:0:0:
256,192,99667,1,0,0:0:0:0:
256,192,99934,1,0,0:0:0:0:
256,192,100067,1,8,0:0:0:0:
256,192,100334,1,0,0:0:0:0:
256,192,100601,1,8,0:0:0:0:
256,192,100867,1,0,0:0:0:0:
256,192,101134,1,8,0:0:0:0:
256,192,101267,1,8,0:0:0:0:
256,192,101667,1,8,0:0:0:0:
256,192,101801,1,0,0:0:0:0:
256,192,102067,1,0,0:0:0:0:
256,192,102201,1,8,0:0:0:0:
256,192,102467,1,8,0:0:0:0:
256,192,102734,1,0,0:0:0:0:
256,192,102867,1,8,0:0:0:0:
256,192,103001,1,0,0:0:0:0:
256,192,103267,1,8,0:0:0:0:
256,192,103534,1,0,0:0:0:0:
256,192,103801,1,8,0:0:0:0:
256,192,103934,1,0,0:0:0:0:
256,192,104201,1,0,0:0:0:0:
256,192,104334,1,8,0:0:0:0:
256,192,104601,1,0,0:0:0:0:
256,192,104867,1,8,0:0:0:0:
256,192,105134,1,0,0:0:0:0:
256,192,105667,1,0,0:0:0:0:
256,192,105934,1,8,0:0:0:0:
256,192,106067,1,0,0:0:0:0:
256,192,106334,1,0,0:0:0:0:
256,192,106467,1,8,0:0:0:0:
256,192,106734,1,0,0:0:0:0:
256,192,107001,1,8,0:0:0:0:
256,192,107267,1,0,0:0:0:0:
256,192,107534,1,8,0:0:0:0:
256,192,107801,1,0,0:0:0:0:
256,192,108067,1,8,0:0:0:0:
256,192,108201,1,8,0:0:0:0:
256,192,108467,1,0,0:0:0:0:
256,192,108601,1,8,0:0:0:0:
256,192,108867,1,0,0:0:0:0:
256,192,109134,1,8,0:0:0:0:
256,192,109401,1,0,0:0:0:0:
256,192,109934,1,0,0:0:0:0:
256,192,110201,1,8,0:0:0:0:
256,192,110334,1,0,0:0:0:0:
256,192,110601,1,8,0:0:0:0:
256,192,110734,1,8,0:0:0:0:
256,192,111001,1,0,0:0:0:0:
256,192,111267,1,8,0:0:0:0:
256,192,111401,1,8,0:0:0:0:
256,192,111534,1,4,0:0:0:0:
256,192,111801,1,8,0:0:0:0:
256,192,112067,1,0,0:0:0:0:
256,192,112334,1,8,0:0:0:0:
256,192,112467,1,0,0:0:0:0:
256,192,112734,1,0,0:0:0:0:
256,192,112867,1,8,0:0:0:0:
256,192,113134,1,0,0:0:0:0:
256,192,113267,1,0,0:0:0:0:
256,192,113401,1,8,0:0:0:0:
256,192,113934,1,8,0:0:0:0:
256,192,114201,1,0,0:0:0:0:
256,192,114467,1,8,0:0:0:0:
256,192,114601,1,8,0:0:0:0:
256,192,114867,1,8,0:0:0:0:
256,192,115001,1,8,0:0:0:0:
256,192,115267,1,8,0:0:0:0:
256,192,115401,1,0,0:0:0:0:
256,192,115534,1,8,0:0:0:0:
256,192,116067,1,8,0:0:0:0:
256,192,116334,1,0,0:0:0:0:
256,192,116601,1,8,0:0:0:0:
256,192,116734,1,0,0:0:0:0:
256,192,117001,1,0,0:0:0:0:
256,192,117134,1,8,0:0:0:0:
256,192,117401,1,0,0:0:0:0:
256,192,117534,1,8,0:0:0:0:
256,192,117667,1,8,0:0:0:0:
256,192,117934,1,0,0:0:0:0:
256,192,118201,1,8,0:0:0:0:
256,192,118334,1,8,0:0:0:0:
256,192,118601,1,0,0:0:0:0:
256,192,118734,1,8,0:0:0:0:
256,192,119267,1,8,0:0:0:0:
256,192,119534,1,8,0:0:0:0:
256,192,119801,1,0,0:0:0:0:
256,192,119934,1,8,0:0:0:0:
256,192,120067,1,0,0:0:0:0:
256,192,120334,1,8,0:0:0:0:
256,192,120601,1,0,0:0:0:0:
256,192,120867,1,8,0:0:0:0:
256,192,121001,1,0,0:0:0:0:
256,192,121267,1,0,0:0:0:0:
256,192,121401,1,8,0:0:0:0:
256,192,121667,1,8,0:0:0:0:
256,192,121801,1,0,0:0:0:0:
256,192,121934,1,8,0:0:0:0:
256,192,122201,1,0,0:0:0:0:
256,192,122734,1,0,0:0:0:0:
256,192,123001,1,8,0:0:0:0:
256,192,123134,1,0,0:0:0:0:
256,192,123401,1,0,0:0:0:0:
256,192,123534,1,8,0:0:0:0:
256,192,123801,1,0,0:0:0:0:
256,192,124067,1,8,0:0:0:0:
256,192,124334,1,8,0:0:0:0:
256,192,124867,1,0,0:0:0:0:
256,192,125001,1,0,0:0:0:0:
256,192,125134,1,8,0:0:0:0:
256,192,125401,1,8,0:0:0:0:
256,192,125934,1,0,0:0:0:0:
256,192,126201,1,8,0:0:0:0:
256,192,126334,1,0,0:0:0:0:
256,192,126601,1,0,0:0:0:0:
256,192,126734,1,8,0:0:0:0:
256,192,127001,1,0,0:0:0:0:
256,192,127267,1,8,0:0:0:0:
256,192,127401,1,0,0:0:0:0:
256,192,127667,1,8,0:0:0:0:
256,192,127801,1,8,0:0:0:0:
256,192,128067,1,0,0:0:0:0:
256,192,128334,1,8,0:0:0:0:
256,192,128467,1,8,0:0:0:0:
256,192,128601,1,4,0:0:0:0:
256,192,128867,1,8,0:0:0:0:
256,192,129134,1,0,0:0:0:0:
256,192,129401,1,8,0:0:0:0:
256,192,129667,1,8,0:0:0:0:
256,192,129934,1,0,0:0:0:0:
256,192,130067,1,8,0:0:0:0:
256,192,130467,1,0,0:0:0:0:
256,192,130601,1,0,0:0:0:0:
256,192,130734,1,8,0:0:0:0:
256,192,131001,1,0,0:0:0:0:
256,192,131267,1,8,0:0:0:0:
256,192,131534,1,8,0:0:0:0:
256,192,131667,1,8,0:0:0:0:
256,192,131801,1,0,0:0:0:0:
256,192,132067,1,8,0:0:0:0:
256,192,132201,1,0,0:0:0:0:
256,192,132601,1,8,0:0:0:0:
256,192,132867,1,0,0:0:0:0:
256,192,133001,1,8,0:0:0:0:
256,192,133134,1,0,0:0:0:0:
256,192,133401,1,8,0:0:0:0:
256,192,133667,1,0,0:0:0:0:
256,192,133934,1,8,0:0:0:0:
256,192,134467,1,0,0:0:0:0:
256,192,134734,1,8,0:0:0:0:
256,192,135001,1,0,0:0:0:0:
256,192,135267,1,8,0:0:0:0:
256,192,135401,1,0,0:0:0:0:
256,192,135667,1,0,0:0:0:0:
256,192,135801,1,8,0:0:0:0:
256,192,135934,1,0,0:0:0:0:
256,192,136334,1,8,0:0:0:0:
256,192,136601,1,0,0:0:0:0:
256,192,136867,1,12,0:0:0:0:
256,192,137134,1,4,0:0:0:0:
256,192,137401,1,8,0:0:0:0:
256,192,137534,1,0,0:0:0:0:
256,192,137667,1,0,0:0:0:0:
256,192,137934,1,8,0:0:0:0:
256,192,138201,1,8,0:0:0:0:
256,192,138467,1,8,0:0:0:0:
256,192,138601,1,0,0:0:0:0:
256,192,138867,1,0,0:0:0:0:
256,192,139001,1,8,0:0:0:0:
256,192,139134,1,0,0:0:0:0:
256,192,139534,1,8,0:0:0:0:
256,192,139801,1,8,0:0:0:0:
256,192,139934,1,8,0:0:0:0:
256,192,140067,1,0,0:0:0:0:
256,192,140334,1,8,0:0:0:0:
256,192,140467,1,0,0:0:0:0:
256,192,140734,1,8,0:0:0:0:
256,192,141001,1,8,0:0:0:0:
256,192,141134,1,0,0:0:0:0:
256,192,141401,1,8,0:0:0:0:
256,192,141667,1,0,0:0:0:0:
256,192,141801,1,8,0:0:0:0:
256,192,141934,1,0,0:0:0:0:
256,192,142201,1,8,0:0:0:0:
256,192,142334,1,8,0:0:0:0:
256,192,142601,1,0,0:0:0:0:
256,192,142734,1,8,0:0:0:0:
256,192,143001,1,8,0:0:0:0:
256,192,143267,1,0,0:0:0:0:
256,192,143401,1,0,0:0:0:0:
256,192,143534,1,8,0:0:0:0:
256,192,143801,1,8,0:0:0:0:
256,192,143934,1,0,0:0:0:0:
256,192,144201,1,0,0:0:0:0:
256,192,144334,1,8,0:0:0:0:
256,192,144601,1,0,0:0:0:0:
256,192,144867,1,8,0:0:0:0:
256,192,145134,1,0,0:0:0:0:
256,192,145401,1,0,0:0:0:0:
256,192,145667,1,12,0:0:0:0:
256,192,163801,12,0,164734,0:0:0:0:
256,192,164867,5,4,0:0:0:0:
256,192,165134,1,8,0:0:0:0:
256,192,165401,1,0,0:0:0:0:
256,192,165667,1,8,0:0:0:0:
256,192,165801,1,0,0:0:0:0:
256,192,166067,1,0,0:0:0:0:
256,192,166201,1,8,0:0:0:0:
256,192,166467,1,0,0:0:0:0:
256,192,166601,1,0,0:0:0:0:
256,192,166734,1,8,0:0:0:0:
256,192,167267,1,8,0:0:0:0:
256,192,167534,1,0,0:0:0:0:
256,192,167801,1,8,0:0:0:0:
256,192,167934,1,8,0:0:0:0:
256,192,168201,1,0,0:0:0:0:
256,192,168334,1,8,0:0:0:0:
256,192,168601,1,0,0:0:0:0:
256,192,168734,1,0,0:0:0:0:
256,192,168867,1,8,0:0:0:0:
256,192,169401,1,8,0:0:0:0:
256,192,169667,1,0,0:0:0:0:
256,192,169934,1,8,0:0:0:0:
256,192,170067,1,0,0:0:0:0:
256,192,170334,1,0,0:0:0:0:
256,192,170467,1,8,0:0:0:0:
256,192,170734,1,0,0:0:0:0:
256,192,170867,1,0,0:0:0:0:
256,192,171001,1,8,0:0:0:0:
256,192,171267,1,0,0:0:0:0:
256,192,171534,1,8,0:0:0:0:
256,192,171667,1,8,0:0:0:0:
256,192,172067,1,8,0:0:0:0:
256,192,172201,1,0,0:0:0:0:
256,192,172467,1,0,0:0:0:0:
256,192,172601,1,8,0:0:0:0:
256,192,172867,1,8,0:0:0:0:
256,192,173134,1,0,0:0:0:0:
256,192,173267,1,8,0:0:0:0:
256,192,173401,1,0,0:0:0:0:
256,192,173667,1,8,0:0:0:0:
256,192,173934,1,0,0:0:0:0:
256,192,174201,1,8,0:0:0:0:
256,192,174334,1,0,0:0:0:0:
256,192,174601,1,0,0:0:0:0:
256,192,174734,1,8,0:0:0:0:
256,192,175001,1,0,0:0:0:0:
256,192,175267,1,8,0:0:0:0:
256,192,175534,1,0,0:0:0:0:
256,192,176067,1,0,0:0:0:0:
256,192,176334,1,8,0:0:0:0:
256,192,176467,1,0,0:0:0:0:
256,192,176734,1,0,0:0:0:0:
256,192,176867,1,8,0:0:0:0:
256,192,177134,1,0,0:0:0:0:
256,192,177401,1,8,0:0:0:0:
256,192,177667,1,0,0:0:0:0:
256,192,177934,1,8,0:0:0:0:
256,192,178201,1,0,0:0:0:0:
256,192,178467,1,8,0:0:0:0:
256,192,178734,1,0,0:0:0:0:
256,192,178867,1,0,0:0:0:0:
256,192,179001,1,8,0:0:0:0:
256,192,179267,1,0,0:0:0:0:
256,192,179534,1,8,0:0:0:0:
256,192,179667,1,0,0:0:0:0:
256,192,180067,1,8,0:0:0:0:
256,192,180334,1,0,0:0:0:0:
256,192,180601,1,8,0:0:0:0:
256,192,180734,1,0,0:0:0:0:
256,192,181001,1,8,0:0:0:0:
256,192,181134,1,8,0:0:0:0:
256,192,181401,1,0,0:0:0:0:
256,192,181667,1,8,0:0:0:0:
256,192,181801,1,8,0:0:0:0:
256,192,181934,1,4,0:0:0:0:
256,192,182201,1,8,0:0:0:0:
256,192,182467,1,0,0:0:0:0:
256,192,182734,1,8,0:0:0:0:
256,192,182867,1,0,0:0:0:0:
256,192,183134,1,0,0:0:0:0:
256,192,183267,1,8,0:0:0:0:
256,192,183534,1,0,0:0:0:0:
256,192,183667,1,0,0:0:0:0:
256,192,183801,1,8,0:0:0:0:
256,192,183934,1,8,0:0:0:0:
256,192,184334,1,8,0:0:0:0:
256,192,184601,1,0,0:0:0:0:
256,192,184867,1,8,0:0:0:0:
256,192,185001,1,8,0:0:0:0:
256,192,185267,1,8,0:0:0:0:
256,192,185401,1,8,0:0:0:0:
256,192,185667,1,8,0:0:0:0:
256,192,185801,1,0,0:0:0:0:
256,192,185934,1,8,0:0:0:0:
256,192,186067,1,8,0:0:0:0:
256,192,186467,1,8,0:0:0:0:
256,192,186734,1,0,0:0:0:0:
256,192,187001,1,8,0:0:0:0:
256,192,187134,1,0,0:0:0:0:
256,192,187401,1,0,0:0:0:0:
256,192,187534,1,8,0:0:0:0:
256,192,187801,1,0,0:0:0:0:
256,192,187934,1,8,0:0:0:0:
256,192,188067,1,8,0:0:0:0:
256,192,188334,1,0,0:0:0:0:
256,192,188601,1,8,0:0:0:0:
256,192,188734,1,8,0:0:0:0:
256,192,189001,1,0,0:0:0:0:
256,192,189134,1,8,0:0:0:0:
256,192,189267,1,0,0:0:0:0:
256,192,189667,1,8,0:0:0:0:
256,192,189934,1,8,0:0:0:0:
256,192,190201,1,0,0:0:0:0:
256,192,190334,1,8,0:0:0:0:
256,192,190467,1,0,0:0:0:0:
256,192,190734,1,8,0:0:0:0:
256,192,191001,1,0,0:0:0:0:
256,192,191267,1,8,0:0:0:0:
256,192,191401,1,0,0:0:0:0:
256,192,191667,1,0,0:0:0:0:
256,192,191801,1,8,0:0:0:0:
256,192,192067,1,8,0:0:0:0:
256,192,192201,1,0,0:0:0:0:
256,192,192334,1,8,0:0:0:0:
256,192,192601,1,0,0:0:0:0:
256,192,193134,1,0,0:0:0:0:
256,192,193401,1,8,0:0:0:0:
256,192,193534,1,0,0:0:0:0:
256,192,193801,1,0,0:0:0:0:
256,192,193934,1,8,0:0:0:0:
256,192,194201,1,0,0:0:0:0:
256,192,194467,1,8,0:0:0:0:
256,192,194734,1,8,0:0:0:0:
256,192,195267,1,0,0:0:0:0:
256,192,195401,1,0,0:0:0:0:
256,192,195534,1,8,0:0:0:0:
256,192,195801,1,8,0:0:0:0:
256,192,196334,1,0,0:0:0:0:
256,192,196601,1,8,0:0:0:0:
256,192,196734,1,0,0:0:0:0:
256,192,197001,1,0,0:0:0:0:
256,192,197134,1,8,0:0:0:0:
256,192,197401,1,0,0:0:0:0:
256,192,197667,1,8,0:0:0:0:
256,192,197801,1,0,0:0:0:0:
256,192,198067,1,8,0:0:0:0:
256,192,198201,1,8,0:0:0:0:
256,192,198467,1,0,0:0:0:0:
256,192,198734,1,8,0:0:0:0:
256,192,198867,1,8,0:0:0:0:
256,192,199001,1,4,0:0:0:0:
256,192,199267,1,8,0:0:0:0:
256,192,199534,1,0,0:0:0:0:
256,192,199801,1,8,0:0:0:0:
256,192,199934,1,0,0:0:0:0:
256,192,200201,1,0,0:0:0:0:
256,192,200334,1,8,0:0:0:0:
256,192,200601,1,0,0:0:0:0:
256,192,200867,1,8,0:0:0:0:
256,192,201401,1,8,0:0:0:0:
256,192,201667,1,0,0:0:0:0:
256,192,201934,1,8,0:0:0:0:
256,192,202067,1,0,0:0:0:0:
256,192,202334,1,0,0:0:0:0:
256,192,202467,1,8,0:0:0:0:
256,192,202734,1,0,0:0:0:0:
256,192,203001,1,8,0:0:0:0:
256,192,203534,1,8,0:0:0:0:
256,192,203801,1,0,0:0:0:0:
256,192,204067,1,8,0:0:0:0:
256,192,204201,1,0,0:0:0:0:
256,192,204467,1,0,0:0:0:0:
256,192,204601,1,8,0:0:0:0:
256,192,204867,1,0,0:0:0:0:
256,192,205001,1,0,0:0:0:0:
256,192,205134,1,8,0:0:0:0:
256,192,205667,1,8,0:0:0:0:
256,192,205934,1,0,0:0:0:0:
256,192,206201,1,8,0:0:0:0:
256,192,206334,1,0,0:0:0:0:
256,192,206601,1,0,0:0:0:0:
256,192,206734,1,8,0:0:0:0:
256,192,207001,1,0,0:0:0:0:
256,192,207267,1,12,0:0:0:0:
256,192,207534,1,4,0:0:0:0:
256,192,207801,1,8,0:0:0:0:
256,192,208067,1,0,0:0:0:0:
256,192,208334,1,8,0:0:0:0:
256,192,208467,1,0,0:0:0:0:
256,192,208734,1,0,0:0:0:0:
256,192,208867,1,8,0:0:0:0:
256,192,209134,1,0,0:0:0:0:
256,192,209401,1,8,0:0:0:0:
256,192,209934,1,8,0:0:0:0:
256,192,210201,1,0,0:0:0:0:
256,192,210467,1,8,0:0:0:0:
256,192,210601,1,0,0:0:0:0:
256,192,210867,1,0,0:0:0:0:
256,192,211001,1,8,0:0:0:0:
256,192,211267,1,0,0:0:0:0:
256,192,211534,1,8,0:0:0:0:
256,192,212067,1,8,0:0:0:0:
256,192,212334,1,0,0:0:0:0:
256,192,212601,1,8,0:0:0:0:
256,192,212734,1,0,0:0:0:0:
256,192,213001,1,0,0:0:0:0:
256,192,213134,1,8,0:0:0:0:
256,192,213401,1,0,0:0:0:0:
256,192,213534,1,0,0:0:0:0:
256,192,213667,1,8,0:0:0:0:
256,192,214201,1,8,0:0:0:0:
256,192,214467,1,0,0:0:0:0:
256,192,214734,1,8,0:0:0:0:
256,192,214867,1,0,0:0:0:0:
256,192,215134,1,0,0:0:0:0:
256,192,215267,1,8,0:0:0:0:
256,192,215534,1,0,0:0:0:0:
256,192,215801,1,12,0:0:0:0:
256,192,216067,1,4,0:0:0:0:
256,192,217134,1,8,0:0:0:0:
256,192,218201,1,0,0:0:0:0:
256,192,219267,1,8,0:0:0:0:
256,192,220428,1,0,0:0:0:0:
256,192,221617,1,8,0:0:0:0:
256,192,223073,12,0,225135,0:0:0:0:
