osu file format v14

[General]
AudioFilename: audio.mp3
AudioLeadIn: 0
PreviewTime: 56372
Countdown: 0
SampleSet: Soft
StackLeniency: 0.5
Mode: 0
LetterboxInBreaks: 0
WidescreenStoryboard: 0

[Editor]
Bookmarks: 1827,12736,23645,34554,45463,56372,67281,78190,89099,100008,110917,125917,136827,147736,158645,169554,180463,190690
DistanceSpacing: 1.2
BeatDivisor: 4
GridSize: 32
TimelineZoom: 2

[Metadata]
Title:Shijima ni Saku
TitleUnicode:静寂に咲く
Artist:MIMI
ArtistUnicode:MIMI
Creator:eiri-
Version:Hard
Source:osu!
Tags:Ayyri Trynna Hatsune Miku feat. 初音ミク Featured Artist FA Japanese Novelty Piano Vocaloid
BeatmapID:2421169
BeatmapSetID:1159718

[Difficulty]
HPDrainRate:5
CircleSize:4
OverallDifficulty:7
ApproachRate:8
SliderMultiplier:1.4
SliderTickRate:1

[Events]
//Background and Video events
0,0,"Miku 587.jpg",0,0
//Break Periods
//Storyboard Layer 0 (Background)
//Storyboard Layer 1 (Fail)
//Storyboard Layer 2 (Pass)
//Storyboard Layer 3 (Foreground)
//Storyboard Layer 4 (Overlay)
//Storyboard Sound Samples

[TimingPoints]
1827,340.909090909091,4,2,1,50,1,0

[Colours]
Combo1 : 117,236,236
Combo2 : 114,177,248
Combo3 : 184,125,249
Combo4 : 249,147,221
Combo5 : 248,131,134
Combo6 : 244,227,111

[HitObjects]
64,320,1827,5,2,0:0:0:0:
140,285,1997,1,0,0:0:0:0:
106,208,2167,1,2,0:0:0:0:
270,240,2508,1,2,0:0:0:0:
260,80,2849,1,2,0:0:0:0:
260,80,3020,1,2,0:0:0:0:
260,80,3190,6,0,L|425:101,2,140,2|0|2,0:0|0:0|0:0,0:0:0:0:
99,129,4213,2,0,L|84:50,1,70,2|2,0:0|0:0,0:0:0:0:
156,14,4554,5,2,0:0:0:0:
220,67,4724,1,0,0:0:0:0:
177,139,4895,1,2,0:0:0:0:
220,301,5236,1,2,0:0:0:0:
362,211,5577,2,0,L|453:223,1,70,2|2,0:0|0:0,0:0:0:0:
499,171,5917,6,0,L|471:14,2,140,2|0|2,0:0|0:0|0:0,0:0:0:0:
482,338,6940,2,0,L|391:350,1,70,2|2,0:0|0:0,0:0:0:0:
348,292,7281,5,2,0:0:0:0:
310,367,7452,1,0,0:0:0:0:
233,332,7622,1,2,0:0:0:0:
70,373,7963,1,2,0:0:0:0:
17,213,8304,2,0,L|29:131,1,70,2|2,0:0|0:0,0:0:0:0:
15,60,8645,6,0,L|160:25,2,140,2|0|2,0:0|0:0|0:0,0:0:0:0:
177,103,9667,2,0,L|276:127,1,70,2|2,0:0|0:0,0:0:0:0:
324,91,10008,5,2,0:0:0:0:
363,165,10179,1,0,0:0:0:0:
443,142,10349,1,2,0:0:0:0:
497,300,10690,1,2,0:0:0:0:
333,338,11031,2,0,L|252:317,1,70,2|0,0:0|0:0,0:0:0:0:
188,354,11372,5,2,0:0:0:0:
188,354,12054,1,2,0:0:0:0:
67,236,12395,2,0,L|76:140,1,70,2|2,0:0|0:0,0:0:0:0:
88,83,12736,5,2,0:0:0:0:
153,135,12906,1,0,0:0:0:0:
73,166,13077,1,2,0:0:0:0:
176,34,13417,1,2,0:0:0:0:
239,189,13758,2,0,P|274:216|317:222,1,70,2|2,0:0|0:0,0:0:0:0:
347,290,14099,6,0,P|382:255|350:155,2,140,2|0|2,0:0|0:0|0:0,0:0:0:0:
188,348,15122,1,2,0:0:0:0:
152,272,15292,1,2,0:0:0:0:
97,336,15463,2,0,L|26:356,1,70,2|0,0:0|0:0,0:0:0:0:
44,272,15804,2,0,B|16:231|16:231|25:176,1,105,2|0,0:0|0:0,0:0:0:0:
42,156,16145,1,2,0:0:0:0:
186,70,16486,1,2,0:0:0:0:
258,112,16656,1,2,0:0:0:0:
330,69,16827,6,0,B|375:63|375:63|416:99|382:151,2,140,2|0|2,0:0|0:0|0:0,0:0:0:0:
294,233,17849,2,0,L|299:311,1,70,2|2,0:0|0:0,0:0:0:0:
230,352,18190,5,2,0:0:0:0:
156,309,18361,1,0,0:0:0:0:
82,348,18531,1,2,0:0:0:0:
159,197,18872,2,0,L|161:92,1,105,2|0,0:0|0:0,0:0:0:0:
163,63,19213,1,2,0:0:0:0:
88,25,19383,1,2,0:0:0:0:
22,78,19554,6,0,P|12:119|84:188,1,140,2|0,0:0|0:0,0:0:0:0:
110,350,20236,2,0,P|175:325|253:346,1,140,2|2,0:0|0:0,0:0:0:0:
319,373,20747,1,2,0:0:0:0:
308,289,20917,6,0,L|331:222,1,70,2|0,0:0|0:0,0:0:0:0:
322,138,21258,1,2,0:0:0:0:
429,266,21599,1,2,0:0:0:0:
488,108,21940,1,2,0:0:0:0:
417,154,22111,1,0,0:0:0:0:
493,187,22281,5,2,0:0:0:0:
186,50,22963,1,2,0:0:0:0:
79,373,23645,5,2,0:0:0:0:
79,373,23815,1,0,0:0:0:0:
79,373,23986,2,0,L|65:297,1,70,2|2,0:0|0:0,0:0:0:0:
19,233,24327,2,0,P|70:210|144:204,1,105,2|0,0:0|0:0,0:0:0:0:
156,219,24667,1,2,0:0:0:0:
215,159,24838,1,2,0:0:0:0:
292,192,25008,6,0,B|248:149|248:149|279:47,2,140,2|0|2,0:0|0:0|0:0,0:0:0:0:
421,315,26031,1,2,0:0:0:0:
421,315,26202,1,2,0:0:0:0:
421,315,26372,6,0,P|435:279|436:238,1,70,2|0,0:0|0:0,0:0:0:0:
406,169,26713,2,0,P|392:133|398:59,1,105,2|0,0:0|0:0,0:0:0:0:
414,29,27054,1,2,0:0:0:0:
335,1,27224,1,2,0:0:0:0:
308,85,27395,1,2,0:0:0:0:
308,85,27565,1,0,0:0:0:0:
308,85,27736,6,0,L|161:75,2,140,2|0|2,0:0|0:0|0:0,0:0:0:0:
500,373,29099,5,2,0:0:0:0:
500,373,29270,1,0,0:0:0:0:
500,373,29440,2,0,P|463:345|423:334,1,70,2|2,0:0|0:0,0:0:0:0:
363,370,29781,1,2,0:0:0:0:
309,305,29952,1,0,0:0:0:0:
238,344,30122,1,2,0:0:0:0:
238,344,30292,1,2,0:0:0:0:
238,344,30463,6,0,P|168:360|86:371,2,140,2|0|2,0:0|0:0|0:0,0:0:0:0:
344,215,31486,1,2,0:0:0:0:
344,215,31656,1,2,0:0:0:0:
344,215,31827,6,0,L|334:129,1,70,2|2,0:0|0:0,0:0:0:0:
362,65,32167,1,2,0:0:0:0:
294,14,32338,1,0,0:0:0:0:
231,69,32508,2,0,P|184:70|96:60,1,105,2|0,0:0|0:0,0:0:0:0:
86,51,32849,1,2,0:0:0:0:
98,134,33020,1,2,0:0:0:0:
110,217,33190,5,2,0:0:0:0:
438,145,33872,1,2,0:0:0:0:
324,59,34554,5,2,0:0:0:0:
289,135,34724,1,2,0:0:0:0:
333,206,34895,2,0,L|324:278,1,70,2|2,0:0|0:0,0:0:0:0:
353,354,35236,2,0,P|318:359|283:348,1,70,2|0,0:0|0:0,0:0:0:0:
218,298,35577,2,0,L|131:314,1,70,2|2,0:0|0:0,0:0:0:0:
68,333,35917,6,0,P|61:290|131:222,2,140,2|0|2,0:0|0:0|0:0,0:0:0:0:
212,247,36940,1,2,0:0:0:0:
192,165,37111,1,2,0:0:0:0:
272,188,37281,6,0,L|345:170,1,70,2|2,0:0|0:0,0:0:0:0:
383,99,37622,2,0,L|310:81,1,70,2|2,0:0|0:0,0:0:0:0:
249,28,37963,1,2,0:0:0:0:
180,76,38133,1,0,0:0:0:0:
104,37,38304,2,0,P|92:71|104:107,1,70,2|0,0:0|0:0,0:0:0:0:
139,177,38645,6,0,B|130:151|105:143|105:143|69:166|17:171,2,140,2|0|2,0:0|0:0|0:0,0:0:0:0:
443,320,40008,5,2,0:0:0:0:
417,239,40179,1,2,0:0:0:0:
352,292,40349,2,0,L|269:277,1,70,2|2,0:0|0:0,0:0:0:0:
213,231,40690,2,0,L|144:243,1,70,2|0,0:0|0:0,0:0:0:0:
98,314,41031,1,2,0:0:0:0:
98,314,41202,1,0,0:0:0:0:
144,243,41372,6,0,P|154:176|107:127,2,140,2|0|2,0:0|0:0|0:0,0:0:0:0:
257,367,42395,2,0,L|332:355,1,70,2|2,0:0|0:0,0:0:0:0:
392,304,42736,6,0,L|461:315,2,70,2|2|2,0:0|0:0|0:0,0:0:0:0:
327,249,43247,1,0,0:0:0:0:
327,249,43417,2,0,L|318:168,1,70,2|2,0:0|0:0,0:0:0:0:
400,201,43758,2,0,L|391:120,1,70,2|2,0:0|0:0,0:0:0:0:
467,92,44099,6,0,B|465:42|394:10|334:57|334:57|287:95|209:65,1,280,2|0,0:0|0:0,0:0:0:0:
35,347,45463,5,2,0:0:0:0:
108,306,45633,1,0,0:0:0:0:
167,364,45803,1,2,0:0:0:0:
326,311,46144,1,2,0:0:0:0:
290,155,46485,1,2,0:0:0:0:
290,155,46656,1,2,0:0:0:0:
290,155,46826,6,0,L|455:134,2,140,2|0|2,0:0|0:0|0:0,0:0:0:0:
124,122,47849,2,0,L|109:43,1,70,2|2,0:0|0:0,0:0:0:0:
185,14,48190,5,2,0:0:0:0:
216,91,48360,1,0,0:0:0:0:
191,171,48531,1,2,0:0:0:0:
252,327,48872,1,2,0:0:0:0:
383,222,49213,2,0,L|474:234,1,70,2|2,0:0|0:0,0:0:0:0:
505,166,49554,6,0,P|497:114|404:94,2,140,2|0|2,0:0|0:0|0:0,0:0:0:0:
452,326,50577,2,0,L|361:338,1,70,2|0,0:0|0:0,0:0:0:0:
313,287,50917,5,2,0:0:0:0:
267,357,51088,1,0,0:0:0:0:
185,338,51258,1,2,0:0:0:0:
21,376,51599,1,2,0:0:0:0:
53,211,51940,2,0,L|65:129,1,70,2|2,0:0|0:0,0:0:0:0:
29,64,52281,6,0,B|74:100|74:100|178:77,2,140,2|0|2,0:0|0:0|0:0,0:0:0:0:
196,49,53304,2,0,L|191:136,1,70,2|2,0:0|0:0,0:0:0:0:
235,190,53644,5,2,0:0:0:0:
315,165,53815,1,0,0:0:0:0:
378,220,53985,1,2,0:0:0:0:
217,269,54326,1,2,0:0:0:0:
370,337,54667,2,0,L|451:316,1,70,2|0,0:0|0:0,0:0:0:0:
482,248,55008,5,2,0:0:0:0:
168,370,55690,1,2,0:0:0:0:
256,45,56372,6,0,L|265:118,1,70,2|2,0:0|0:0,0:0:0:0:
196,163,56713,2,0,P|167:140|132:134,1,70,2|2,0:0|0:0,0:0:0:0:
68,83,57054,1,2,0:0:0:0:
18,150,57224,1,2,0:0:0:0:
83,203,57395,2,0,L|75:275,1,70,0|2,0:0|0:0,0:0:0:0:
30,344,57736,6,0,P|90:311|156:327,2,140,2|0|2,0:0|0:0|0:0,0:0:0:0:
161,239,58758,2,0,P|210:259|224:281,1,70,2|2,0:0|0:0,0:0:0:0:
298,243,59099,6,0,P|304:295|292:319,2,70,2|2|2,0:0|0:0|0:0,0:0:0:0:
250,173,59611,1,0,0:0:0:0:
307,112,59781,2,0,L|315:42,1,70,2|2,0:0|0:0,0:0:0:0:
399,51,60122,2,0,L|390:120,1,70,0|0,0:0|0:0,0:0:0:0:
448,181,60463,6,0,P|490:210|492:298,2,140,2|0|2,0:0|0:0|0:0,0:0:0:0:
314,327,61827,5,2,0:0:0:0:
248,274,61997,1,2,0:0:0:0:
169,302,62167,2,0,P|134:304|102:318,1,70,2|2,0:0|0:0,0:0:0:0:
23,291,62508,2,0,P|42:261|70:242,1,70,2|0,0:0|0:0,0:0:0:0:
108,166,62849,2,0,L|93:97,1,70,2|0,0:0|0:0,0:0:0:0:
147,32,63190,6,0,B|186:50|186:50|205:145,2,140,2|0|2,0:0|0:0|0:0,0:0:0:0:
222,68,64042,1,2,0:0:0:0:
294,25,64213,2,0,L|375:15,1,70,2|2,0:0|0:0,0:0:0:0:
436,58,64554,5,2,0:0:0:0:
377,118,64724,1,0,0:0:0:0:
433,180,64895,2,0,L|423:273,1,70,2|2,0:0|0:0,0:0:0:0:
453,329,65236,2,0,P|416:334|383:321,1,70,2|0,0:0|0:0,0:0:0:0:
332,258,65577,2,0,P|295:252|262:265,1,70,2|2,0:0|0:0,0:0:0:0:
213,329,65917,6,0,P|227:261|203:196,1,140,2|0,0:0|0:0,0:0:0:0:
193,28,66599,2,0,B|115:20|144:74|62:62,1,140,2|0,0:0|0:0,0:0:0:0:
14,223,67281,6,0,L|33:313,1,70,2|0,0:0|0:0,0:0:0:0:
48,377,67622,1,2,0:0:0:0:
48,377,67792,1,2,0:0:0:0:
124,341,67963,2,0,P|176:325|205:321,1,70,2|2,0:0|0:0,0:0:0:0:
274,333,68304,1,2,0:0:0:0:
317,261,68474,1,2,0:0:0:0:
261,197,68645,6,0,P|251:145|250:54,2,140,2|0|2,0:0|0:0|0:0,0:0:0:0:
356,335,69667,2,0,P|422:318|448:309,1,70,2|0,0:0|0:0,0:0:0:0:
499,280,70008,5,2,0:0:0:0:
440,219,70179,2,0,L|445:142,1,70,2|2,0:0|0:0,0:0:0:0:
474,70,70520,1,2,0:0:0:0:
313,19,70861,1,2,0:0:0:0:
256,81,71031,2,0,L|175:73,1,70,2|2,0:0|0:0,0:0:0:0:
107,103,71372,6,0,P|153:78|131:-8,2,140,2|0|2,0:0|0:0|0:0,0:0:0:0:
326,358,72736,6,0,L|336:280,1,70,2|0,0:0|0:0,0:0:0:0:
348,208,73077,1,2,0:0:0:0:
348,208,73247,1,2,0:0:0:0:
267,231,73417,2,0,P|223:216|176:167,1,105,2|0,0:0|0:0,0:0:0:0:
162,138,73758,1,2,0:0:0:0:
226,83,73929,1,2,0:0:0:0:
176,16,74099,6,0,B|222:58|222:58|331:39,2,140,2|0|2,0:0|0:0|0:0,0:0:0:0:
32,104,75122,1,2,0:0:0:0:
32,104,75292,1,2,0:0:0:0:
72,178,75463,6,0,L|66:263,1,70,2|0,0:0|0:0,0:0:0:0:
60,331,75804,1,2,0:0:0:0:
134,293,75974,1,2,0:0:0:0:
185,359,76145,2,0,P|237:348|266:327,1,70,2|0,0:0|0:0,0:0:0:0:
326,300,76486,2,0,P|378:311|407:332,1,70,2|2,0:0|0:0,0:0:0:0:
456,373,76827,5,2,0:0:0:0:
256,96,77508,1,0,0:0:0:0:
256,96,77849,1,0,0:0:0:0:
88,78,78190,6,0,P|81:111|93:144,1,70,2|0,0:0|0:0,0:0:0:0:
173,171,78531,2,0,P|179:137|168:105,1,70,2|0,0:0|0:0,0:0:0:0:
106,229,78872,2,0,P|170:206|230:239,1,140,2|2,0:0|0:0,0:0:0:0:
387,297,79554,6,0,P|384:330|364:363,1,70,2|0,0:0|0:0,0:0:0:0:
285,338,79895,2,0,P|287:304|306:271,1,70,2|0,0:0|0:0,0:0:0:0:
300,189,80236,2,0,P|335:191|363:210,1,70,2|0,0:0|0:0,0:0:0:0:
433,162,80577,2,0,P|416:131|417:96,1,70,2|0,0:0|0:0,0:0:0:0:
352,42,80917,6,0,P|315:99|249:115,2,140,2|2|2,0:0|0:0|0:0,0:0:0:0:
186,0,81940,2,0,L|191:69,1,70,2|0,0:0|0:0,0:0:0:0:
145,140,82281,6,0,L|131:216,1,70,2|0,0:0|0:0,0:0:0:0:
189,270,82622,1,2,0:0:0:0:
34,335,82963,1,2,0:0:0:0:
200,354,83304,2,0,P|241:334|259:304,1,70,2|0,0:0|0:0,0:0:0:0:
330,278,83645,6,0,B|307:244|307:244|320:146,2,140,2|0|2,0:0|0:0|0:0,0:0:0:0:
476,360,84667,1,2,0:0:0:0:
500,193,85008,6,0,L|489:262,1,70,2|0,0:0|0:0,0:0:0:0:
406,246,85349,2,0,L|416:176,1,70,2|0,0:0|0:0,0:0:0:0:
469,111,85690,2,0,P|438:94|403:94,1,70,2|0,0:0|0:0,0:0:0:0:
346,31,86031,2,0,P|311:31|280:47,1,70,2|0,0:0|0:0,0:0:0:0:
231,116,86372,5,2,0:0:0:0:
63,103,86713,1,2,0:0:0:0:
136,254,87054,1,2,0:0:0:0:
152,86,87395,1,2,0:0:0:0:
57,223,87736,6,0,P|65:296|118:334,1,140,2|0,0:0|0:0,0:0:0:0:
269,268,88417,2,0,L|253:346,1,70,2|0,0:0|0:0,0:0:0:0:
337,352,88758,2,0,L|351:283,1,70,2|0,0:0|0:0,0:0:0:0:
371,201,89099,6,0,P|425:186|462:183,1,70,2|0,0:0|0:0,0:0:0:0:
484,113,89440,2,0,P|430:98|393:95,1,70,0|0,0:0|0:0,0:0:0:0:
334,116,89781,2,0,B|266:89|266:89|277:2,1,140,2|2,0:0|0:0,0:0:0:0:
241,187,90463,6,0,L|159:208,1,70,2|0,0:0|0:0,0:0:0:0:
119,269,90804,2,0,L|201:290,1,70,2|0,0:0|0:0,0:0:0:0:
251,340,91145,2,0,L|333:319,1,70,2|0,0:0|0:0,0:0:0:0:
380,264,91486,2,0,L|462:285,1,70,2|0,0:0|0:0,0:0:0:0:
494,211,91827,6,0,L|476:54,2,140,2|0|2,0:0|0:0|0:0,0:0:0:0:
400,350,92849,1,2,0:0:0:0:
270,243,93190,6,0,L|281:145,1,70,2|0,0:0|0:0,0:0:0:0:
330,107,93531,2,0,L|319:9,1,70,2|0,0:0|0:0,0:0:0:0:
242,9,93872,2,0,P|206:16|176:49,1,70,2|0,0:0|0:0,0:0:0:0:
137,109,94213,1,2,0:0:0:0:
225,251,94554,6,0,B|279:240|279:240|298:131,2,140,2|0|2,0:0|0:0|0:0,0:0:0:0:
73,176,95577,1,2,0:0:0:0:
23,336,95917,6,0,P|58:351|104:348,1,70,2|0,0:0|0:0,0:0:0:0:
155,299,96258,2,0,P|190:284|236:287,1,70,2|0,0:0|0:0,0:0:0:0:
287,336,96599,2,0,P|322:351|368:348,1,70,2|0,0:0|0:0,0:0:0:0:
419,299,96940,2,0,P|454:284|500:287,1,70,2|0,0:0|0:0,0:0:0:0:
467,365,97281,6,0,P|507:303|493:215,1,140,2|0,0:0|0:0,0:0:0:0:
398,108,97963,2,0,P|358:170|372:258,1,140,2|2,0:0|0:0,0:0:0:0:
467,365,98645,5,2,0:0:0:0:
500,33,99327,1,0,0:0:0:0:
500,33,99667,1,0,0:0:0:0:
346,102,100008,5,2,0:0:0:0:
282,46,100179,1,0,0:0:0:0:
243,120,100349,2,0,L|252:228,1,105,2|0,0:0|0:0,0:0:0:0:
235,248,100690,1,2,0:0:0:0:
90,333,101031,1,2,0:0:0:0:
51,257,101202,1,2,0:0:0:0:
109,196,101372,6,0,P|139:155|93:70,2,140,2|0|2,0:0|0:0|0:0,0:0:0:0:
238,304,102395,2,0,L|318:292,1,70,2|2,0:0|0:0,0:0:0:0:
369,349,102736,5,2,0:0:0:0:
420,282,102906,1,0,0:0:0:0:
359,222,103077,2,0,P|348:168|358:117,1,105,2|0,0:0|0:0,0:0:0:0:
368,97,103417,1,2,0:0:0:0:
210,38,103758,2,0,P|172:54|116:51,1,70,2|2,0:0|0:0,0:0:0:0:
64,27,104099,6,0,P|117:67|104:132,1,140,2|0,0:0|0:0,0:0:0:0:
22,279,104781,1,2,0:0:0:0:
185,242,105122,1,2,0:0:0:0:
131,306,105292,1,2,0:0:0:0:
214,319,105463,6,0,L|296:338,1,70,2|0,0:0|0:0,0:0:0:0:
365,350,105804,1,2,0:0:0:0:
313,190,106145,1,2,0:0:0:0:
476,227,106486,2,0,P|447:248|413:252,1,70,2|2,0:0|0:0,0:0:0:0:
414,167,106827,5,2,0:0:0:0:
252,121,107167,1,0,0:0:0:0:
373,5,107508,1,2,0:0:0:0:
328,166,107849,2,0,L|308:233,1,70,2|2,0:0|0:0,0:0:0:0:
280,312,108190,5,2,0:0:0:0:
200,285,108361,1,0,0:0:0:0:
128,328,108531,1,2,0:0:0:0:
28,192,108872,1,2,0:0:0:0:
122,52,109213,2,0,L|139:131,1,70,2|0,0:0|0:0,0:0:0:0:
215,150,109554,5,2,0:0:0:0:
480,355,110236,1,2,0:0:0:0:
378,221,110577,2,0,L|373:298,1,70,2|2,0:0|0:0,0:0:0:0:
309,345,110917,5,2,0:0:0:0:
233,310,111087,1,0,0:0:0:0:
267,233,111257,1,2,0:0:0:0:
236,67,111598,1,2,0:0:0:0:
152,215,111939,1,2,0:0:0:0:
152,215,112110,1,2,0:0:0:0:
152,215,112281,6,0,L|-13:236,2,140,2|0|2,0:0|0:0|0:0,0:0:0:0:
319,197,113303,2,0,L|304:118,1,70,2|2,0:0|0:0,0:0:0:0:
292,45,113644,5,2,0:0:0:0:
370,15,113814,1,0,0:0:0:0:
434,69,113985,1,2,0:0:0:0:
405,236,114326,1,2,0:0:0:0:
434,69,114667,2,0,L|342:51,1,70,2|2,0:0|0:0,0:0:0:0:
282,37,115008,6,0,B|317:69|317:69|296:184,2,140,2|0|2,0:0|0:0|0:0,0:0:0:0:
114,49,116031,2,0,L|23:61,1,70,2|2,0:0|0:0,0:0:0:0:
7,133,116371,5,2,0:0:0:0:
45,208,116542,1,0,0:0:0:0:
122,173,116712,1,2,0:0:0:0:
90,337,117053,1,2,0:0:0:0:
254,303,117394,2,0,L|336:315,1,70,2|2,0:0|0:0,0:0:0:0:
401,282,117736,6,0,L|387:114,2,140,2|0|2,0:0|0:0|0:0,0:0:0:0:
472,129,118758,2,0,L|464:36,1,70,2|2,0:0|0:0,0:0:0:0:
396,12,119098,5,2,0:0:0:0:
355,85,119269,1,0,0:0:0:0:
274,61,119439,1,2,0:0:0:0:
291,228,119780,1,2,0:0:0:0:
274,61,120121,2,0,L|191:47,1,70,2|2,0:0|0:0,0:0:0:0:
131,90,120462,5,2,0:0:0:0:
381,294,123190,5,2,0:0:0:0:
381,294,125236,5,0,0:0:0:0:
109,96,125917,6,0,L|116:177,1,70,2|2,0:0|0:0,0:0:0:0:
181,217,126258,2,0,P|220:201|230:171,1,70,0|2,0:0|0:0,0:0:0:0:
218,93,126599,1,2,0:0:0:0:
301,80,126770,1,2,0:0:0:0:
317,162,126940,2,0,L|329:236,1,70,2|2,0:0|0:0,0:0:0:0:
275,297,127281,5,2,0:0:0:0:
356,319,127452,1,2,0:0:0:0:
419,264,127622,2,0,P|428:230|419:196,1,70,2|2,0:0|0:0,0:0:0:0:
395,116,127963,1,2,0:0:0:0:
256,20,128304,1,2,0:0:0:0:
185,64,128474,1,2,0:0:0:0:
256,109,128645,6,0,B|276:183|238:172|255:246,1,140,2|2,0:0|0:0,0:0:0:0:
201,311,129156,1,2,0:0:0:0:
201,311,129327,2,0,P|136:300|106:358,1,140,2|2,0:0|0:0,0:0:0:0:
27,331,129838,1,2,0:0:0:0:
59,253,130008,6,0,L|45:184,1,70,2|0,0:0|0:0,0:0:0:0:
86,110,130349,2,0,L|72:41,1,70,2|0,0:0|0:0,0:0:0:0:
155,52,130690,2,0,P|219:61|228:126,1,140,2|0,0:0|0:0,0:0:0:0:
257,292,131372,5,2,0:0:0:0:
333,327,131542,1,2,0:0:0:0:
405,283,131713,2,0,L|399:199,1,70,2|2,0:0|0:0,0:0:0:0:
334,160,132054,2,0,L|338:90,1,70,2|0,0:0|0:0,0:0:0:0:
407,41,132395,1,2,0:0:0:0:
407,41,132565,1,0,0:0:0:0:
464,102,132736,6,0,P|478:139|462:177,1,70,2|2,0:0|0:0,0:0:0:0:
400,213,133077,1,2,0:0:0:0:
471,256,133247,1,2,0:0:0:0:
402,303,133417,2,0,B|323:298|350:352|272:340,1,140,2|2,0:0|0:0,0:0:0:0:
279,255,133929,1,2,0:0:0:0:
242,180,134099,6,0,P|193:226|203:292,1,140,2|2,0:0|0:0,0:0:0:0:
135,342,134611,1,2,0:0:0:0:
135,342,134781,2,0,L|-6:325,1,140,2|2,0:0|0:0,0:0:0:0:
37,252,135292,1,2,0:0:0:0:
37,252,135463,6,0,L|46:182,1,70,2|0,0:0|0:0,0:0:0:0:
30,99,135804,1,2,0:0:0:0:
170,190,136145,1,2,0:0:0:0:
313,102,136486,1,2,0:0:0:0:
362,262,136827,6,0,L|455:251,1,70,2|0,0:0|0:0,0:0:0:0:
496,199,137167,1,2,0:0:0:0:
496,199,137338,1,0,0:0:0:0:
446,131,137508,2,0,L|455:52,1,70,2|2,0:0|0:0,0:0:0:0:
370,49,137849,2,0,L|361:128,1,70,2|2,0:0|0:0,0:0:0:0:
355,205,138190,5,2,0:0:0:0:
355,205,138361,1,0,0:0:0:0:
275,232,138531,2,0,L|184:211,1,70,2|0,0:0|0:0,0:0:0:0:
127,243,138872,1,2,0:0:0:0:
9,123,139213,1,2,0:0:0:0:
57,54,139383,1,2,0:0:0:0:
138,77,139554,6,0,L|220:63,1,70,2|0,0:0|0:0,0:0:0:0:
256,133,139895,2,0,L|174:147,1,70,2|2,0:0|0:0,0:0:0:0:
134,210,140236,2,0,L|151:364,1,140,2|2,0:0|0:0,0:0:0:0:
230,324,140747,1,2,0:0:0:0:
303,363,140917,6,0,P|350:337|372:298,1,70,2|0,0:0|0:0,0:0:0:0:
394,252,141258,1,2,0:0:0:0:
394,252,141429,1,2,0:0:0:0:
394,252,141599,2,0,P|356:271|317:193,1,140,2|0,0:0|0:0,0:0:0:0:
344,38,142281,6,0,L|263:53,1,70,2|0,0:0|0:0,0:0:0:0:
194,27,142622,1,2,0:0:0:0:
45,106,142963,2,0,L|56:187,1,70,2|2,0:0|0:0,0:0:0:0:
103,243,143304,2,0,L|92:324,1,70,2|2,0:0|0:0,0:0:0:0:
159,372,143645,5,2,0:0:0:0:
159,372,143815,1,0,0:0:0:0:
232,331,143986,2,0,L|334:340,1,70,2|0,0:0|0:0,0:0:0:0:
377,300,144327,1,2,0:0:0:0:
259,195,144667,1,2,0:0:0:0:
259,195,144838,1,2,0:0:0:0:
259,195,145008,6,0,L|272:41,1,140,2|2,0:0|0:0,0:0:0:0:
355,64,145520,1,0,0:0:0:0:
348,147,145690,2,0,L|341:236,1,70,2|0,0:0|0:0,0:0:0:0:
340,304,146031,1,2,0:0:0:0:
340,304,146202,1,0,0:0:0:0:
264,340,146372,5,2,0:0:0:0:
112,268,146713,1,2,0:0:0:0:
112,268,146883,1,0,0:0:0:0:
112,268,147054,2,0,B|124:209|170:191|170:191|186:267|259:274,1,210,2|0,0:0|0:0,0:0:0:0:
306,222,147736,5,2,0:0:0:0:
379,261,147906,1,2,0:0:0:0:
452,219,148077,2,0,P|471:177|461:153,1,70,2|2,0:0|0:0,0:0:0:0:
426,81,148417,1,2,0:0:0:0:
344,104,148588,1,0,0:0:0:0:
269,66,148758,2,0,L|187:58,1,70,2|2,0:0|0:0,0:0:0:0:
127,14,149099,6,0,P|108:43|109:77,1,70,2|2,0:0|0:0,0:0:0:0:
167,138,149440,1,2,0:0:0:0:
167,138,149611,1,2,0:0:0:0:
127,211,149781,2,0,B|40:207|74:254|-1:254,1,140,2|2,0:0|0:0,0:0:0:0:
34,331,150292,1,0,0:0:0:0:
112,301,150463,6,0,P|169:312|244:348,1,140,2|2,0:0|0:0,0:0:0:0:
324,329,150974,1,2,0:0:0:0:
324,329,151145,2,0,P|346:282|282:232,1,140,2|2,0:0|0:0,0:0:0:0:
230,169,151656,1,2,0:0:0:0:
301,123,151827,6,0,P|335:129|368:141,1,70,2|0,0:0|0:0,0:0:0:0:
449,122,152167,2,0,P|455:87|467:54,1,70,2|0,0:0|0:0,0:0:0:0:
397,7,152508,2,0,B|345:13|345:13|311:29|311:29|261:35,1,140,2|2,0:0|0:0,0:0:0:0:
193,86,153020,1,2,0:0:0:0:
193,86,153190,6,0,P|164:55|111:52,1,70,2|2,0:0|0:0,0:0:0:0:
63,85,153531,2,0,P|50:125|74:173,1,70,2|2,0:0|0:0,0:0:0:0:
118,208,153872,1,2,0:0:0:0:
193,172,154042,1,0,0:0:0:0:
192,256,154213,2,0,P|209:280|225:317,1,70,2|0,0:0|0:0,0:0:0:0:
304,347,154554,6,0,P|321:299|341:275,1,70,2|0,0:0|0:0,0:0:0:0:
415,269,154895,2,0,P|440:292|458:322,1,70,2|2,0:0|0:0,0:0:0:0:
504,251,155236,2,0,P|457:200|387:187,1,140,2|2,0:0|0:0,0:0:0:0:
327,130,155747,1,0,0:0:0:0:
327,130,155917,6,0,B|303:61|303:61|370:30,1,140,2|0,0:0|0:0,0:0:0:0:
280,50,156429,1,0,0:0:0:0:
280,50,156599,2,0,B|225:62|252:93|193:104,1,105,2|0,0:0|0:0,0:0:0:0:
176,129,156940,2,0,P|123:114|95:123,1,70,2|2,0:0|0:0,0:0:0:0:
55,52,157281,6,0,L|67:191,1,140,2|2,0:0|0:0,0:0:0:0:
80,274,157792,1,2,0:0:0:0:
80,274,157963,1,2,0:0:0:0:
416,224,158645,5,2,0:0:0:0:
477,167,158815,1,2,0:0:0:0:
424,101,158986,2,0,L|346:113,1,70,2|0,0:0|0:0,0:0:0:0:
271,126,159327,1,2,0:0:0:0:
212,66,159497,1,2,0:0:0:0:
133,95,159667,2,0,L|55:83,1,70,2|2,0:0|0:0,0:0:0:0:
50,167,160008,6,0,L|128:179,1,70,2|0,0:0|0:0,0:0:0:0:
187,228,160349,1,2,0:0:0:0:
128,288,160520,1,2,0:0:0:0:
187,348,160690,2,0,P|253:333|313:328,1,105,2|0,0:0|0:0,0:0:0:0:
328,345,161031,2,0,P|380:357|423:364,1,70,2|2,0:0|0:0,0:0:0:0:
477,337,161372,6,0,B|503:296|503:296|480:195,1,140,2|2,0:0|0:0,0:0:0:0:
460,125,161883,1,2,0:0:0:0:
391,174,162054,2,0,P|338:159|316:92,1,93.3333333333333,2|2,0:0|0:0,0:0:0:0:
343,78,162395,2,0,P|358:42|352:8,1,70,2|2,0:0|0:0,0:0:0:0:
271,31,162736,6,0,P|213:19|112:24,1,140,2|2,0:0|0:0,0:0:0:0:
55,49,163247,1,2,0:0:0:0:
55,49,163417,2,0,P|102:60|106:132,1,105,2|0,0:0|0:0,0:0:0:0:
95,145,163758,2,0,P|52:143|2:174,1,70,2|0,0:0|0:0,0:0:0:0:
69,227,164099,5,2,0:0:0:0:
138,179,164270,1,2,0:0:0:0:
197,237,164440,2,0,L|188:321,1,70,0|2,0:0|0:0,0:0:0:0:
249,365,164781,1,2,0:0:0:0:
318,316,164952,1,2,0:0:0:0:
399,336,165122,2,0,L|474:324,1,70,2|2,0:0|0:0,0:0:0:0:
511,252,165463,6,0,P|473:223|426:221,1,70,2|0,0:0|0:0,0:0:0:0:
370,240,165804,1,2,0:0:0:0:
307,184,165974,1,2,0:0:0:0:
353,114,166145,2,0,L|338:-2,1,105,2|0,0:0|0:0,0:0:0:0:
303,32,166486,2,0,L|201:18,1,70,2|2,0:0|0:0,0:0:0:0:
157,57,166827,6,0,P|163:108|254:107,1,140,2|0,0:0|0:0,0:0:0:0:
307,71,167338,1,0,0:0:0:0:
370,126,167508,2,0,L|498:111,1,105,2|0,0:0|0:0,0:0:0:0:
509,137,167849,2,0,P|507:192|494:214,1,70,0|0,0:0|0:0,0:0:0:0:
423,237,168190,6,0,P|362:189|291:187,1,140,2|0,0:0|0:0,0:0:0:0:
219,204,168702,1,0,0:0:0:0:
228,287,168872,2,0,L|237:367,1,70,2|0,0:0|0:0,0:0:0:0:
152,366,169213,2,0,L|143:286,1,70,2|2,0:0|0:0,0:0:0:0:
91,230,169554,5,2,0:0:0:0:
20,275,169724,1,0,0:0:0:0:
12,191,169895,1,2,0:0:0:0:
179,181,170236,1,2,0:0:0:0:
346,168,170577,2,0,L|421:191,1,70,2|2,0:0|0:0,0:0:0:0:
490,221,170917,6,0,P|498:154|445:115,1,140,2|0,0:0|0:0,0:0:0:0:
295,38,171599,2,0,B|216:35|242:87|169:89,1,140,2|2,0:0|0:0,0:0:0:0:
93,52,172111,1,2,0:0:0:0:
104,134,172281,6,0,L|86:211,1,70,2|0,0:0|0:0,0:0:0:0:
114,282,172622,1,2,0:0:0:0:
254,373,172963,1,2,0:0:0:0:
394,281,173304,1,2,0:0:0:0:
348,210,173474,1,2,0:0:0:0:
296,276,173645,6,0,P|306:203|299:127,1,140,2|0,0:0|0:0,0:0:0:0:
148,65,174327,2,0,B|223:69|198:23|277:24,1,140,2|2,0:0|0:0,0:0:0:0:
361,19,174838,1,2,0:0:0:0:
444,12,175008,6,0,L|428:99,1,70,2|0,0:0|0:0,0:0:0:0:
462,159,175349,1,2,0:0:0:0:
383,307,175690,1,2,0:0:0:0:
290,166,176031,1,2,0:0:0:0:
373,160,176202,1,2,0:0:0:0:
331,233,176372,6,0,P|288:284|305:350,2,140,2|0|2,0:0|0:0|0:0,0:0:0:0:
170,281,177395,2,0,L|91:266,1,70,2|2,0:0|0:0,0:0:0:0:
18,252,177736,5,2,0:0:0:0:
76,191,177906,1,0,0:0:0:0:
42,113,178077,1,2,0:0:0:0:
203,68,178417,1,2,0:0:0:0:
353,141,178758,2,0,P|392:158|431:160,1,70,2|0,0:0|0:0,0:0:0:0:
500,139,179099,5,2,0:0:0:0:
255,369,179781,1,2,0:0:0:0:
179,218,180122,2,0,L|185:144,1,70,2|2,0:0|0:0,0:0:0:0:
195,64,180463,5,2,0:0:0:0:
277,76,180633,1,0,0:0:0:0:
268,159,180803,1,2,0:0:0:0:
89,107,181145,1,2,0:0:0:0:
118,280,181485,1,2,0:0:0:0:
118,280,181656,1,2,0:0:0:0:
118,280,181827,6,0,P|85:220|20:238,2,140,2|0|2,0:0|0:0|0:0,0:0:0:0:
261,368,182849,2,0,L|358:356,1,70,2|2,0:0|0:0,0:0:0:0:
414,348,183190,5,2,0:0:0:0:
478,295,183360,1,0,0:0:0:0:
435,223,183531,1,2,0:0:0:0:
274,271,183872,1,2,0:0:0:0:
274,102,184213,2,0,L|200:114,1,70,2|2,0:0|0:0,0:0:0:0:
141,168,184554,6,0,P|158:105|104:24,2,140,2|0|2,0:0|0:0|0:0,0:0:0:0:
32,296,185577,2,0,P|75:281|127:280,1,70,2|2,0:0|0:0,0:0:0:0:
181,291,185917,5,2,0:0:0:0:
243,347,186088,1,0,0:0:0:0:
319,313,186258,1,2,0:0:0:0:
162,373,186599,1,2,0:0:0:0:
261,237,186940,2,0,L|273:155,1,70,2|2,0:0|0:0,0:0:0:0:
285,84,187281,6,0,L|430:49,2,140,2|0|2,0:0|0:0|0:0,0:0:0:0:
121,124,188304,2,0,L|39:104,1,70,2|2,0:0|0:0,0:0:0:0:
24,28,188644,5,2,0:0:0:0:
106,9,188815,1,0,0:0:0:0:
177,52,188985,1,2,0:0:0:0:
69,188,189326,1,2,0:0:0:0:
235,212,189667,2,0,L|246:298,1,70,2|0,0:0|0:0,0:0:0:0:
254,365,190008,5,2,0:0:0:0:
288,32,190690,1,2,0:0:0:0:
