osu file format v14

[General]
AudioFilename: audio.mp3
AudioLeadIn: 0
PreviewTime: 56372
Countdown: 0
SampleSet: Soft
StackLeniency: 0.5
Mode: 0
LetterboxInBreaks: 0
WidescreenStoryboard: 0

[Editor]
Bookmarks: 1827,12736,23645,34554,45463,56372,67281,78190,89099,100008,110917,125917,136827,147736,158645,169554,180463,190690
DistanceSpacing: 1.1
BeatDivisor: 4
GridSize: 32
TimelineZoom: 2

[Metadata]
Title:Shijima ni Saku
TitleUnicode:静寂に咲く
Artist:MIMI
ArtistUnicode:MIMI
Creator:eiri-
Version:Advanced
Source:osu!
Tags:Ayyri Trynna Hatsune Miku feat. 初音ミク Featured Artist FA Japanese Novelty Piano Vocaloid
BeatmapID:2421316
BeatmapSetID:1159718

[Difficulty]
HPDrainRate:4.5
CircleSize:3.5
OverallDifficulty:5
ApproachRate:6
SliderMultiplier:1.2
SliderTickRate:1

[Events]
//Background and Video events
0,0,"Miku 587.jpg",0,0
//Break Periods
//Storyboard Layer 0 (Background)
//Storyboard Layer 1 (Fail)
//Storyboard Layer 2 (Pass)
//Storyboard Layer 3 (Foreground)
//Storyboard Layer 4 (Overlay)
//Storyboard Sound Samples

[TimingPoints]
1827,340.909090909091,4,2,1,50,1,0

[Colours]
Combo1 : 117,236,236
Combo2 : 114,177,248
Combo3 : 184,125,249
Combo4 : 249,147,221
Combo5 : 248,131,134
Combo6 : 244,227,111

[HitObjects]
384,320,1827,6,0,L|374:253,1,60,2|0,0:0|0:0,0:0:0:0:
389,202,2167,1,2,0:0:0:0:
275,239,2508,1,2,0:0:0:0:
173,174,2849,2,0,L|93:165,1,60,2|2,0:0|0:0,0:0:0:0:
55,183,3190,5,2,0:0:0:0:
18,68,3531,1,0,0:0:0:0:
120,5,3872,1,2,0:0:0:0:
235,65,4213,1,2,0:0:0:0:
235,65,4383,1,2,0:0:0:0:
235,65,4554,6,0,L|315:56,1,60,2|0,0:0|0:0,0:0:0:0:
346,88,4895,1,2,0:0:0:0:
450,28,5236,1,2,0:0:0:0:
490,141,5577,2,0,L|483:214,1,60,2|2,0:0|0:0,0:0:0:0:
501,258,5917,5,2,0:0:0:0:
412,339,6258,1,0,0:0:0:0:
330,251,6599,1,2,0:0:0:0:
218,270,6940,1,2,0:0:0:0:
218,270,7111,1,2,0:0:0:0:
218,270,7281,6,0,L|209:200,1,60,2|0,0:0|0:0,0:0:0:0:
228,152,7622,1,2,0:0:0:0:
205,34,7963,1,2,0:0:0:0:
88,64,8304,2,0,L|11:53,1,60,2|2,0:0|0:0,0:0:0:0:
9,112,8645,5,2,0:0:0:0:
96,192,8986,1,0,0:0:0:0:
206,144,9327,1,2,0:0:0:0:
314,216,9667,1,2,0:0:0:0:
314,216,9838,1,2,0:0:0:0:
314,216,10008,6,0,L|330:141,1,60,2|0,0:0|0:0,0:0:0:0:
318,97,10349,1,2,0:0:0:0:
434,66,10690,1,2,0:0:0:0:
481,176,11031,2,0,L|465:251,1,60,2|0,0:0|0:0,0:0:0:0:
480,293,11372,5,2,0:0:0:0:
269,176,12054,1,2,0:0:0:0:
210,283,12395,1,2,0:0:0:0:
210,283,12565,1,2,0:0:0:0:
210,283,12736,6,0,L|214:346,1,60,2|0,0:0|0:0,0:0:0:0:
164,377,13077,1,2,0:0:0:0:
48,347,13417,1,2,0:0:0:0:
85,235,13758,2,0,L|70:162,1,60,2|2,0:0|0:0,0:0:0:0:
100,122,14099,6,0,B|161:117|148:162|214:157,1,120,2|0,0:0|0:0,0:0:0:0:
325,195,14781,1,2,0:0:0:0:
404,104,15122,2,0,L|399:25,1,60,2|2,0:0|0:0,0:0:0:0:
354,13,15463,5,2,0:0:0:0:
354,13,15633,1,0,0:0:0:0:
354,13,15804,1,2,0:0:0:0:
239,49,16145,1,2,0:0:0:0:
125,88,16486,1,2,0:0:0:0:
125,88,16656,1,2,0:0:0:0:
125,88,16827,2,0,P|89:108|95:188,1,120,2|0,0:0|0:0,0:0:0:0:
50,292,17508,1,2,0:0:0:0:
161,335,17849,2,0,L|218:319,1,60,2|2,0:0|0:0,0:0:0:0:
265,358,18190,6,0,L|322:373,1,60,2|0,0:0|0:0,0:0:0:0:
380,355,18531,1,2,0:0:0:0:
342,240,18872,1,2,0:0:0:0:
379,126,19213,2,0,L|391:61,1,60,2|2,0:0|0:0,0:0:0:0:
429,21,19554,5,2,0:0:0:0:
308,21,19895,1,0,0:0:0:0:
188,24,20236,1,2,0:0:0:0:
245,129,20577,1,2,0:0:0:0:
245,129,20747,1,2,0:0:0:0:
245,129,20917,6,0,L|230:207,1,60,2|0,0:0|0:0,0:0:0:0:
259,242,21258,1,2,0:0:0:0:
177,330,21599,2,0,P|151:286|67:292,1,120,2|2,0:0|0:0,0:0:0:0:
30,301,22111,1,0,0:0:0:0:
30,301,22281,6,0,L|36:153,1,120,2|0,0:0|0:0,0:0:0:0:
37,60,22963,2,0,B|101:62|83:102|145:103,1,120,2|0,0:0|0:0,0:0:0:0:
265,114,23645,6,0,P|298:99|319:77,1,60,2|0,0:0|0:0,0:0:0:0:
342,29,23986,2,0,P|380:31|421:46,1,60,2|2,0:0|0:0,0:0:0:0:
449,72,24327,2,0,L|431:206,1,120,2|2,0:0|0:0,0:0:0:0:
416,309,25008,6,0,B|490:297|490:297|502:365,2,120,2|0|2,0:0|0:0|0:0,0:0:0:0:
301,347,26031,1,2,0:0:0:0:
301,347,26202,1,2,0:0:0:0:
301,347,26372,6,0,L|230:334,1,60,2|0,0:0|0:0,0:0:0:0:
198,294,26713,2,0,L|127:307,1,60,2|0,0:0|0:0,0:0:0:0:
87,335,27054,2,0,P|39:307|37:237,1,120,2|2,0:0|0:0,0:0:0:0:
66,197,27565,1,0,0:0:0:0:
66,197,27736,6,0,L|49:68,2,120,2|0|2,0:0|0:0|0:0,0:0:0:0:
236,366,29099,6,0,P|291:349|308:336,1,60,2|0,0:0|0:0,0:0:0:0:
338,308,29440,2,0,P|298:265|290:246,1,60,2|2,0:0|0:0,0:0:0:0:
307,211,29781,1,2,0:0:0:0:
307,211,29952,1,0,0:0:0:0:
307,211,30122,2,0,L|381:204,1,60,2|2,0:0|0:0,0:0:0:0:
420,232,30463,6,0,B|468:196|468:196|460:123,2,120,2|0|2,0:0|0:0|0:0,0:0:0:0:
382,128,31486,1,2,0:0:0:0:
382,128,31656,1,2,0:0:0:0:
382,128,31827,6,0,L|393:60,1,60,2|2,0:0|0:0,0:0:0:0:
371,12,32167,2,0,L|298:24,1,60,2|0,0:0|0:0,0:0:0:0:
265,60,32508,1,2,0:0:0:0:
151,21,32849,2,0,L|166:89,1,60,2|2,0:0|0:0,0:0:0:0:
151,138,33190,5,2,0:0:0:0:
367,242,33872,1,2,0:0:0:0:
480,30,34554,6,0,L|465:94,1,60,2|2,0:0|0:0,0:0:0:0:
412,115,34895,2,0,L|352:99,1,60,2|2,0:0|0:0,0:0:0:0:
308,68,35236,1,2,0:0:0:0:
308,68,35406,2,0,P|285:87|277:116,1,60,0|2,0:0|0:0,0:0:0:0:
232,155,35747,1,2,0:0:0:0:
232,155,35917,2,0,B|171:162|189:202|127:207,2,120,2|0|2,0:0|0:0|0:0,0:0:0:0:
345,194,36940,2,0,L|407:212,1,60,2|2,0:0|0:0,0:0:0:0:
436,260,37281,6,0,L|418:328,1,60,2|2,0:0|0:0,0:0:0:0:
367,346,37622,2,0,L|299:328,1,60,2|2,0:0|0:0,0:0:0:0:
272,282,37963,1,2,0:0:0:0:
272,282,38133,2,0,L|197:306,1,60,0|2,0:0|0:0,0:0:0:0:
179,348,38474,1,0,0:0:0:0:
179,348,38645,2,0,P|141:321|60:322,1,120,2|0,0:0|0:0,0:0:0:0:
21,207,39327,1,2,0:0:0:0:
205,54,40008,6,0,L|211:123,1,60,2|2,0:0|0:0,0:0:0:0:
254,154,40349,2,0,L|323:148,1,60,2|2,0:0|0:0,0:0:0:0:
362,114,40690,1,2,0:0:0:0:
362,114,40861,1,0,0:0:0:0:
362,114,41031,2,0,L|431:122,1,60,2|0,0:0|0:0,0:0:0:0:
478,100,41372,2,0,P|491:157|466:211,2,120,2|0|2,0:0|0:0|0:0,0:0:0:0:
388,19,42395,2,0,L|314:29,1,60,2|2,0:0|0:0,0:0:0:0:
281,64,42736,6,0,L|220:52,2,60,2|2|2,0:0|0:0|0:0,0:0:0:0:
316,112,43247,1,0,0:0:0:0:
316,112,43417,2,0,L|301:199,1,60,2|2,0:0|0:0,0:0:0:0:
328,226,43758,2,0,L|313:313,1,60,2|2,0:0|0:0,0:0:0:0:
341,340,44099,6,0,B|215:373|268:251|125:275,1,240,2|0,0:0|0:0,0:0:0:0:
346,179,45463,6,0,L|336:112,1,60,2|0,0:0|0:0,0:0:0:0:
351,62,45803,1,2,0:0:0:0:
239,16,46144,1,2,0:0:0:0:
149,96,46485,2,0,L|69:87,1,60,2|2,0:0|0:0,0:0:0:0:
31,105,46826,5,2,0:0:0:0:
92,208,47167,1,0,0:0:0:0:
208,180,47508,1,2,0:0:0:0:
291,281,47849,1,2,0:0:0:0:
291,281,48019,1,2,0:0:0:0:
291,281,48190,6,0,L|371:272,1,60,2|0,0:0|0:0,0:0:0:0:
402,304,48531,1,2,0:0:0:0:
489,221,48872,1,2,0:0:0:0:
423,120,49213,2,0,L|416:47,1,60,2|2,0:0|0:0,0:0:0:0:
434,3,49553,5,2,0:0:0:0:
325,55,49894,1,0,0:0:0:0:
207,31,50235,1,2,0:0:0:0:
140,133,50576,1,2,0:0:0:0:
140,133,50747,1,0,0:0:0:0:
140,133,50917,6,0,L|70:124,1,60,2|0,0:0|0:0,0:0:0:0:
22,143,51258,1,2,0:0:0:0:
109,225,51599,1,2,0:0:0:0:
70,338,51940,2,0,L|147:327,1,60,2|2,0:0|0:0,0:0:0:0:
181,359,52281,5,2,0:0:0:0:
256,265,52622,1,0,0:0:0:0:
369,304,52963,1,2,0:0:0:0:
418,199,53303,1,2,0:0:0:0:
418,199,53474,1,2,0:0:0:0:
418,199,53644,6,0,L|434:124,1,60,2|0,0:0|0:0,0:0:0:0:
422,80,53985,1,2,0:0:0:0:
306,113,54326,1,2,0:0:0:0:
202,52,54667,2,0,L|135:66,1,60,2|0,0:0|0:0,0:0:0:0:
107,112,55008,5,2,0:0:0:0:
186,338,55690,1,2,0:0:0:0:
391,214,56372,6,0,L|461:226,1,60,2|2,0:0|0:0,0:0:0:0:
496,187,56713,2,0,P|501:157|494:128,1,60,2|2,0:0|0:0,0:0:0:0:
463,82,57054,1,2,0:0:0:0:
463,82,57224,1,2,0:0:0:0:
463,82,57395,2,0,L|387:91,1,60,0|2,0:0|0:0,0:0:0:0:
358,128,57736,2,0,L|233:111,2,120,2|0|2,0:0|0:0|0:0,0:0:0:0:
276,232,58758,2,0,L|265:301,1,60,2|2,0:0|0:0,0:0:0:0:
220,329,59099,6,0,L|156:323,1,60,2|2,0:0|0:0,0:0:0:0:
120,278,59440,2,0,L|126:214,1,60,2|0,0:0|0:0,0:0:0:0:
89,170,59781,1,2,0:0:0:0:
89,170,59952,2,0,P|59:173|35:190,2,60,2|0|0,0:0|0:0|0:0,0:0:0:0:
138,136,60463,2,0,P|181:126|186:56,1,120,2|0,0:0|0:0,0:0:0:0:
315,21,61145,1,2,0:0:0:0:
295,260,61827,6,0,L|301:328,1,60,2|2,0:0|0:0,0:0:0:0:
352,349,62167,2,0,P|382:352|411:343,1,60,2|2,0:0|0:0,0:0:0:0:
458,307,62508,1,2,0:0:0:0:
458,307,62679,2,0,L|452:247,1,60,0|2,0:0|0:0,0:0:0:0:
477,192,63020,1,0,0:0:0:0:
477,192,63190,2,0,P|417:165|352:180,1,120,2|0,0:0|0:0,0:0:0:0:
246,231,63872,1,2,0:0:0:0:
246,231,64042,2,0,L|172:227,1,60,2|2,0:0|0:0,0:0:0:0:
139,188,64383,1,2,0:0:0:0:
139,188,64554,6,0,L|79:191,2,60,2|0|2,0:0|0:0|0:0,0:0:0:0:
186,142,65065,1,2,0:0:0:0:
186,142,65236,2,0,L|176:60,1,60,2|0,0:0|0:0,0:0:0:0:
225,36,65577,2,0,L|307:26,1,60,2|2,0:0|0:0,0:0:0:0:
331,73,65917,6,0,B|369:145|340:228|340:228|298:217|261:230,1,240,2|2,0:0|0:0,0:0:0:0:
27,353,67281,6,0,P|15:319|16:288,1,60,2|0,0:0|0:0,0:0:0:0:
45,240,67622,1,2,0:0:0:0:
45,240,67792,1,2,0:0:0:0:
45,240,67963,2,0,P|84:258|174:229,1,120,2|2,0:0|0:0,0:0:0:0:
210,203,68474,1,2,0:0:0:0:
210,203,68645,6,0,L|201:330,2,120,2|0|2,0:0|0:0|0:0,0:0:0:0:
179,74,69667,2,0,P|209:50|240:37,1,60,2|0,0:0|0:0,0:0:0:0:
294,66,70008,5,2,0:0:0:0:
294,66,70179,2,0,L|302:136,1,60,2|2,0:0|0:0,0:0:0:0:
340,178,70520,1,2,0:0:0:0:
471,148,70861,1,2,0:0:0:0:
471,148,71031,2,0,L|463:218,1,60,2|2,0:0|0:0,0:0:0:0:
428,263,71372,6,0,P|387:237|304:216,2,120,2|0|2,0:0|0:0|0:0,0:0:0:0:
180,356,72736,6,0,L|187:281,1,60,2|0,0:0|0:0,0:0:0:0:
182,238,73077,1,2,0:0:0:0:
182,238,73247,1,2,0:0:0:0:
182,238,73417,2,0,P|134:223|51:209,1,120,2|2,0:0|0:0,0:0:0:0:
5,232,73929,1,2,0:0:0:0:
5,232,74099,6,0,L|-2:84,2,120,2|0|2,0:0|0:0|0:0,0:0:0:0:
13,364,75122,2,0,L|83:347,1,60,2|2,0:0|0:0,0:0:0:0:
135,367,75463,5,2,0:0:0:0:
135,367,75633,1,0,0:0:0:0:
135,367,75804,2,0,P|160:322|163:298,1,60,2|2,0:0|0:0,0:0:0:0:
157,248,76145,2,0,P|132:203|129:179,1,60,2|0,0:0|0:0,0:0:0:0:
120,129,76486,2,0,L|128:58,1,60,2|2,0:0|0:0,0:0:0:0:
170,19,76827,5,2,0:0:0:0:
415,113,77508,1,0,0:0:0:0:
449,240,77849,1,0,0:0:0:0:
338,312,78190,6,0,L|266:326,1,60,2|0,0:0|0:0,0:0:0:0:
224,286,78531,2,0,L|149:270,1,60,2|0,0:0|0:0,0:0:0:0:
104,300,78872,1,2,0:0:0:0:
138,172,79213,1,2,0:0:0:0:
82,52,79554,2,0,P|31:82|13:138,2,120,2|2|2,0:0|0:0|0:0,0:0:0:0:
214,62,80577,1,2,0:0:0:0:
324,131,80917,6,0,P|348:111|374:98,1,60,2|0,0:0|0:0,0:0:0:0:
435,124,81258,1,2,0:0:0:0:
354,228,81599,2,0,B|292:245|297:203|236:218,1,120,2|2,0:0|0:0,0:0:0:0:
147,315,82281,1,2,0:0:0:0:
270,362,82622,1,2,0:0:0:0:
392,312,82963,2,0,L|462:300,1,60,2|0,0:0|0:0,0:0:0:0:
509,332,83304,1,2,0:0:0:0:
459,209,83645,6,0,L|469:144,1,60,2|0,0:0|0:0,0:0:0:0:
421,102,83986,2,0,L|356:92,1,60,0|0,0:0|0:0,0:0:0:0:
303,124,84327,1,2,0:0:0:0:
200,40,84667,1,2,0:0:0:0:
110,137,85008,2,0,L|121:259,1,120,2|2,0:0|0:0,0:0:0:0:
232,327,85690,2,0,P|285:304|288:240,1,120,2|2,0:0|0:0,0:0:0:0:
245,207,86202,1,0,0:0:0:0:
245,207,86372,6,0,L|236:130,1,60,2|0,0:0|0:0,0:0:0:0:
281,97,86713,2,0,L|287:37,1,60,2|0,0:0|0:0,0:0:0:0:
345,4,87054,1,2,0:0:0:0:
442,93,87395,1,2,0:0:0:0:
388,213,87736,2,0,B|392:262|392:262|401:281|401:281|403:330,1,120,2|0,0:0|0:0,0:0:0:0:
272,348,88417,1,2,0:0:0:0:
192,242,88758,1,2,0:0:0:0:
284,147,89099,6,0,P|300:114|302:79,1,60,2|0,0:0|0:0,0:0:0:0:
270,33,89440,2,0,P|221:28|193:18,1,60,0|0,0:0|0:0,0:0:0:0:
147,6,89781,2,0,P|157:85|159:134,1,120,2|2,0:0|0:0,0:0:0:0:
73,226,90463,2,0,B|32:203|32:203|8:117,2,120,2|2|2,0:0|0:0|0:0,0:0:0:0:
192,282,91486,1,2,0:0:0:0:
301,207,91827,6,0,L|376:219,1,60,2|0,0:0|0:0,0:0:0:0:
407,262,92167,2,0,L|482:250,1,60,0|0,0:0|0:0,0:0:0:0:
505,199,92508,2,0,P|500:126|483:60,1,120,2|2,0:0|0:0,0:0:0:0:
368,26,93190,2,0,L|298:42,1,60,2|0,0:0|0:0,0:0:0:0:
265,88,93531,2,0,L|195:104,1,60,2|0,0:0|0:0,0:0:0:0:
144,77,93872,2,0,L|58:60,1,60,2|0,0:0|0:0,0:0:0:0:
34,108,94213,1,2,0:0:0:0:
100,221,94554,6,0,L|85:342,2,120,2|0|2,0:0|0:0|0:0,0:0:0:0:
179,115,95577,1,2,0:0:0:0:
284,194,95917,2,0,P|326:183|354:181,1,60,2|0,0:0|0:0,0:0:0:0:
390,226,96258,2,0,P|432:237|460:239,1,60,2|0,0:0|0:0,0:0:0:0:
507,209,96599,2,0,P|502:160|482:69,1,120,2|2,0:0|0:0,0:0:0:0:
376,19,97281,6,0,L|239:11,1,120,2|0,0:0|0:0,0:0:0:0:
167,110,97963,2,0,L|304:102,1,120,2|2,0:0|0:0,0:0:0:0:
384,192,98645,5,2,0:0:0:0:
178,358,99327,1,0,0:0:0:0:
83,266,99667,1,0,0:0:0:0:
151,152,100008,5,2,0:0:0:0:
151,152,100179,1,0,0:0:0:0:
151,152,100349,1,2,0:0:0:0:
274,198,100690,1,2,0:0:0:0:
392,139,101031,2,0,L|393:72,1,60,2|2,0:0|0:0,0:0:0:0:
444,36,101372,6,0,P|496:45|529:116,1,120,2|0,0:0|0:0,0:0:0:0:
472,218,102054,2,0,B|463:266|463:266|476:338,1,120,2|2,0:0|0:0,0:0:0:0:
422,373,102565,1,2,0:0:0:0:
422,373,102736,6,0,L|352:350,1,60,2|0,0:0|0:0,0:0:0:0:
300,368,103077,1,2,0:0:0:0:
255,244,103417,1,2,0:0:0:0:
314,126,103758,2,0,L|326:65,1,60,2|2,0:0|0:0,0:0:0:0:
287,12,104099,6,0,P|237:21|215:84,1,120,2|0,0:0|0:0,0:0:0:0:
91,129,104781,1,2,0:0:0:0:
39,250,105122,2,0,L|46:317,1,60,2|2,0:0|0:0,0:0:0:0:
111,347,105463,5,2,0:0:0:0:
111,347,105633,1,0,0:0:0:0:
111,347,105804,2,0,L|188:331,1,60,2|0,0:0|0:0,0:0:0:0:
220,292,106145,2,0,L|336:323,1,120,2|2,0:0|0:0,0:0:0:0:
396,296,106656,1,2,0:0:0:0:
396,296,106827,5,2,0:0:0:0:
487,200,107167,1,0,0:0:0:0:
359,160,107508,1,2,0:0:0:0:
392,32,107849,2,0,L|449:47,1,60,2|2,0:0|0:0,0:0:0:0:
485,115,108190,5,2,0:0:0:0:
485,115,108361,1,0,0:0:0:0:
485,115,108531,1,2,0:0:0:0:
359,160,108872,1,2,0:0:0:0:
238,214,109213,2,0,L|176:195,1,60,2|0,0:0|0:0,0:0:0:0:
115,208,109554,5,2,0:0:0:0:
371,270,110236,1,2,0:0:0:0:
115,208,110917,6,0,L|105:141,1,60,2|0,0:0|0:0,0:0:0:0:
120,91,111257,1,2,0:0:0:0:
239,35,111598,1,2,0:0:0:0:
354,99,111940,2,0,L|434:90,1,60,2|2,0:0|0:0,0:0:0:0:
472,108,112280,5,2,0:0:0:0:
452,238,112621,1,0,0:0:0:0:
322,213,112962,1,2,0:0:0:0:
225,301,113303,1,2,0:0:0:0:
225,301,113473,1,2,0:0:0:0:
225,301,113644,6,0,L|145:292,1,60,2|0,0:0|0:0,0:0:0:0:
114,324,113985,1,2,0:0:0:0:
20,230,114326,1,2,0:0:0:0:
111,135,114667,2,0,L|104:62,1,60,2|2,0:0|0:0,0:0:0:0:
122,18,115007,5,2,0:0:0:0:
231,91,115348,1,0,0:0:0:0:
347,29,115689,1,2,0:0:0:0:
369,167,116030,1,2,0:0:0:0:
369,167,116201,1,2,0:0:0:0:
369,167,116371,6,0,L|378:237,1,60,2|0,0:0|0:0,0:0:0:0:
359,285,116712,1,2,0:0:0:0:
456,373,117053,1,2,0:0:0:0:
509,251,117395,2,0,L|500:181,1,60,2|2,0:0|0:0,0:0:0:0:
492,126,117735,5,2,0:0:0:0:
404,27,118076,1,0,0:0:0:0:
292,97,118417,1,2,0:0:0:0:
177,55,118757,1,2,0:0:0:0:
177,55,118928,1,2,0:0:0:0:
177,55,119099,6,0,L|101:68,1,60,2|0,0:0|0:0,0:0:0:0:
73,114,119439,1,2,0:0:0:0:
178,192,119780,1,2,0:0:0:0:
69,267,120121,2,0,L|85:342,1,60,2|2,0:0|0:0,0:0:0:0:
131,368,120462,5,2,0:0:0:0:
381,16,123190,5,2,0:0:0:0:
381,16,125236,5,0,0:0:0:0:
419,276,125917,6,0,L|409:216,1,60,2|2,0:0|0:0,0:0:0:0:
347,193,126258,2,0,P|307:208|297:230,1,60,0|2,0:0|0:0,0:0:0:0:
267,279,126599,2,0,L|277:350,2,60,2|2|2,0:0|0:0|0:0,0:0:0:0:
207,248,127111,1,2,0:0:0:0:
207,248,127281,6,0,P|167:262|129:283,1,60,2|2,0:0|0:0,0:0:0:0:
106,318,127622,2,0,P|78:305|50:296,1,60,2|2,0:0|0:0,0:0:0:0:
24,235,127963,1,2,0:0:0:0:
107,132,128304,2,0,L|109:70,1,60,2|2,0:0|0:0,0:0:0:0:
154,23,128645,6,0,P|185:30|219:106,1,120,2|2,0:0|0:0,0:0:0:0:
272,143,129156,1,2,0:0:0:0:
272,143,129327,1,2,0:0:0:0:
387,80,129667,2,0,L|461:73,1,60,2|2,0:0|0:0,0:0:0:0:
497,116,130008,6,0,L|502:179,1,60,2|0,0:0|0:0,0:0:0:0:
456,223,130349,2,0,L|393:224,1,60,2|0,0:0|0:0,0:0:0:0:
347,268,130690,1,2,0:0:0:0:
239,344,131031,1,0,0:0:0:0:
148,244,131372,6,0,P|149:215|160:187,1,60,2|2,0:0|0:0,0:0:0:0:
209,143,131713,2,0,P|208:113|197:85,1,60,2|2,0:0|0:0,0:0:0:0:
231,28,132054,2,0,L|290:34,2,60,2|0|2,0:0|0:0|0:0,0:0:0:0:
173,6,132565,1,0,0:0:0:0:
173,6,132736,6,0,P|146:19|128:43,1,60,2|2,0:0|0:0,0:0:0:0:
69,73,133077,2,0,P|67:102|79:129,1,60,2|2,0:0|0:0,0:0:0:0:
60,193,133417,1,2,0:0:0:0:
90,321,133758,1,2,0:0:0:0:
90,321,133929,1,2,0:0:0:0:
90,321,134099,6,0,B|155:311|141:360|200:355,1,120,2|2,0:0|0:0,0:0:0:0:
253,316,134611,1,2,0:0:0:0:
253,316,134781,2,0,P|243:251|251:188,1,120,2|2,0:0|0:0,0:0:0:0:
297,152,135292,1,2,0:0:0:0:
297,152,135463,5,2,0:0:0:0:
421,196,135804,1,2,0:0:0:0:
461,70,136145,1,2,0:0:0:0:
337,26,136486,1,2,0:0:0:0:
217,81,136827,6,0,L|141:70,1,60,2|0,0:0|0:0,0:0:0:0:
106,109,137167,1,2,0:0:0:0:
106,109,137338,1,0,0:0:0:0:
106,109,137508,2,0,L|114:189,1,60,2|2,0:0|0:0,0:0:0:0:
94,232,137849,1,2,0:0:0:0:
169,340,138190,6,0,P|203:327|238:330,1,60,2|0,0:0|0:0,0:0:0:0:
287,351,138531,2,0,L|428:330,1,120,2|2,0:0|0:0,0:0:0:0:
510,250,139213,1,2,0:0:0:0:
510,250,139383,1,2,0:0:0:0:
510,250,139554,6,0,L|501:182,1,60,2|0,0:0|0:0,0:0:0:0:
472,131,139895,2,0,L|481:63,1,60,2|2,0:0|0:0,0:0:0:0:
493,6,140236,1,2,0:0:0:0:
372,44,140577,1,2,0:0:0:0:
372,44,140747,1,2,0:0:0:0:
372,44,140917,6,0,P|317:31|250:23,1,120,2|2,0:0|0:0,0:0:0:0:
125,56,141599,2,0,P|70:69|3:77,1,120,2|0,0:0|0:0,0:0:0:0:
60,198,142281,6,0,L|46:276,1,60,2|0,0:0|0:0,0:0:0:0:
60,322,142622,1,2,0:0:0:0:
196,298,142963,1,2,0:0:0:0:
196,298,143133,1,2,0:0:0:0:
196,298,143304,2,0,L|281:313,1,60,2|2,0:0|0:0,0:0:0:0:
311,343,143645,6,0,L|396:328,1,60,2|0,0:0|0:0,0:0:0:0:
430,358,143986,1,2,0:0:0:0:
509,252,144327,1,2,0:0:0:0:
452,144,144667,1,2,0:0:0:0:
452,144,144838,1,2,0:0:0:0:
452,144,145008,6,0,L|465:68,1,60,2|0,0:0|0:0,0:0:0:0:
473,19,145349,2,0,L|393:29,1,60,2|0,0:0|0:0,0:0:0:0:
348,37,145690,1,2,0:0:0:0:
259,135,146031,1,2,0:0:0:0:
259,135,146202,1,0,0:0:0:0:
259,135,146372,6,0,P|214:118|125:107,1,120,2|2,0:0|0:0,0:0:0:0:
111,235,147054,2,0,P|156:252|245:263,1,120,2|0,0:0|0:0,0:0:0:0:
337,335,147736,6,0,L|400:325,1,60,2|2,0:0|0:0,0:0:0:0:
431,269,148077,2,0,L|421:206,1,60,2|2,0:0|0:0,0:0:0:0:
463,159,148417,1,2,0:0:0:0:
463,159,148588,1,0,0:0:0:0:
463,159,148758,2,0,L|469:83,1,60,2|2,0:0|0:0,0:0:0:0:
457,33,149099,6,0,P|485:24|511:8,2,60,2|2|2,0:0|0:0|0:0,0:0:0:0:
397,16,149611,1,2,0:0:0:0:
397,16,149781,2,0,B|328:14|351:50|283:46,1,120,2|2,0:0|0:0,0:0:0:0:
235,90,150292,1,0,0:0:0:0:
235,90,150463,5,2,0:0:0:0:
279,214,150804,2,0,L|266:289,1,60,2|2,0:0|0:0,0:0:0:0:
285,337,151145,2,0,P|238:326|161:339,1,120,2|2,0:0|0:0,0:0:0:0:
104,317,151656,1,2,0:0:0:0:
104,317,151827,6,0,L|119:248,1,60,2|0,0:0|0:0,0:0:0:0:
82,201,152167,2,0,L|76:136,1,60,2|0,0:0|0:0,0:0:0:0:
120,91,152508,1,2,0:0:0:0:
249,63,152849,1,2,0:0:0:0:
249,63,153020,1,2,0:0:0:0:
249,63,153190,6,0,L|325:70,1,60,2|2,0:0|0:0,0:0:0:0:
370,45,153531,2,0,L|442:36,1,60,2|2,0:0|0:0,0:0:0:0:
485,70,153872,2,0,P|512:85|532:106,2,60,2|0|2,0:0|0:0|0:0,0:0:0:0:
437,116,154383,1,0,0:0:0:0:
437,116,154554,6,0,L|431:193,1,60,2|0,0:0|0:0,0:0:0:0:
466,232,154895,2,0,L|461:291,1,60,2|2,0:0|0:0,0:0:0:0:
426,348,155236,1,2,0:0:0:0:
313,278,155577,1,2,0:0:0:0:
313,278,155747,1,0,0:0:0:0:
313,278,155917,6,0,P|261:287|215:357,1,120,2|0,0:0|0:0,0:0:0:0:
156,336,156429,1,0,0:0:0:0:
156,336,156599,2,0,P|119:289|62:277,1,120,2|2,0:0|0:0,0:0:0:0:
60,214,157111,1,2,0:0:0:0:
60,214,157281,5,2,0:0:0:0:
172,142,157622,2,0,L|241:161,1,60,2|2,0:0|0:0,0:0:0:0:
270,209,157963,2,0,P|311:169|301:112,1,120,2|0,0:0|0:0,0:0:0:0:
221,19,158645,5,2,0:0:0:0:
221,19,158815,1,2,0:0:0:0:
221,19,158986,2,0,L|296:10,1,60,2|0,0:0|0:0,0:0:0:0:
340,40,159327,2,0,L|415:49,1,60,2|2,0:0|0:0,0:0:0:0:
461,24,159667,1,2,0:0:0:0:
473,155,160008,6,0,L|477:226,1,60,2|0,0:0|0:0,0:0:0:0:
489,288,160349,1,2,0:0:0:0:
489,288,160520,1,2,0:0:0:0:
489,288,160690,2,0,P|461:261|366:251,1,120,2|2,0:0|0:0,0:0:0:0:
277,325,161372,6,0,L|146:312,1,120,2|2,0:0|0:0,0:0:0:0:
100,341,161883,1,2,0:0:0:0:
100,341,162054,2,0,L|83:269,1,60,2|0,0:0|0:0,0:0:0:0:
63,220,162395,2,0,L|80:148,1,60,2|2,0:0|0:0,0:0:0:0:
101,100,162736,6,0,B|147:76|147:76|234:107,1,120,2|2,0:0|0:0,0:0:0:0:
276,128,163247,1,2,0:0:0:0:
276,128,163417,1,2,0:0:0:0:
403,94,163758,1,2,0:0:0:0:
451,227,164099,5,2,0:0:0:0:
451,227,164270,1,2,0:0:0:0:
451,227,164440,2,0,L|462:162,1,60,0|2,0:0|0:0,0:0:0:0:
501,115,164781,2,0,L|490:50,1,60,2|2,0:0|0:0,0:0:0:0:
452,1,165122,1,2,0:0:0:0:
328,47,165463,6,0,L|250:40,1,60,2|0,0:0|0:0,0:0:0:0:
213,26,165804,1,2,0:0:0:0:
213,26,165975,1,2,0:0:0:0:
213,26,166145,2,0,P|230:70|237:148,1,120,2|2,0:0|0:0,0:0:0:0:
208,237,166827,6,0,P|162:205|72:199,1,120,2|0,0:0|0:0,0:0:0:0:
49,235,167338,1,0,0:0:0:0:
49,235,167508,2,0,L|68:370,1,120,2|0,0:0|0:0,0:0:0:0:
181,289,168190,6,0,L|310:264,1,120,2|0,0:0|0:0,0:0:0:0:
347,220,168702,1,0,0:0:0:0:
347,220,168872,2,0,L|426:235,1,60,2|0,0:0|0:0,0:0:0:0:
470,247,169213,2,0,L|455:326,1,60,2|2,0:0|0:0,0:0:0:0:
426,363,169554,6,0,L|367:351,2,60,2|0|2,0:0|0:0|0:0,0:0:0:0:
470,247,170236,2,0,L|495:125,1,120,2|2,0:0|0:0,0:0:0:0:
456,75,170747,1,2,0:0:0:0:
455,74,170917,6,0,P|398:70|365:117,1,120,2|0,0:0|0:0,0:0:0:0:
342,247,171599,1,2,0:0:0:0:
239,163,171940,2,0,L|176:177,1,60,2|2,0:0|0:0,0:0:0:0:
120,147,172281,6,0,L|112:87,1,60,2|0,0:0|0:0,0:0:0:0:
156,38,172622,1,2,0:0:0:0:
25,15,172963,2,0,P|2:69|13:127,1,120,2|2,0:0|0:0,0:0:0:0:
2,192,173474,1,2,0:0:0:0:
2,192,173645,5,2,0:0:0:0:
26,321,173986,1,0,0:0:0:0:
154,289,174327,1,2,0:0:0:0:
275,340,174667,2,0,L|344:346,1,60,2|2,0:0|0:0,0:0:0:0:
392,312,175008,6,0,L|398:243,1,60,2|0,0:0|0:0,0:0:0:0:
452,216,175349,1,2,0:0:0:0:
363,117,175690,2,0,B|297:115|312:155|251:151,1,120,2|2,0:0|0:0,0:0:0:0:
190,140,176202,1,2,0:0:0:0:
190,140,176372,5,2,0:0:0:0:
65,96,176713,1,0,0:0:0:0:
25,222,177054,1,2,0:0:0:0:
151,258,177395,2,0,L|158:327,1,60,2|2,0:0|0:0,0:0:0:0:
205,362,177736,5,2,0:0:0:0:
205,362,177906,1,0,0:0:0:0:
205,362,178077,1,2,0:0:0:0:
330,321,178417,1,2,0:0:0:0:
461,281,178758,1,2,0:0:0:0:
461,281,178929,1,0,0:0:0:0:
461,281,179099,6,0,P|424:175|313:187,1,240,2|2,0:0|0:0,0:0:0:0:
187,145,180122,2,0,P|152:155|114:158,1,60,2|2,0:0|0:0,0:0:0:0:
64,141,180463,6,0,L|70:76,1,60,2|0,0:0|0:0,0:0:0:0:
78,15,180804,1,2,0:0:0:0:
202,57,181144,1,2,0:0:0:0:
330,24,181486,2,0,L|339:105,1,60,2|2,0:0|0:0,0:0:0:0:
344,149,181827,5,2,0:0:0:0:
474,131,182168,1,0,0:0:0:0:
490,261,182509,1,2,0:0:0:0:
366,280,182850,1,2,0:0:0:0:
366,280,183020,1,2,0:0:0:0:
366,280,183191,6,0,L|286:271,1,60,2|0,0:0|0:0,0:0:0:0:
255,303,183532,1,2,0:0:0:0:
149,223,183873,1,2,0:0:0:0:
21,258,184214,2,0,L|14:185,1,60,2|0,0:0|0:0,0:0:0:0:
33,134,184554,5,2,0:0:0:0:
162,157,184895,1,0,0:0:0:0:
146,25,185236,1,2,0:0:0:0:
284,47,185577,1,2,0:0:0:0:
284,47,185748,1,2,0:0:0:0:
284,47,185918,6,0,L|353:35,1,60,2|0,0:0|0:0,0:0:0:0:
408,26,186259,1,2,0:0:0:0:
368,152,186600,1,2,0:0:0:0:
236,167,186941,2,0,L|243:246,1,60,2|2,0:0|0:0,0:0:0:0:
248,292,187282,5,2,0:0:0:0:
373,332,187623,1,0,0:0:0:0:
469,241,187964,1,2,0:0:0:0:
349,216,188304,1,2,0:0:0:0:
349,216,188475,1,2,0:0:0:0:
349,216,188645,6,0,L|333:141,1,60,2|0,0:0|0:0,0:0:0:0:
345,97,188986,1,2,0:0:0:0:
226,39,189327,1,2,0:0:0:0:
138,137,189668,2,0,L|56:127,1,60,2|0,0:0|0:0,0:0:0:0:
14,123,190009,5,2,0:0:0:0:
270,62,190690,1,2,0:0:0:0:
