osu file format v14

[General]
AudioFilename: audio.mp3
AudioLeadIn: 0
PreviewTime: 77508
Countdown: 0
SampleSet: Soft
StackLeniency: 0.7
Mode: 0
LetterboxInBreaks: 0
WidescreenStoryboard: 1

[Editor]
Bookmarks: 23645,45463,56372,78190,100008,110917,125917,136826,147735,169553
DistanceSpacing: 0.9
BeatDivisor: 6
GridSize: 4
TimelineZoom: 1.6

[Metadata]
Title:Shijima ni Saku
TitleUnicode:静寂に咲く
Artist:MIMI
ArtistUnicode:MIMI
Creator:Myxo
Version:Normal
Source:osu!
Tags:hatsune miku feat. 初音ミク featured artist FA mappers' guild japanese classical pop piano vocaloid
BeatmapID:2513292
BeatmapSetID:1205717

[Difficulty]
HPDrainRate:3
CircleSize:4
OverallDifficulty:4
ApproachRate:6
SliderMultiplier:2.2
SliderTickRate:4

[Events]
//Background and Video events
0,0,"58733013_p0.png",0,0
//Break Periods
2,45463,55322
2,100208,109867
//Storyboard Layer 0 (Background)
//Storyboard Layer 1 (Fail)
//Storyboard Layer 2 (Pass)
//Storyboard Layer 3 (Foreground)
//Storyboard Layer 4 (Overlay)
//Storyboard Sound Samples

[TimingPoints]
1827,681.818181818182,4,2,1,50,1,0
38077,-100,4,2,1,25,0,0
38304,-100,4,2,1,50,0,0
77508,-153.846153846154,4,2,2,50,0,0
78446,-153.846153846154,4,2,1,50,0,0
78616,-153.846153846154,4,2,2,50,0,0
81173,-153.846153846154,4,2,1,50,0,0
81344,-153.846153846154,4,2,2,50,0,0
83900,-153.846153846154,4,2,1,50,0,0
84071,-153.846153846154,4,2,2,50,0,0
86628,-153.846153846154,4,2,1,50,0,0
86798,-153.846153846154,4,2,2,50,0,0
87309,-153.846153846154,4,2,1,50,0,0
87480,-153.846153846154,4,2,2,50,0,0
89355,-153.846153846154,4,2,1,50,0,0
89525,-153.846153846154,4,2,2,50,0,0
92082,-153.846153846154,4,2,1,50,0,0
92253,-153.846153846154,4,2,2,50,0,0
94809,-153.846153846154,4,2,1,50,0,0
94980,-153.846153846154,4,2,2,50,0,0
97537,-153.846153846154,4,2,1,50,0,0
97707,-153.846153846154,4,2,2,50,0,0
98219,-153.846153846154,4,2,1,50,0,0
98389,-153.846153846154,4,2,2,50,0,0
100008,-117.647058823529,4,2,1,50,0,0
120463,681.818181818182,4,2,1,50,1,0
120463,-117.647058823529,4,2,1,50,0,0
136826,-100,4,2,1,50,0,0

[Colours]
Combo1 : 156,163,209
Combo2 : 96,182,223
SliderBorder: 255,255,255

[HitObjects]
141,59,23645,6,0,P|103:52|49:99,2,110,2|2|2,0:2|0:2|0:2,0:2:0:0:
208,131,24667,2,0,P|263:146|306:120,1,110,0|2,0:2|0:2,0:2:0:0:
350,31,25349,1,2,0:2:0:0:
438,74,25690,1,2,0:2:0:0:
394,163,26031,6,0,P|393:191|413:221,1,55,0|0,0:2|0:2,0:2:0:0:
447,241,26372,2,0,P|431:324|312:331,2,220,2|2|2,0:2|0:2|0:2,0:2:0:0:
392,157,28077,1,2,0:2:0:0:
309,210,28417,1,2,0:2:0:0:
182,57,29099,6,0,P|134:42|82:76,2,110,2|2|2,0:2|0:2|0:2,0:2:0:0:
220,88,29952,2,0,P|228:143|193:185,1,110,0|0,0:2|0:2,0:2:0:0:
147,194,30463,1,2,0:2:0:0:
50,169,30804,1,2,0:2:0:0:
11,260,31145,1,2,0:2:0:0:
81,329,31486,6,0,P|105:312|143:313,1,55,0|0,0:2|0:2,0:2:0:0:
175,329,31827,2,0,P|236:352|312:242,1,220,2|2,0:2|0:2,0:2:0:0:
252,165,32849,2,0,P|238:117|268:66,1,110,0|8,0:2|0:2,0:2:0:0:
266,67,33872,1,8,0:2:0:0:
424,185,34554,6,0,P|387:263|476:348,2,220,2|2|2,0:2|0:2|0:2,0:2:0:0:
498,119,36258,1,2,0:2:0:0:
447,33,36599,1,2,0:2:0:0:
375,100,36940,6,0,P|341:95|320:68,1,55,0|0,0:2|0:2,0:2:0:0:
294,43,37281,2,0,P|244:54|216:105,1,110,2|2,0:2|0:2,0:2:0:0:
272,185,37963,2,0,P|291:186|309:176,1,36.6666666666667,2|0,0:0|0:0,0:0:0:0:
370,207,38304,2,0,P|327:244|327:297,1,110,0|2,0:2|0:2,0:2:0:0:
259,368,38986,1,2,0:2:0:0:
172,320,39327,1,2,0:2:0:0:
23,188,40008,6,0,P|57:147|111:147,2,110,2|2|2,0:2|0:2|0:2,0:2:0:0:
4,285,41031,2,0,P|57:279|100:325,1,110,0|2,0:2|0:2,0:2:0:0:
188,353,41713,1,2,0:2:0:0:
257,282,42054,1,2,0:2:0:0:
168,237,42395,6,0,P|155:214|156:187,1,55,0|0,0:2|0:2,0:2:0:0:
174,139,42736,2,0,P|101:169|20:75,1,220,2|2,0:2|0:2,0:2:0:0:
51,36,43588,2,0,P|95:7|154:28,1,110,0|0,0:2|0:2,0:2:0:0:
184,54,44099,1,8,0:2:0:0:
359,325,56372,6,0,P|411:337|456:308,2,110,2|2|2,0:2|0:2|0:2,0:2:0:0:
320,293,57224,1,0,0:2:0:0:
282,260,57395,2,0,P|230:248|185:277,1,110,0|2,0:2|0:2,0:2:0:0:
120,352,58077,1,2,0:2:0:0:
30,311,58417,1,2,0:2:0:0:
92,234,58758,6,0,P|94:206|75:174,1,55,0|0,0:2|0:2,0:2:0:0:
43,151,59099,2,0,P|30:106|70:50,1,110,2|2,0:2|0:2,0:2:0:0:
150,97,59781,1,2,0:2:0:0:
179,136,59952,2,0,P|227:145|273:108,1,110,0|0,0:2|0:2,0:2:0:0:
277,59,60463,1,2,0:2:0:0:
369,93,60804,1,2,0:2:0:0:
437,21,61145,1,2,0:2:0:0:
481,214,61827,6,0,P|444:197|382:220,1,110,2|2,0:2|0:2,0:2:0:0:
343,251,62338,1,0,0:2:0:0:
294,243,62508,1,2,0:2:0:0:
256,334,62849,2,0,P|295:329|346:375,1,110,0|2,0:2|0:2,0:2:0:0:
441,350,63531,1,2,0:2:0:0:
413,254,63872,1,2,0:2:0:0:
447,219,64042,6,0,P|468:176|441:122,1,110,0|0,0:2|0:2,0:2:0:0:
396,103,64554,2,0,P|356:142|298:136,2,110,2|2|2,0:2|0:2|0:2,0:2:0:0:
319,40,65577,2,0,P|273:17|215:40,1,110,0|8,0:2|0:2,0:2:0:0:
220,34,66599,1,8,0:2:0:0:
181,228,67281,6,0,P|223:242|243:306,1,110,2|2,0:2|0:2,0:2:0:0:
209,335,67792,1,0,0:2:0:0:
175,371,67963,2,0,P|101:371|61:247,1,220,2|2,0:2|0:2,0:2:0:0:
100,158,68986,1,2,0:2:0:0:
20,99,69327,1,2,0:2:0:0:
65,11,69667,5,0,0:2:0:0:
146,67,70008,2,0,P|198:51|267:129,1,165,2|0,0:2|0:2,0:2:0:0:
357,81,70861,2,0,P|351:57|356:26,2,55,0|0|0,0:2|0:2|0:2,0:2:0:0:
383,123,71372,1,2,0:2:0:0:
473,82,71713,1,2,0:2:0:0:
504,175,72054,1,2,0:2:0:0:
386,334,72736,6,0,P|432:343|479:305,1,110,2|2,0:2|0:2,0:2:0:0:
463,258,73247,1,0,0:2:0:0:
417,238,73417,2,0,P|387:209|389:143,2,110,2|0|2,0:2|0:2|0:2,0:2:0:0:
358,318,74440,1,2,0:2:0:0:
276,262,74781,1,2,0:2:0:0:
216,340,75122,6,0,P|187:338|155:356,1,55,0|0,0:2|0:2,0:2:0:0:
115,359,75463,2,0,P|69:330|66:273,1,110,2|2,0:2|0:2,0:2:0:0:
98,242,75974,1,0,0:2:0:0:
147,243,76145,2,0,P|159:177|81:132,1,165,2|0,0:2|0:2,0:2:0:0:
44,160,76827,1,8,0:2:0:0:
163,37,77508,5,0,0:2:0:0:
163,37,77849,1,0,0:2:0:0:
232,86,78190,2,0,P|294:75|387:71,1,142.99999345398,2|0,0:2|3:2,0:2:0:0:
448,28,79213,1,2,0:2:0:0:
492,101,79554,2,0,P|484:138|478:181,1,71.4999967269899,2|0,0:2|0:2,0:2:0:0:
393,179,80236,2,0,P|401:216|407:259,1,71.4999967269899,2|0,3:2|0:2,0:2:0:0:
473,301,80917,2,0,P|452:341|348:341,1,142.99999345398,2|0,0:2|3:2,0:2:0:0:
261,299,81940,5,2,0:2:0:0:
325,242,82281,2,0,P|327:200|332:169,1,71.4999967269899,2|0,0:2|0:2,0:2:0:0:
280,101,82963,2,0,P|244:95|209:114,1,71.4999967269899,2|0,3:2|0:2,0:2:0:0:
179,188,83645,2,0,P|138:177|35:168,1,142.99999345398,2|0,0:2|3:2,0:2:0:0:
0,59,84667,5,2,0:2:0:0:
83,79,85008,1,2,0:2:0:0:
150,26,85349,2,0,P|180:19|218:35,1,71.4999967269899,2|0,0:2|3:2,0:2:0:0:
251,112,86031,1,2,0:2:0:0:
178,158,86372,2,0,P|123:170|25:203,2,142.99999345398,2|0|2,0:2|3:2|0:2,0:2:0:0:
151,330,88417,5,2,3:2:0:0:
151,330,88758,1,2,0:2:0:0:
79,282,89099,2,0,P|68:225|40:141,1,142.99999345398,2|0,0:2|3:2,0:2:0:0:
79,67,90122,1,2,0:2:0:0:
146,120,90463,2,0,P|182:126|221:128,1,71.4999967269899,2|0,0:2|0:2,0:2:0:0:
230,43,91145,2,0,P|266:37|305:35,1,71.4999967269899,2|0,3:2|0:2,0:2:0:0:
353,103,91827,2,0,P|314:125|314:220,1,142.99999345398,2|0,0:2|3:2,0:2:0:0:
422,194,92849,5,2,0:2:0:0:
464,268,93190,2,0,P|445:300|404:313,1,71.4999967269899,2|0,0:2|0:2,0:2:0:0:
343,362,93872,2,0,P|306:356|269:356,1,71.4999967269899,2|0,3:2|0:2,0:2:0:0:
206,300,94554,2,0,P|143:307|58:334,1,142.99999345398,2|0,0:2|3:2,0:2:0:0:
0,237,95577,5,2,0:2:0:0:
85,234,95917,1,2,0:2:0:0:
119,155,96258,1,2,0:2:0:0:
48,105,96599,2,0,P|39:66|34:31,1,71.4999967269899,2|0,3:2|0:2,0:2:0:0:
145,56,97281,2,0,P|168:93|265:93,2,142.99999345398,2|0|8,0:2|3:2|0:2,0:2:0:0:
43,195,99327,5,0,0:2:0:0:
43,195,100008,1,2,0:2:0:0:
39,82,110917,6,0,P|82:52|141:81,1,93.500001783371,2|2,0:2|0:2,0:2:0:0:
183,115,111599,1,2,0:2:0:0:
122,173,111940,2,0,P|83:205|87:249,1,93.500001783371,0|2,0:2|0:2,0:2:0:0:
316,346,113304,6,0,P|293:316|303:262,2,93.500001783371,0|2|2,0:2|0:2|0:2,0:2:0:0:
397,368,114327,1,2,0:2:0:0:
419,287,114667,2,0,P|454:266|504:277,1,93.500001783371,0|2,0:2|0:2,0:2:0:0:
348,77,116031,6,0,P|306:80|268:35,2,93.500001783371,0|2|2,0:2|0:2|0:2,0:2:0:0:
417,29,117054,1,2,0:2:0:0:
472,92,117395,2,0,P|442:132|455:178,1,93.500001783371,0|2,0:2|0:2,0:2:0:0:
212,257,118758,6,0,P|166:254|130:284,1,93.500001783371,0|8,0:2|0:2,0:2:0:0:
130,282,120463,1,8,0:2:0:0:
130,282,123190,1,2,0:2:0:0:
95,188,125917,6,0,P|49:146|175:122,1,280.500005350113,2|0,0:2|0:2,0:2:0:0:
180,200,127281,2,0,P|234:214|291:111,1,187.000003566742,2|0,0:2|0:2,0:2:0:0:
337,45,128303,2,0,P|386:40|419:70,1,93.500001783371,0|2,0:2|0:2,0:2:0:0:
476,127,128985,2,0,P|442:161|448:207,1,93.500001783371,0|0,0:2|0:2,0:2:0:0:
484,278,129667,2,0,P|448:320|401:317,1,93.500001783371,0|2,0:2|0:2,0:2:0:0:
412,321,130690,1,2,0:2:0:0:
275,222,131372,6,0,P|292:163|175:210,1,280.500005350113,2|0,0:2|0:2,0:2:0:0:
210,281,132735,2,0,P|178:337|62:320,1,187.000003566742,2|0,0:2|0:2,0:2:0:0:
9,266,133758,2,0,P|22:217|79:202,1,93.500001783371,0|2,0:2|0:2,0:2:0:0:
141,206,134440,2,0,P|143:160|104:129,1,93.500001783371,0|0,0:2|0:2,0:2:0:0:
26,114,135122,2,0,P|39:65|96:50,1,93.500001783371,0|2,0:2|0:2,0:2:0:0:
74,47,136144,1,2,0:2:0:0:
260,114,136826,6,0,P|301:144|356:130,1,110,2|2,0:2|0:2,0:2:0:0:
379,86,137338,1,0,0:2:0:0:
399,41,137508,2,0,P|461:32|503:121,1,165,2|0,0:2|0:2,0:2:0:0:
476,152,138190,2,0,P|431:156|399:208,2,110,2|2|2,0:2|0:2|0:2,0:2:0:0:
507,246,139213,6,0,P|478:288|493:342,1,110,0|2,0:2|0:2,0:2:0:0:
401,381,139894,2,0,P|363:339|311:343,1,110,2|2,0:2|0:2,0:2:0:0:
261,257,140576,1,0,0:2:0:0:
211,252,140747,1,0,0:2:0:0:
183,292,140917,2,0,P|148:347|10:323,1,220,8|8,0:2|0:2,0:2:0:0:
8,177,142110,5,0,0:2:0:0:
54,195,142281,2,0,P|83:150|63:97,1,110,2|2,0:2|0:2,0:2:0:0:
107,9,142963,2,0,P|180:13|198:94,1,165,2|0,0:2|0:2,0:2:0:0:
236,123,143644,2,0,P|268:92|330:103,2,110,2|2|2,0:2|0:2|0:2,0:2:0:0:
148,169,144667,6,0,P|102:139|49:156,1,110,0|2,0:2|0:2,0:2:0:0:
7,242,145349,2,0,P|38:283|24:336,1,110,2|2,0:2|0:2,0:2:0:0:
115,374,146031,1,0,0:2:0:0:
153,342,146201,1,0,0:2:0:0:
202,342,146372,1,8,0:2:0:0:
241,251,146713,2,0,P|293:240|335:274,1,110,0|8,0:2|0:2,0:2:0:0:
505,374,147735,6,0,P|464:351|462:291,1,110,2|2,0:2|0:2,0:2:0:0:
478,246,148247,1,0,0:2:0:0:
493,199,148417,2,0,P|508:126|438:83,1,165,8|0,3:2|0:2,0:2:0:0:
391,92,149099,2,0,P|360:59|369:-3,2,110,2|2|8,0:2|0:2|3:2,0:2:0:0:
354,184,150122,5,2,0:2:0:0:
306,197,150292,1,2,0:2:0:0:
263,172,150463,1,2,0:2:0:0:
223,81,150803,2,0,P|174:69|125:103,1,110,2|8,0:2|3:2,0:2:0:0:
129,199,151485,1,2,0:2:0:0:
174,219,151656,1,2,0:2:0:0:
185,266,151826,2,0,P|197:336|325:334,1,220,8|8,0:2|0:2,0:2:0:0:
360,244,152849,6,0,P|348:226|348:194,1,55,0|0,0:2|0:2,0:2:0:0:
352,143,153190,2,0,P|305:128|256:160,1,110,2|2,0:2|0:2,0:2:0:0:
234,203,153701,1,0,0:2:0:0:
185,212,153872,2,0,P|144:185|140:128,1,110,8|0,3:2|0:2,0:2:0:0:
193,44,154553,2,0,P|156:8|96:19,2,110,2|2|8,0:2|0:2|3:2,0:2:0:0:
139,128,155576,6,0,P|91:118|39:158,1,110,2|8,0:2|0:2,0:2:0:0:
75,244,156258,2,0,P|47:288|64:342,1,110,2|8,0:2|0:2,0:2:0:0:
155,375,156940,1,2,0:2:0:0:
193,344,157110,1,0,0:2:0:0:
242,347,157281,1,8,0:2:0:0:
298,265,157622,2,0,P|291:216|241:189,1,110,2|8,0:2|0:2,0:2:0:0:
93,57,158644,5,2,0:2:0:0:
127,92,158815,1,2,0:2:0:0:
176,96,158985,2,0,P|210:84|221:68,1,55,2|0,0:2|0:2,0:2:0:0:
267,54,159326,2,0,P|320:19|402:68,1,165,8|0,3:2|0:2,0:2:0:0:
418,110,160008,2,0,P|468:117|507:77,2,110,2|2|8,0:2|0:2|3:2,0:2:0:0:
322,137,161031,6,0,P|309:184|345:230,1,110,0|2,0:2|0:2,0:2:0:0:
393,223,161542,1,2,0:2:0:0:
438,241,161713,1,2,0:2:0:0:
461,284,161883,1,2,0:2:0:0:
447,331,162053,1,8,3:2:0:0:
355,368,162394,2,0,P|330:353|303:354,1,55,0|0,0:2|0:2,0:2:0:0:
256,365,162735,2,0,P|189:321|234:209,1,220,8|8,0:2|0:2,0:2:0:0:
317,155,163758,1,0,0:2:0:0:
272,66,164099,5,2,0:2:0:0:
234,97,164269,1,2,0:2:0:0:
184,97,164440,2,0,P|160:79|151:45,1,55,2|0,0:2|0:2,0:2:0:0:
114,23,164781,2,0,P|66:14|13:104,1,165,8|0,3:2|0:2,0:2:0:0:
3,149,165463,2,0,P|56:142|96:178,2,110,2|2|8,0:2|0:2|3:2,0:2:0:0:
21,246,166485,6,0,P|38:296|6:342,1,110,2|8,0:2|0:2,0:2:0:0:
100,377,167167,2,0,P|143:347|202:359,1,110,2|8,0:2|0:2,0:2:0:0:
244,369,167678,1,2,0:2:0:0:
288,347,167849,1,2,0:2:0:0:
308,302,168019,1,2,0:2:0:0:
289,255,168190,2,0,P|216:202|249:91,2,220,8|8|2,0:2|0:2|0:2,0:2:0:0:
