osu file format v14

[General]
AudioFilename: audio.mp3
AudioLeadIn: 0
PreviewTime: 77508
Countdown: 0
SampleSet: Soft
StackLeniency: 0.7
Mode: 0
LetterboxInBreaks: 0
WidescreenStoryboard: 0

[Editor]
Bookmarks: 23645,45463,56372,78190,100008,110917,125917,136826,147735,169553
DistanceSpacing: 0.9
BeatDivisor: 4
GridSize: 4
TimelineZoom: 1.6

[Metadata]
Title:Shijima ni Saku
TitleUnicode:静寂に咲く
Artist:MIMI
ArtistUnicode:MIMI
Creator:Myxo
Version:Hard
Source:osu!
Tags:hatsune miku feat. 初音ミク featured artist FA mappers' guild japanese classical pop piano vocaloid
BeatmapID:2510677
BeatmapSetID:1205717

[Difficulty]
HPDrainRate:5
CircleSize:5
OverallDifficulty:6
ApproachRate:8
SliderMultiplier:2.8
SliderTickRate:4

[Events]
//Background and Video events
0,0,"58733013_p0.png",0,0
//Break Periods
2,45463,55622
2,100208,110167
//Storyboard Layer 0 (Background)
//Storyboard Layer 1 (Fail)
//Storyboard Layer 2 (Pass)
//Storyboard Layer 3 (Foreground)
//Storyboard Layer 4 (Overlay)
//Storyboard Sound Samples

[TimingPoints]
1827,681.818181818182,4,2,1,50,1,0
38077,-100,4,2,1,25,0,0
38304,-100,4,2,1,50,0,0
77508,-222.222222222222,4,2,2,50,0,0
78446,-222.222222222222,4,2,1,50,0,0
78616,-222.222222222222,4,2,2,50,0,0
81173,-222.222222222222,4,2,1,50,0,0
81344,-222.222222222222,4,2,2,50,0,0
83900,-222.222222222222,4,2,1,50,0,0
84071,-222.222222222222,4,2,2,50,0,0
89355,-222.222222222222,4,2,1,50,0,0
89525,-222.222222222222,4,2,2,50,0,0
92082,-222.222222222222,4,2,1,50,0,0
92253,-222.222222222222,4,2,2,50,0,0
94809,-222.222222222222,4,2,1,50,0,0
94980,-222.222222222222,4,2,2,50,0,0
97537,-222.222222222222,4,2,1,50,0,0
97707,-222.222222222222,4,2,2,50,0,0
98219,-222.222222222222,4,2,1,50,0,0
98389,-222.222222222222,4,2,2,50,0,0
100008,-133.333333333333,4,2,1,50,0,0
120463,681.818181818182,4,2,1,50,1,0
120463,-133.333333333333,4,2,1,50,0,0
136826,-100,4,2,1,50,0,0
156599,-111.111111111111,4,2,2,50,0,0
156940,-100,4,2,1,50,0,0

[Colours]
Combo1 : 156,163,209
Combo2 : 96,182,223
SliderBorder : 255,255,255

[HitObjects]
81,147,23645,6,0,P|28:114|34:41,2,140,2|2|2,0:2|0:2|0:2,0:2:0:0:
178,66,24667,1,0,0:2:0:0:
215,117,24838,1,0,0:2:0:0:
241,60,25008,1,2,0:2:0:0:
349,124,25349,1,2,0:2:0:0:
423,22,25690,1,2,0:2:0:0:
489,147,26031,6,0,P|493:187|471:220,1,70,0|0,0:2|0:2,0:2:0:0:
424,243,26372,2,0,P|397:306|438:355,1,140,2|2,0:2|0:2,0:2:0:0:
501,363,26883,1,0,0:2:0:0:
476,304,27054,2,0,P|410:279|363:326,1,140,2|0,0:2|0:2,0:2:0:0:
312,358,27565,1,0,0:2:0:0:
263,317,27736,1,2,0:2:0:0:
149,371,28077,1,2,0:2:0:0:
95,257,28417,1,2,0:2:0:0:
95,257,29099,6,0,P|128:274|165:266,1,70,2|0,0:2|0:2,0:2:0:0:
206,226,29440,2,0,P|198:164|121:143,1,140,2|2,0:2|0:2,0:2:0:0:
75,169,29952,2,0,P|11:148|0:82,1,140,0|0,0:2|0:2,0:2:0:0:
40,33,30463,1,2,0:2:0:0:
165,19,30804,1,2,0:2:0:0:
131,139,31145,1,2,0:2:0:0:
17,226,31486,6,0,P|54:230|80:256,1,70,0|0,0:2|0:2,0:2:0:0:
91,312,31827,2,0,P|124:352|207:341,1,140,2|2,0:2|0:2,0:2:0:0:
254,304,32338,1,0,0:2:0:0:
298,348,32508,1,2,0:2:0:0:
415,303,32849,1,0,0:2:0:0:
459,347,33019,1,0,0:2:0:0:
398,364,33190,1,8,0:2:0:0:
398,364,33872,1,8,0:2:0:0:
492,130,34554,6,0,P|493:63|434:29,1,140,2|2,0:2|0:2,0:2:0:0:
400,81,35065,1,0,0:2:0:0:
344,51,35236,2,0,P|314:83|350:173,2,140,2|0|2,0:2|0:2|0:2,0:2:0:0:
457,105,36258,1,2,0:2:0:0:
407,221,36599,1,2,0:2:0:0:
478,346,36940,6,0,P|445:332|404:344,1,70,0|0,0:2|0:2,0:2:0:0:
354,363,37281,2,0,P|308:349|293:260,1,140,2|2,0:2|0:2,0:2:0:0:
332,221,37792,1,0,0:2:0:0:
330,157,37963,2,0,P|323:138|301:120,1,46.6666666666667,2|0,0:2|0:2,0:2:0:0:
255,51,38304,1,0,0:2:0:0:
219,103,38474,1,0,0:2:0:0:
191,46,38645,1,2,0:2:0:0:
118,149,38986,1,2,0:2:0:0:
229,207,39327,1,2,0:2:0:0:
229,207,40008,6,0,P|255:246|240:294,1,70,2|0,0:2|0:2,0:2:0:0:
217,319,40349,2,0,P|166:313|109:378,1,140,2|2,0:2|0:2,0:2:0:0:
18,286,41031,1,0,0:2:0:0:
59,238,41202,1,0,0:2:0:0:
30,181,41372,1,2,0:2:0:0:
71,62,41713,1,2,0:2:0:0:
184,117,42054,1,2,0:2:0:0:
288,25,42395,6,0,P|321:20|357:42,1,70,0|0,0:2|0:2,0:2:0:0:
380,93,42736,2,0,P|433:56|501:81,1,140,2|2,0:2|0:2,0:2:0:0:
504,142,43247,1,0,0:2:0:0:
451,177,43417,1,2,0:2:0:0:
391,156,43588,2,0,P|352:208|381:276,1,140,0|0,0:2|0:2,0:2:0:0:
439,271,44099,1,8,0:2:0:0:
10,296,56372,6,0,P|43:288|82:306,1,70,2|0,0:2|0:2,0:2:0:0:
113,350,56713,1,2,0:2:0:0:
175,357,56883,1,0,0:2:0:0:
225,319,57054,2,0,P|240:259|126:201,1,210,2|0,0:2|0:2,0:2:0:0:
79,239,57736,1,2,0:2:0:0:
13,131,58077,1,2,0:2:0:0:
106,47,58417,1,2,0:2:0:0:
230,114,58758,6,0,P|263:97|302:103,1,70,0|0,0:2|0:2,0:2:0:0:
343,139,59099,1,2,0:2:0:0:
406,133,59270,1,0,0:2:0:0:
442,81,59440,2,0,P|455:59|450:13,2,70,2|0|2,0:2|0:2|0:2,0:2:0:0:
378,76,59952,2,0,P|358:122|418:181,1,140,0|0,0:2|0:2,0:2:0:0:
475,187,60463,1,2,0:2:0:0:
428,304,60804,1,2,0:2:0:0:
312,254,61145,1,2,0:2:0:0:
312,254,61827,6,0,P|278:263|255:304,1,70,2|0,0:2|0:2,0:2:0:0:
212,333,62167,2,0,P|161:364|97:321,1,140,2|2,0:2|0:2,0:2:0:0:
16,229,62849,1,0,0:2:0:0:
51,176,63020,1,0,0:2:0:0:
78,232,63190,1,2,0:2:0:0:
197,271,63531,1,2,0:2:0:0:
239,152,63872,1,2,0:2:0:0:
179,131,64042,6,0,P|165:101|171:64,2,70,0|0|0,0:2|0:2|0:2,0:2:0:0:
191,193,64554,2,0,P|163:218|117:219,1,70,2|0,0:2|0:2,0:2:0:0:
71,205,64895,1,2,0:2:0:0:
28,251,65065,1,0,0:2:0:0:
41,312,65236,2,0,P|78:355|154:337,1,140,2|0,0:2|0:2,0:2:0:0:
189,287,65747,1,0,0:2:0:0:
216,343,65917,1,8,0:2:0:0:
216,343,66599,1,8,0:2:0:0:
394,176,67281,6,0,P|415:217|406:258,1,70,2|0,0:2|0:2,0:2:0:0:
369,285,67622,1,2,0:2:0:0:
391,343,67792,1,0,0:2:0:0:
453,349,67963,2,0,P|508:305|496:244,2,140,2|0|2,0:2|0:2|0:2,0:2:0:0:
327,336,68986,1,2,0:2:0:0:
368,216,69327,1,2,0:2:0:0:
270,113,69667,5,0,0:2:0:0:
360,24,70008,2,0,P|419:10|474:65,1,140,2|2,0:2|0:2,0:2:0:0:
466,123,70520,1,0,0:2:0:0:
362,195,70861,1,0,0:2:0:0:
387,252,71031,2,0,P|423:272|460:264,1,70,0|0,0:2|0:2,0:2:0:0:
499,229,71372,1,2,0:2:0:0:
511,354,71713,1,2,0:2:0:0:
385,366,72054,1,2,0:2:0:0:
385,366,72736,6,0,P|354:345|316:345,1,70,2|0,0:2|0:2,0:2:0:0:
263,365,73077,2,0,P|217:332|229:253,1,140,2|2,0:2|0:2,0:2:0:0:
345,214,73758,1,0,0:2:0:0:
389,168,73929,1,0,0:2:0:0:
367,109,74099,1,2,0:2:0:0:
264,34,74440,1,2,0:2:0:0:
188,134,74781,1,2,0:2:0:0:
97,26,75122,6,0,P|64:23|30:48,1,70,0|0,0:2|0:2,0:2:0:0:
5,98,75463,1,2,0:2:0:0:
39,150,75633,1,0,0:2:0:0:
101,142,75804,2,0,P|137:156|141:250,1,140,2|2,0:2|0:2,0:2:0:0:
87,272,76315,2,0,P|54:264|7:289,2,70,0|0|0,0:2|0:2|0:2,0:2:0:0:
138,309,76827,1,8,0:2:0:0:
367,154,77508,5,0,0:2:0:0:
354,137,77849,1,0,0:2:0:0:
471,43,78190,2,0,P|464:108|461:172,1,125.999996154785,2|0,0:2|3:2,0:2:0:0:
505,241,79213,1,2,0:2:0:0:
391,350,79554,2,0,P|412:337|456:337,1,62.9999980773926,2|0,0:2|0:2,0:2:0:0:
332,197,80236,2,0,P|346:223|375:239,1,62.9999980773926,2|0,3:2|0:2,0:2:0:0:
188,352,80917,2,0,P|228:363|292:314,1,125.999996154785,2|0,0:2|3:2,0:2:0:0:
150,254,81940,5,2,0:2:0:0:
240,175,82281,2,0,P|236:208|234:240,1,62.9999980773926,2|0,0:2|0:2,0:2:0:0:
104,357,82963,2,0,P|132:349|178:343,1,62.9999980773926,2|0,3:2|0:2,0:2:0:0:
125,241,83645,2,0,P|88:222|2:198,1,125.999996154785,2|0,0:2|3:2,0:2:0:0:
40,50,84667,5,2,0:2:0:0:
102,115,85008,1,2,0:2:0:0:
216,19,85349,2,0,P|211:55|208:88,1,62.9999980773926,2|0,0:2|3:2,0:2:0:0:
207,163,86031,1,2,0:2:0:0:
399,74,86372,2,0,P|416:51|448:39,1,62.9999980773926,2|0,0:2|0:2,0:2:0:0:
359,160,87054,2,0,P|334:147|298:147,1,62.9999980773926,2|0,3:2|0:2,0:2:0:0:
456,254,87736,2,0,P|458:212|466:157,1,94.499997116089,2|0,0:2|0:2,0:2:0:0:
377,235,88417,5,2,3:2:0:0:
363,247,88758,1,2,0:2:0:0:
492,344,89099,2,0,P|433:355|368:380,1,125.999996154785,2|0,0:2|3:2,0:2:0:0:
296,322,90122,1,2,0:2:0:0:
399,199,90463,2,0,P|394:231|393:262,1,62.9999980773926,2|0,0:2|0:2,0:2:0:0:
283,202,91145,2,0,P|266:191|227:174,1,62.9999980773926,2|0,3:2|0:2,0:2:0:0:
404,54,91827,2,0,P|373:101|300:96,1,125.999996154785,2|0,0:2|3:2,0:2:0:0:
484,159,92849,5,2,0:2:0:0:
392,251,93190,2,0,P|388:221|401:189,1,62.9999980773926,2|0,0:2|0:2,0:2:0:0:
284,299,93872,2,0,P|308:319|317:349,1,62.9999980773926,2|0,3:2|0:2,0:2:0:0:
292,191,94554,2,0,P|278:152|258:67,1,125.999996154785,2|0,0:2|3:2,0:2:0:0:
168,243,95577,5,2,0:2:0:0:
74,202,95917,1,2,0:2:0:0:
192,164,96258,1,2,0:2:0:0:
127,27,96599,1,2,3:2:0:0:
110,121,96940,1,2,0:2:0:0:
62,274,97281,2,0,P|45:225|13:155,2,125.999996154785,2|0|8,0:2|3:2|0:2,0:2:0:0:
286,294,99327,5,0,0:2:0:0:
225,361,99667,1,0,0:2:0:0:
236,221,100008,1,2,0:2:0:0:
284,154,110917,6,0,P|255:121|270:64,1,105.000004005432,2|2,0:2|0:2,0:2:0:0:
354,26,111599,1,2,0:2:0:0:
397,109,111940,1,0,0:0:0:0:
443,98,112111,1,0,0:0:0:0:
481,126,112281,1,2,0:0:0:0:
432,207,112622,1,2,0:2:0:0:
495,276,112963,1,2,0:2:0:0:
409,315,113304,6,0,P|389:356|325:360,2,105.000004005432,0|2|2,0:2|0:2|0:2,0:2:0:0:
341,247,114327,1,2,0:2:0:0:
374,159,114667,1,0,0:0:0:0:
338,127,114838,1,0,0:0:0:0:
293,143,115008,1,2,0:0:0:0:
96,346,116031,6,0,P|48:351|13:311,2,105.000004005432,0|2|2,0:2|0:2|0:2,0:2:0:0:
166,283,117054,1,2,0:2:0:0:
87,230,117395,1,0,0:0:0:0:
80,183,117565,1,0,0:0:0:0:
39,159,117736,1,2,0:0:0:0:
1,72,118077,1,2,0:2:0:0:
83,26,118417,1,2,0:2:0:0:
143,98,118758,6,0,P|187:107|235:72,1,105.000004005432,0|8,0:2|0:2,0:2:0:0:
233,74,120463,1,8,0:2:0:0:
233,74,123190,1,2,0:2:0:0:
473,231,125235,5,0,0:2:0:0:
473,231,125917,2,0,P|482:292|354:206,1,367.500014019013,2|0,0:2|0:2,0:2:0:0:
381,182,127281,2,0,P|401:127|292:131,1,210.000008010865,2|0,0:2|0:2,0:2:0:0:
208,165,128303,6,0,P|195:141|197:113,1,52.5000020027161,0|0,0:2|0:2,0:2:0:0:
213,72,128644,1,2,0:2:0:0:
130,26,128985,2,0,P|115:49|90:61,1,52.5000020027161,0|0,0:2|0:2,0:2:0:0:
47,68,129326,1,0,0:2:0:0:
48,163,129667,2,0,P|75:163|98:179,1,52.5000020027161,0|0,0:2|0:2,0:2:0:0:
126,213,130008,2,0,P|61:234|62:362,1,210.000008010865,2|2,0:2|0:2,0:2:0:0:
150,382,131031,1,0,0:2:0:0:
202,303,131372,6,0,P|265:332|232:171,1,367.500014019013,2|0,0:2|0:2,0:2:0:0:
192,192,132735,2,0,P|113:165|174:91,1,210.000008010865,2|0,0:2|0:2,0:2:0:0:
254,43,133758,6,0,P|277:62|313:62,1,52.5000020027161,0|0,0:2|0:2,0:2:0:0:
344,54,134099,1,2,0:2:0:0:
421,0,134440,2,0,P|440:23|440:59,1,52.5000020027161,0|0,0:2|0:2,0:2:0:0:
432,90,134781,1,0,0:2:0:0:
378,168,135122,2,0,P|401:187|437:187,1,52.5000020027161,0|0,0:2|0:2,0:2:0:0:
468,179,135463,1,2,0:2:0:0:
498,268,135803,1,0,0:2:0:0:
422,325,136144,1,2,0:2:0:0:
343,272,136485,1,0,0:2:0:0:
223,348,136826,6,0,P|188:322|202:236,1,140,2|2,0:2|0:2,0:2:0:0:
260,212,137338,1,0,0:2:0:0:
253,274,137508,2,0,P|209:343|100:295,1,210,2|0,0:2|0:2,0:2:0:0:
56,264,138190,2,0,P|104:236|99:153,2,140,2|2|2,0:2|0:2|0:2,0:2:0:0:
4,135,139213,6,0,P|0:103|18:70,1,70,0|0,0:2|0:2,0:2:0:0:
77,53,139553,1,2,0:2:0:0:
125,169,139894,2,0,P|150:188|188:189,1,70,2|0,0:2|0:2,0:2:0:0:
233,147,140234,1,2,0:2:0:0:
246,21,140576,2,0,P|276:11|312:23,1,70,0|0,0:2|0:2,0:2:0:0:
339,79,140917,2,0,P|362:136|446:64,1,210,8|0,0:2|0:2,0:2:0:0:
464,8,141599,1,8,0:2:0:0:
511,190,142110,5,0,0:2:0:0:
480,245,142281,2,0,P|438:297|465:358,1,140,2|2,0:2|0:2,0:2:0:0:
342,329,142963,2,0,P|288:364|201:273,1,210,2|0,0:2|0:2,0:2:0:0:
227,219,143644,2,0,P|286:238|345:194,2,140,2|2|2,0:2|0:2|0:2,0:2:0:0:
263,85,144667,6,0,P|244:56|197:46,1,70,0|0,0:2|0:2,0:2:0:0:
150,59,145008,1,2,0:2:0:0:
25,38,145349,2,0,P|9:68|24:114,1,70,2|0,0:2|0:2,0:2:0:0:
59,149,145690,1,2,0:2:0:0:
103,267,146031,2,0,P|137:265|169:229,1,70,0|0,0:2|0:2,0:2:0:0:
182,182,146372,1,8,0:2:0:0:
288,249,146713,2,0,P|330:307|286:372,1,140,0|8,0:2|0:2,0:2:0:0:
55,344,147735,6,0,P|124:368|173:328,1,140,2|2,0:2|0:2,0:2:0:0:
200,273,148247,1,0,0:2:0:0:
137,277,148417,2,0,P|83:234|116:112,1,210,8|0,3:2|0:2,0:2:0:0:
178,121,149099,2,0,P|173:51|97:29,2,140,2|2|8,0:2|0:2|3:2,0:2:0:0:
138,170,149951,1,2,0:2:0:0:
158,229,150122,5,2,0:2:0:0:
218,246,150292,1,2,0:2:0:0:
268,207,150463,1,2,0:2:0:0:
298,85,150803,2,0,P|335:77|364:91,1,70,2|0,0:2|0:2,0:2:0:0:
371,152,151144,1,8,3:2:0:0:
425,183,151315,1,2,0:2:0:0:
482,157,151485,1,2,0:2:0:0:
497,95,151656,1,2,0:2:0:0:
453,49,151826,2,0,P|407:116|297:83,1,210,8|0,0:2|0:2,0:2:0:0:
277,24,152508,1,8,0:2:0:0:
158,98,152849,6,0,P|159:136|178:162,1,70,0|0,0:2|0:2,0:2:0:0:
204,218,153190,2,0,P|274:194|322:233,1,140,2|2,0:2|0:2,0:2:0:0:
300,290,153701,1,0,0:2:0:0:
347,331,153872,2,0,P|417:355|465:316,1,140,8|0,3:2|0:2,0:2:0:0:
501,197,154553,2,0,P|444:203|399:141,1,140,2|2,0:2|0:2,0:2:0:0:
420,81,155065,1,0,0:2:0:0:
460,128,155235,1,8,3:2:0:0:
333,203,155576,6,0,P|312:182|306:140,1,70,2|0,0:2|0:2,0:2:0:0:
329,84,155917,1,8,0:2:0:0:
209,44,156258,2,0,P|188:65|182:107,1,70,2|0,0:2|0:2,0:2:0:0:
205,163,156599,2,0,P|168:194|122:190,1,94.499997116089,8|0,0:2|0:2,0:2:0:0:
98,171,156940,2,0,P|67:172|36:200,1,70,2|0,0:2|0:2,0:2:0:0:
22,257,157281,1,8,0:2:0:0:
111,346,157622,2,0,P|142:345|173:317,1,70,2|0,0:2|0:2,0:2:0:0:
187,260,157963,1,8,0:2:0:0:
418,358,158644,5,2,0:2:0:0:
479,341,158815,1,2,0:2:0:0:
505,283,158985,1,2,0:2:0:0:
476,226,159156,1,2,0:2:0:0:
413,216,159326,1,8,3:2:0:0:
384,159,159497,1,2,0:2:0:0:
410,101,159667,1,2,0:2:0:0:
471,84,159838,1,2,0:2:0:0:
498,27,160008,2,0,P|472:8|431:12,1,70,2|0,0:2|0:2,0:2:0:0:
372,5,160349,2,0,P|329:55|255:30,1,140,2|8,0:2|3:2,0:2:0:0:
123,23,161031,6,0,P|114:60|133:92,1,70,2|0,0:2|0:2,0:2:0:0:
182,118,161372,1,2,0:2:0:0:
186,180,161542,1,2,0:2:0:0:
140,224,161713,1,2,0:2:0:0:
78,211,161883,1,2,0:2:0:0:
32,254,162053,2,0,P|23:304|67:344,1,105,8|0,3:2|0:2,0:2:0:0:
86,354,162394,2,0,P|110:336|151:337,1,70,2|0,0:2|0:2,0:2:0:0:
201,371,162735,2,0,P|243:332|217:253,2,140,8|2|8,0:2|0:2|0:2,0:2:0:0:
113,279,163758,1,0,0:2:0:0:
134,139,164099,5,2,0:2:0:0:
191,165,164269,1,2,0:2:0:0:
249,140,164440,1,2,0:2:0:0:
265,79,164610,1,2,0:2:0:0:
323,54,164781,1,8,3:2:0:0:
380,80,164951,1,2,0:2:0:0:
395,141,165122,1,2,0:2:0:0:
361,194,165292,1,2,0:2:0:0:
298,203,165463,2,0,P|272:230|280:276,1,70,2|0,0:2|0:2,0:2:0:0:
252,320,165803,2,0,P|322:308|367:360,1,140,2|8,0:2|3:2,0:2:0:0:
484,266,166485,6,0,P|463:247|460:200,1,70,2|0,0:2|0:2,0:2:0:0:
484,150,166826,1,8,0:2:0:0:
498,24,167167,1,2,0:2:0:0:
436,9,167338,1,2,0:2:0:0:
393,55,167508,1,8,0:2:0:0:
410,115,167678,1,2,0:2:0:0:
368,162,167849,1,2,0:2:0:0:
305,154,168019,1,2,0:2:0:0:
275,98,168190,2,0,P|202:72|132:180,1,210,8|0,0:2|0:2,0:2:0:0:
171,210,168872,2,0,P|192:139|37:122,1,280,8|2,0:2|0:2,0:2:0:0:
