osu file format v14

[General]
AudioFilename: audio.mp3
AudioLeadIn: 0
PreviewTime: 77508
Countdown: 0
SampleSet: Soft
StackLeniency: 0.7
Mode: 0
LetterboxInBreaks: 0
WidescreenStoryboard: 1

[Editor]
Bookmarks: 23645,45463,56372,78190,100008,110917,125917,136826,147735,169553
DistanceSpacing: 1
BeatDivisor: 4
GridSize: 4
TimelineZoom: 1.6

[Metadata]
Title:Shijima ni Saku
TitleUnicode:静寂に咲く
Artist:MIMI
ArtistUnicode:MIMI
Creator:Myxo
Version:Easy
Source:osu!
Tags:hatsune miku feat. 初音ミク featured artist FA mappers' guild japanese classical pop piano vocaloid
BeatmapID:2518073
BeatmapSetID:1205717

[Difficulty]
HPDrainRate:1
CircleSize:3
OverallDifficulty:2
ApproachRate:4
SliderMultiplier:1.6
SliderTickRate:2

[Events]
//Background and Video events
0,0,"58733013_p0.png",0,0
//Break Periods
2,45463,55052
2,100208,109597
//Storyboard Layer 0 (Background)
//Storyboard Layer 1 (Fail)
//Storyboard Layer 2 (Pass)
//Storyboard Layer 3 (Foreground)
//Storyboard Layer 4 (Overlay)
//Storyboard Sound Samples

[TimingPoints]
1827,681.818181818182,4,2,1,50,1,0
78190,-133.333333333333,4,2,1,50,0,0
100008,-100,4,2,1,50,0,0
120463,681.818181818182,4,2,1,50,1,0

[Colours]
Combo1 : 156,163,209
Combo2 : 96,182,223
SliderBorder: 255,255,255

[HitObjects]
101,74,23645,6,0,P|56:80|24:64,2,80,2|2|2,0:2|0:2|0:2,0:2:0:0:
157,17,24667,1,0,0:2:0:0:
236,28,25008,2,0,P|285:72|261:155,1,160,2|2,0:2|0:2,0:2:0:0:
197,202,26031,1,0,0:2:0:0:
121,174,26372,2,0,P|82:183|56:215,1,80,2|2,0:2|0:2,0:2:0:0:
101,279,27054,2,0,P|82:314|88:356,1,80,2|0,0:2|0:2,0:2:0:0:
163,374,27736,2,0,P|226:332|300:363,1,160,2|2,0:2|0:2,0:2:0:0:
457,374,29099,5,2,0:2:0:0:
423,301,29440,1,2,0:2:0:0:
473,238,29781,1,2,0:2:0:0:
499,80,30463,2,0,P|448:61|372:129,1,160,2|2,0:2|0:2,0:2:0:0:
364,201,31486,1,0,0:2:0:0:
290,231,31827,2,0,P|247:221|224:192,2,80,2|2|2,0:2|0:2|0:2,0:2:0:0:
331,299,32849,1,0,0:2:0:0:
279,360,33190,1,8,0:2:0:0:
279,360,33872,1,8,0:2:0:0:
120,338,34554,6,0,P|87:315|47:316,1,80,2|2,0:2|0:2,0:2:0:0:
16,241,35236,1,2,0:2:0:0:
55,171,35577,1,0,0:2:0:0:
26,96,35917,2,0,P|67:53|161:82,1,160,2|2,0:2|0:2,0:2:0:0:
207,137,36940,1,0,0:2:0:0:
164,204,37281,1,2,0:2:0:0:
210,268,37622,2,0,B|216:316|180:338|180:338|221:332|246:370,1,160,2|0,0:0|0:0,0:0:0:0:
306,317,38645,2,0,P|355:304|424:378,1,160,2|2,0:2|0:2,0:2:0:0:
506,238,40008,5,2,0:2:0:0:
443,187,40349,1,2,0:2:0:0:
479,115,40690,2,0,P|483:79|460:43,1,80,2|0,0:2|0:2,0:2:0:0:
381,30,41372,2,0,P|352:74|247:69,1,160,2|2,0:2|0:2,0:2:0:0:
198,15,42395,1,0,0:2:0:0:
130,58,42736,2,0,P|88:57|42:92,2,80,2|2|2,0:2|0:2|0:2,0:2:0:0:
171,212,44099,1,8,0:2:0:0:
422,113,56372,6,0,P|414:75|433:38,2,80,2|2|2,0:2|0:2|0:2,0:2:0:0:
480,167,57395,1,0,0:2:0:0:
454,242,57736,2,0,P|401:265|319:205,1,160,2|2,0:2|0:2,0:2:0:0:
332,134,58758,1,0,0:2:0:0:
280,72,59099,2,0,P|238:65|201:82,1,80,2|2,0:2|0:2,0:2:0:0:
163,148,59781,1,0,0:2:0:0:
82,9,60463,2,0,P|71:72|-15:104,1,160,2|2,0:2|0:2,0:2:0:0:
77,237,61827,5,2,0:2:0:0:
49,311,62167,1,2,0:2:0:0:
111,360,62508,2,0,P|147:337|189:340,1,80,2|0,0:2|0:2,0:2:0:0:
257,367,63190,2,0,P|301:322|270:236,1,160,2|2,0:2|0:2,0:2:0:0:
172,113,64554,2,0,P|132:116|100:96,2,80,2|2|2,0:2|0:2|0:2,0:2:0:0:
221,50,65577,1,0,0:2:0:0:
295,91,65917,1,8,0:2:0:0:
295,91,66599,1,8,0:2:0:0:
444,33,67281,6,0,P|425:72|434:113,1,80,2|2,0:2|0:2,0:2:0:0:
456,183,67963,1,2,0:2:0:0:
395,235,68304,1,0,0:2:0:0:
322,201,68645,2,0,P|279:204|243:304,1,160,2|2,0:2|0:2,0:2:0:0:
289,364,69667,1,0,0:2:0:0:
366,342,70008,2,0,P|425:351|470:314,2,120,2|2|0,0:2|0:2|0:2,0:2:0:0:
321,275,71372,2,0,P|337:213|423:189,1,160,2|2,0:2|0:2,0:2:0:0:
489,43,72736,5,2,0:2:0:0:
416,77,73077,1,2,0:2:0:0:
355,24,73417,2,0,P|319:23|284:55,1,80,2|0,0:2|0:2,0:2:0:0:
272,128,74099,2,0,P|211:81|138:106,1,160,2|2,0:2|0:2,0:2:0:0:
122,185,75122,1,0,0:2:0:0:
42,175,75463,2,0,P|20:145|22:102,2,80,2|2|2,0:2|0:2|0:2,0:2:0:0:
22,252,76486,1,0,0:2:0:0:
89,295,76827,1,8,0:2:0:0:
264,131,78190,6,0,P|248:219|242:309,1,180.000006866455,2|0,0:2|0:2,0:2:0:0:
205,356,79554,2,0,P|264:342|339:336,1,120.000004577637,2|2,0:2|3:2,0:2:0:0:
441,357,80917,2,0,P|425:269|419:179,1,180.000006866455,2|0,0:2|0:2,0:2:0:0:
460,135,82281,5,2,0:2:0:0:
401,30,82963,1,2,3:2:0:0:
315,114,83645,2,0,P|247:137|162:73,1,180.000006866455,2|0,0:2|0:2,0:2:0:0:
168,18,85008,5,2,0:2:0:0:
59,68,85690,1,2,3:2:0:0:
119,171,86372,2,0,P|69:196|11:245,1,120.000004577637,2|0,0:2|3:2,0:2:0:0:
59,280,87395,1,2,0:2:0:0:
37,335,87736,2,0,P|109:351|168:378,1,120.000004577637,2|2,0:2|3:2,0:2:0:0:
230,278,89099,6,0,P|236:187|252:99,1,180.000006866455,2|0,0:2|0:2,0:2:0:0:
205,61,90463,2,0,P|262:51|329:27,1,120.000004577637,2|2,0:2|3:2,0:2:0:0:
438,53,91827,2,0,P|444:144|460:232,1,180.000006866455,2|0,0:2|0:2,0:2:0:0:
506,269,93190,5,2,0:2:0:0:
411,343,93872,1,2,3:2:0:0:
320,263,94554,2,0,P|345:204|272:111,1,180.000006866455,2|0,0:2|0:2,0:2:0:0:
271,56,95917,5,2,0:2:0:0:
164,111,96599,1,2,3:2:0:0:
220,216,97281,2,0,P|272:200|347:196,2,120.000004577637,2|0|8,0:2|3:2|0:2,0:2:0:0:
155,319,99327,1,0,0:2:0:0:
155,319,100008,1,2,0:2:0:0:
45,158,110917,6,0,P|83:174|168:108,1,160,2|2,0:2|0:2,0:2:0:0:
209,40,111940,1,0,0:2:0:0:
278,80,112281,1,2,0:2:0:0:
479,28,113645,6,0,P|437:66|457:160,1,160,2|2,0:2|0:2,0:2:0:0:
495,228,114667,1,0,0:2:0:0:
432,277,115008,1,2,0:2:0:0:
223,215,116372,6,0,P|244:272|175:348,1,160,2|2,0:2|0:2,0:2:0:0:
118,305,117395,1,0,0:2:0:0:
56,356,117736,1,2,0:2:0:0:
8,140,119099,5,8,0:2:0:0:
8,140,120463,1,8,0:2:0:0:
8,140,123190,1,2,0:2:0:0:
357,186,125917,6,0,P|322:144|453:158,1,320,2|2,0:2|0:2,0:2:0:0:
348,333,128644,2,0,P|383:291|252:305,1,320,2|2,0:2|0:2,0:2:0:0:
102,360,130690,1,2,0:2:0:0:
15,225,131372,6,0,P|135:179|25:111,1,320,2|2,0:2|0:2,0:2:0:0:
246,65,134099,2,0,P|125:110|235:178,1,320,2|2,0:2|0:2,0:2:0:0:
305,322,136144,1,2,0:2:0:0:
425,216,136826,6,0,P|460:175|394:119,1,160,2|2,0:2|0:2,0:2:0:0:
342,57,137849,1,0,0:2:0:0:
271,95,138190,2,0,P|237:93|201:61,2,80,2|2|2,0:2|0:2|0:2,0:2:0:0:
299,169,139213,2,0,P|268:199|264:242,1,80,0|2,0:2|0:2,0:2:0:0:
250,313,139894,2,0,P|214:338|170:335,1,80,2|2,0:2|0:2,0:2:0:0:
117,286,140576,1,0,0:2:0:0:
38,300,140917,2,0,P|3:257|33:164,1,160,8|8,0:2|0:2,0:2:0:0:
144,50,142281,5,2,0:2:0:0:
208,96,142622,1,2,0:2:0:0:
269,45,142963,2,0,P|317:37|326:129,1,160,2|2,0:2|0:2,0:2:0:0:
300,199,143985,1,2,0:2:0:0:
220,188,144326,1,2,0:2:0:0:
187,261,144667,2,0,P|183:303|210:339,1,80,0|2,0:2|0:2,0:2:0:0:
276,364,145349,2,0,P|309:342|348:344,1,80,2|2,0:2|0:2,0:2:0:0:
423,370,146031,1,0,0:2:0:0:
467,303,146372,2,0,P|429:271|445:172,1,160,8|8,0:2|0:2,0:2:0:0:
369,30,147735,6,0,P|332:15|318:111,1,160,2|8,0:2|3:2,0:2:0:0:
317,180,148758,1,0,0:2:0:0:
237,187,149099,2,0,P|205:167|192:124,2,80,2|2|8,0:2|0:2|3:2,0:2:0:0:
259,263,150122,2,0,L|305:268,2,40,2|2|2,0:2|0:2|0:2,0:2:0:0:
209,325,150803,2,0,P|168:329|136:361,1,80,2|8,0:2|3:2,0:2:0:0:
60,339,151485,1,2,0:2:0:0:
82,262,151826,2,0,P|38:224|53:132,1,160,8|8,0:2|0:2,0:2:0:0:
178,30,153190,5,2,0:2:0:0:
240,79,153531,1,2,0:2:0:0:
312,45,153872,2,0,P|364:60|338:143,1,160,8|2,3:2|0:2,0:2:0:0:
291,206,154894,2,0,L|298:253,2,40,2|2|8,0:2|0:2|3:2,0:2:0:0:
220,168,155576,2,0,P|179:169|148:198,1,80,2|8,0:2|0:2,0:2:0:0:
182,267,156258,2,0,P|159:306|167:345,1,80,2|8,0:2|0:2,0:2:0:0:
233,378,156940,1,2,0:2:0:0:
307,348,157281,2,0,P|360:322|439:375,1,160,8|8,0:2|0:2,0:2:0:0:
504,226,158644,5,2,0:2:0:0:
435,185,158985,1,2,0:2:0:0:
471,113,159326,1,8,3:2:0:0:
432,42,159667,1,2,0:2:0:0:
352,50,160008,2,0,P|340:94|243:76,1,160,2|8,0:2|3:2,0:2:0:0:
188,26,161031,2,0,L|149:15,2,40,2|2|2,0:2|0:2|0:2,0:2:0:0:
160,101,161713,2,0,L|106:113,2,40,2|2|8,0:2|0:2|3:2,0:2:0:0:
215,158,162394,1,2,0:2:0:0:
292,137,162735,2,0,P|342:159|329:266,1,160,8|8,0:2|0:2,0:2:0:0:
225,362,164099,5,2,0:2:0:0:
166,307,164440,1,2,0:2:0:0:
101,354,164781,1,8,3:2:0:0:
22,337,165122,1,2,0:2:0:0:
5,258,165463,2,0,P|48:245|29:151,1,160,2|8,0:2|3:2,0:2:0:0:
54,75,166485,2,0,L|48:35,2,40,2|2|8,0:2|0:2|0:2,0:2:0:0:
132,56,167167,2,0,L|140:16,2,40,2|2|8,0:2|0:2|0:2,0:2:0:0:
190,110,167849,1,2,0:2:0:0:
177,189,168190,2,0,P|228:218|309:165,2,160,8|8|2,0:2|0:2|0:2,0:2:0:0:
