osu file format v14

[General]
AudioFilename: audio.mp3
AudioLeadIn: 0
PreviewTime: 44713
Countdown: 0
SampleSet: Soft
StackLeniency: 0.4
Mode: 0
LetterboxInBreaks: 0
WidescreenStoryboard: 0

[Editor]
Bookmarks: 23023,44841,66659
DistanceSpacing: 2.9
BeatDivisor: 4
GridSize: 16
TimelineZoom: 2.4

[Metadata]
Title:Shijima ni Saku (Cut Ver.)
TitleUnicode:静寂に咲く (Cut Ver.)
Artist:MIMI
ArtistUnicode:MIMI
Creator:Hivie
Version:Daycore's Hard
Source:
Tags:佐藤主税 vocaloid japanese fa featured artist osu! mpg mappers' guild wanpachi cycopton Daycore Hatsune Miku 初音ミク melodic pop j-pop jpop classical
BeatmapID:2889073
BeatmapSetID:1400312

[Difficulty]
HPDrainRate:5
CircleSize:4.5
OverallDifficulty:6.5
ApproachRate:7.5
SliderMultiplier:1.5
SliderTickRate:1

[Events]
//Background and Video events
0,0,"bg.jpg",0,0
//Break Periods
//Storyboard Layer 0 (Background)
//Storyboard Layer 1 (Fail)
//Storyboard Layer 2 (Pass)
//Storyboard Layer 3 (Foreground)
//Storyboard Layer 4 (Overlay)
//Storyboard Sound Samples

[TimingPoints]
-4249,340.909090909091,4,2,1,15,1,0
1205,-100,4,2,1,25,0,0
11773,-100,4,2,1,20,0,0
12114,-100,4,2,1,25,0,0
23023,-100,4,2,1,25,0,0
32569,-100,4,2,1,25,0,0
33165,-100,4,2,1,5,0,0
33251,-100,4,2,1,25,0,0
33847,-100,4,2,1,5,0,0
33932,-100,4,2,1,25,0,0
43478,-100,4,2,1,25,0,0
44501,-100,4,2,1,15,0,0
44841,-100,4,2,1,35,0,1
48932,-100,4,2,1,35,0,1
50296,-100,4,2,1,35,0,1
53961,-100,4,2,1,5,0,1
54046,-100,4,2,1,35,0,1
60779,-100,4,2,1,5,0,1
60864,-100,4,2,1,35,0,1
63506,-100,4,2,1,5,0,1
63591,-100,4,2,1,35,0,1
66660,-100,4,2,1,35,0,0

[Colours]
Combo1 : 196,196,196
Combo2 : 58,161,219
Combo3 : 151,151,157
Combo4 : 77,201,223
Combo5 : 219,89,109

[HitObjects]
102,203,523,53,2,0:0:0:0:
277,164,864,1,2,0:0:0:0:
184,114,1205,22,0,P|171:152|186:209,1,75,2|2,2:0|2:0,0:0:0:0:
153,258,1546,2,0,B|228:254|223:308|301:298,2,150,2|2|2,2:0|2:0|2:0,0:0:0:0:
102,203,2398,1,2,2:0:0:0:
42,248,2569,54,0,P|47:302|135:370,1,150,10|0,2:0|2:0,0:0:0:0:
263,367,3251,2,0,B|328:373|328:373|343:370|343:370|438:377,1,150,8|2,2:0|2:0,0:0:0:0:
479,340,3762,1,2,2:0:0:0:
430,256,3932,38,0,L|447:177,2,75,2|2|2,2:0|2:0|2:0,0:0:0:0:
412,375,4614,2,0,B|343:370|343:370|328:373|328:373|263:367,1,150,2|2,2:0|2:0,0:0:0:0:
226,301,5126,1,2,2:0:0:0:
268,238,5296,54,0,L|246:148,1,75,10|0,2:0|0:0,0:0:0:0:
308,116,5637,2,0,B|268:116|242:147|242:147|219:114|152:105,1,150,0|8,2:0|2:0,0:0:0:0:
38,70,6319,1,2,2:0:0:0:
38,70,6489,1,2,2:0:0:0:
111,24,6660,54,0,L|217:39,1,75,2|2,2:0|2:0,0:0:0:0:
260,35,7001,2,0,P|333:24|402:89,1,150,2|2,2:0|2:0,0:0:0:0:
391,66,7682,1,2,2:0:0:0:
442,120,7853,1,2,2:0:0:0:
484,58,8023,54,0,L|461:222,1,150,10|0,2:0|2:0,0:0:0:0:
359,315,8705,2,0,L|338:166,1,150,8|2,2:0|0:0,0:0:0:0:
281,117,9216,1,2,0:0:0:0:
231,202,9387,38,0,P|185:216|129:196,1,75,10|0,0:0|0:0,0:0:0:0:
111,153,9728,2,0,L|134:311,2,150,2|10|2,0:0|0:0|0:0,0:0:0:0:
51,106,10580,1,0,0:0:0:0:
42,180,10751,6,0,B|64:324|64:324|81:374|138:373,1,225,10|0,0:0|0:0,0:0:0:0:
193,352,11432,2,0,B|248:361|248:361|282:353|282:353|353:360,1,150,0|2,0:0|0:0,0:0:0:0:
382,295,11944,1,2,0:0:0:0:
455,360,12114,22,0,P|474:319|461:274,1,75,2|2,2:0|2:0,0:0:0:0:
419,234,12455,2,0,L|442:71,2,150,2|2|2,2:0|2:0|2:0,0:0:0:0:
346,253,13307,1,2,2:0:0:0:
273,273,13478,54,0,L|296:110,1,150,10|0,2:0|2:0,0:0:0:0:
172,37,14160,2,0,B|188:184|178:37|192:185,1,150,8|2,2:0|0:0,0:0:0:0:
177,259,14671,1,2,0:0:0:0:
81,240,14841,38,0,P|45:256|25:307,1,75,2|2,0:0|0:0,0:0:0:0:
46,357,15182,2,0,P|94:321|75:235,1,150,2|2,0:0|0:0,0:0:0:0:
16,108,15864,1,2,0:0:0:0:
16,108,16035,1,2,0:0:0:0:
79,49,16205,54,0,P|143:76|206:31,1,150,10|0,0:0|0:0,0:0:0:0:
353,14,16887,2,0,B|330:6|303:32|313:65|313:65|339:153,1,150,8|2,0:0|2:0,0:0:0:0:
402,160,17398,1,2,2:0:0:0:
345,238,17569,54,0,P|306:230|257:227,1,75,2|2,2:0|2:0,0:0:0:0:
228,288,17910,2,0,P|278:300|345:238,1,150,2|2,2:0|2:0,0:0:0:0:
345,238,18591,1,2,2:0:0:0:
418,248,18762,1,2,2:0:0:0:
492,257,18932,54,0,B|504:246|513:227|513:227|494:355,1,150,10|0,2:0|2:0,0:0:0:0:
345,337,19614,2,0,B|276:319|274:366|196:380,1,150,8|2,2:0|0:0,0:0:0:0:
173,310,20126,1,2,0:0:0:0:
82,345,20296,38,0,P|80:303|108:261,1,75,10|0,0:0|0:0,0:0:0:0:
73,201,20637,2,0,P|129:194|146:101,1,150,2|10,0:0|0:0,0:0:0:0:
171,265,21319,1,2,0:0:0:0:
171,265,21489,1,2,0:0:0:0:
214,195,21660,6,0,B|357:204|357:204|363:208|363:208|405:182|375:121,1,225,10|0,0:0|0:0,0:0:0:0:
320,102,22341,2,0,B|296:119|303:157|303:157|316:254|316:254|328:305|389:294,1,225
424,255,23023,22,0,L|503:264,2,75,2|2|2,0:0|0:0|0:0,0:0:0:0:
360,295,23535,1,2,0:0:0:0:
426,329,23705,2,0,P|392:362|299:336,1,150,2|2,0:0|0:0,0:0:0:0:
241,289,24216,1,2,0:0:0:0:
184,338,24387,53,10,0:0:0:0:
77,231,24728,1,0,0:0:0:0:
184,125,25069,1,8,0:0:0:0:
290,231,25410,1,2,0:0:0:0:
226,190,25580,1,2,0:0:0:0:
293,157,25751,38,0,P|333:136|384:141,1,75,2|2,0:0|0:0,0:0:0:0:
434,114,26091,2,0,P|432:159|402:200,1,75,2|2,0:0|0:0,0:0:0:0:
369,242,26432,1,2,0:0:0:0:
369,242,26603,1,2,0:0:0:0:
430,284,26773,2,0,L|443:362,1,75,2|2,0:0|0:0,0:0:0:0:
367,357,27114,54,0,P|322:378|260:306,1,150,10|0,0:0|0:0,0:0:0:0:
149,212,27796,2,0,P|189:240|94:326,1,225,8|0,0:0|0:0,0:0:0:0:
51,264,28478,54,0,P|48:226|40:179,1,75,2|2,0:0|0:0,0:0:0:0:
107,150,28819,2,0,P|109:112|118:65,1,75,2|2,0:0|0:0,0:0:0:0:
69,16,29160,1,2,0:0:0:0:
69,16,29330,2,0,B|105:28|129:56|129:56|161:27|209:26,1,150,2|2,0:0|0:0,0:0:0:0:
273,23,29841,54,0,B|354:44|434:114|354:223|257:174|272:98,1,300,10|8,0:0|0:0,0:0:0:0:
439,116,30864,1,2,0:0:0:0:
485,57,31035,1,2,0:0:0:0:
511,127,31205,38,0,L|493:235,2,75,2|2|2,0:0|0:0|0:0,0:0:0:0:
485,57,31716,1,2,0:0:0:0:
439,116,31887,2,0,L|464:267,1,150,2|2,0:0|0:0,0:0:0:0:
442,336,32398,1,2,0:0:0:0:
372,280,32569,5,10,0:0:0:0:
75,324,33251,1,10,0:0:0:0:
322,338,33932,22,0,P|295:285|299:254,1,75,2|2,0:0|0:0,0:0:0:0:
341,211,34273,2,0,P|335:174|314:144,1,75,2|2,0:0|0:0,0:0:0:0:
247,108,34614,1,2,0:0:0:0:
247,108,34785,1,2,0:0:0:0:
185,151,34955,2,0,P|137:150|114:115,1,75,2|2,0:0|0:0,0:0:0:0:
77,194,35296,54,0,P|120:131|73:67,1,150,10|0,0:0|0:0,0:0:0:0:
227,17,35978,2,0,P|260:85|338:77,1,150,8|2,0:0|0:0,0:0:0:0:
392,51,36489,1,2,0:0:0:0:
450,98,36660,38,0,P|469:56|461:22,2,75,2|2|2,0:0|0:0|0:0,0:0:0:0:
402,156,37171,1,2,0:0:0:0:
456,207,37341,2,0,B|440:229|440:229|448:290,1,75,2|0,0:0|0:0,0:0:0:0:
406,341,37682,1,2,0:0:0:0:
406,341,37853,1,2,0:0:0:0:
319,317,38023,54,0,P|274:320|212:224,2,150,10|0|8,0:0|0:0|0:0,0:0:0:0:
196,325,39387,54,0,L|104:314,1,75,2|2,0:0|0:0,0:0:0:0:
119,240,39728,2,0,L|27:251,1,75,2|2,0:0|0:0,0:0:0:0:
38,174,40069,2,0,L|112:165,1,75,2|0,0:0|0:0,0:0:0:0:
170,117,40410,1,2,0:0:0:0:
237,149,40580,1,2,0:0:0:0:
295,102,40751,54,0,P|330:149|415:116,1,150,10|0,0:0|0:0,0:0:0:0:
498,7,41432,2,0,B|437:14|437:14|415:26|415:26|344:31,1,150,8|2,0:0|0:0,0:0:0:0:
276,26,41944,1,2,0:0:0:0:
204,1,42114,38,0,P|167:18|141:55,1,75,2|2,0:0|0:0,0:0:0:0:
76,72,42455,2,0,P|113:89|139:126,1,75,2|2,0:0|0:0,0:0:0:0:
189,172,42796,1,2,0:0:0:0:
189,172,42966,2,0,P|152:189|126:226,1,75,2|2,0:0|0:0,0:0:0:0:
71,261,43307,1,2,0:0:0:0:
122,326,43478,6,0,B|151:381|207:392|270:382|307:353|330:283|306:219|243:201|186:226|176:271|186:298|186:298|204:266|242:262,1,450,10|0,0:0|0:0,0:0:0:0:
366,254,44841,22,0,P|375:203|399:176,1,75,14|2,0:0|0:0,0:0:0:0:
465,172,45182,1,2,0:0:0:0:
465,172,45353,2,0,P|399:164|381:83,1,150,2|2,0:0|0:0,0:0:0:0:
442,47,45864,2,0,P|413:22|361:19,1,75,2|2,0:0|0:0,0:0:0:0:
309,46,46205,54,0,B|273:47|273:47|267:50|267:50|225:51,1,75,10|2,0:0|0:0,0:0:0:0:
212,122,46546,2,0,B|176:121|176:121|170:117|170:117|128:117,1,75,2|2,0:0|0:0,0:0:0:0:
85,171,46887,2,0,P|111:112|65:32,1,150,10|2,0:0|0:0,0:0:0:0:
26,95,47398,1,2,0:0:0:0:
85,171,47569,38,0,L|71:327,1,150,10|2,0:0|0:0,0:0:0:0:
8,374,48080,1,2,0:0:0:0:
72,321,48251,2,0,B|128:365|173:303|227:324,1,150,10|2,0:0|0:0,0:0:0:0:
288,359,48762,1,2,0:0:0:0:
369,344,48932,53,14,0:0:0:0:
377,261,49103,1,0,0:0:0:0:
298,227,49273,2,0,P|252:219|223:197,1,75,2|2,0:0|0:0,0:0:0:0:
168,159,49614,1,14,0:0:0:0:
362,138,49955,1,2,0:0:0:0:
288,154,50126,1,2,0:0:0:0:
288,154,50296,54,0,P|294:103|318:75,1,75,14|2,0:0|0:0,0:0:0:0:
381,68,50637,2,0,P|375:119|351:147,1,75,2|2,0:0|0:0,0:0:0:0:
346,213,50978,1,10,0:0:0:0:
346,213,51148,1,2,0:0:0:0:
417,233,51319,2,0,L|406:316,1,75,2|2,0:0|0:0,0:0:0:0:
456,375,51660,54,0,P|398:389|328:334,1,150,10|2,0:0|0:0,0:0:0:0:
256,320,52171,1,2,0:0:0:0:
182,338,52341,2,0,P|127:386|56:375,1,150,10|2,0:0|0:0,0:0:0:0:
22,298,52853,1,2,0:0:0:0:
19,197,53023,38,0,B|7:135|36:77|94:74|127:104|128:165|75:173,1,225,14|2,0:0|0:0,0:0:0:0:
83,244,53705,2,0,P|129:229|206:222,1,112.5,14|2,0:0|0:0,0:0:0:0:
203,227,54046,2,0,L|231:151,1,75,2|2,0:0|0:0,0:0:0:0:
188,93,54387,54,0,B|218:134|294:131|307:75|307:75|287:38|238:50,1,225,14|2,0:0|0:0,0:0:0:0:
168,12,55069,1,14,0:0:0:0:
432,295,55751,54,0,P|431:254|462:204,1,75,14|2,0:0|0:0,0:0:0:0:
503,177,56091,1,2,0:0:0:0:
444,129,56262,1,2,0:0:0:0:
382,171,56432,2,0,P|346:192|288:190,1,75,10|2,0:0|0:0,0:0:0:0:
302,270,56773,2,0,P|338:289|365:341,1,75,2|2,0:0|0:0,0:0:0:0:
305,370,57114,53,10,0:0:0:0:
305,370,57285,1,2,0:0:0:0:
237,336,57455,2,0,P|183:319|152:326,1,75,2|2,0:0|0:0,0:0:0:0:
106,367,57796,2,0,B|146:335|146:335|124:230,1,150,10|2,0:0|0:0,0:0:0:0:
63,195,58307,1,2,0:0:0:0:
101,105,58478,38,0,L|85:32,1,75,10|0,0:0|0:0,0:0:0:0:
159,22,58819,2,0,L|175:95,1,75,2|2,0:0|0:0,0:0:0:0:
245,68,59160,1,10,0:0:0:0:
234,143,59330,2,0,L|322:136,1,75,2|2,0:0|0:0,0:0:0:0:
376,105,59671,1,2,0:0:0:0:
411,170,59841,53,14,0:0:0:0:
344,205,60012,1,2,0:0:0:0:
408,243,60182,2,0,L|441:311,1,75,2|2,0:0|0:0,0:0:0:0:
490,366,60523,2,0,P|425:342|381:373,1,112.5,14|0,0:0|0:0,0:0:0:0:
383,361,60864,2,0,L|306:356,1,75,2|0,0:0|0:0,0:0:0:0:
228,299,61205,54,0,P|175:277|96:344,1,150,14|2,0:0|0:0,0:0:0:0:
42,370,61716,1,2,0:0:0:0:
6,303,61887,2,0,P|14:268|21:218,1,75,10|2,0:0|0:0,0:0:0:0:
92,210,62228,2,0,P|84:175|77:125,1,75,2|2,0:0|0:0,0:0:0:0:
14,96,62569,53,10,0:0:0:0:
82,64,62739,1,2,0:0:0:0:
147,100,62910,2,0,P|181:110|228:129,1,75,2|2,0:0|0:0,0:0:0:0:
284,159,63251,2,0,P|319:147|350:61,1,112.5,10|0,0:0|0:0,0:0:0:0:
352,77,63591,2,0,P|299:77|273:95,1,75,2|2,0:0|0:0,0:0:0:0:
284,159,63932,38,0,P|335:186|355:205,1,75,14|0,0:0|0:0,0:0:0:0:
399,252,64273,2,0,P|364:267|335:290,1,75,2|2,0:0|0:0,0:0:0:0:
261,276,64614,54,0,L|177:266,1,75,14|0,0:0|0:0,0:0:0:0:
183,342,64955,2,0,L|108:333,1,75,2|2,0:0|0:0,0:0:0:0:
59,276,65296,54,0,P|80:245|72:197,1,75,14|0,0:0|0:0,0:0:0:0:
79,133,65637,2,0,P|77:96|98:65,1,75,2|0,0:0|0:0,0:0:0:0:
169,40,65978,53,14,0:0:0:0:
212,110,66148,1,2,0:0:0:0:
293,99,66319,1,2,0:0:0:0:
373,80,66489,1,2,0:0:0:0:
395,0,66660,53,4,0:0:0:0:
