osu file format v14

[General]
AudioFilename: audio.mp3
AudioLeadIn: 0
PreviewTime: 82361
Countdown: 0
SampleSet: Soft
StackLeniency: 0.5
Mode: 0
LetterboxInBreaks: 0
EpilepsyWarning: 1
WidescreenStoryboard: 1

[Editor]
Bookmarks: 2192,18327,34461,50596,66730,82865,98999,115134,131268,147403,163537,179671,195680
DistanceSpacing: 0.8
BeatDivisor: 4
GridSize: 32
TimelineZoom: 2.5

[Metadata]
Title:Nanimo nai Youna
TitleUnicode:何もない様な
Artist:MIMI
ArtistUnicode:MIMI
Creator:eiri-
Version:Extra
Source:osu!
Tags:Ayyri Trynna Hatsune Miku feat. 初音ミク Featured Artist FA Japanese Pop Vocaloid
BeatmapID:2403536
BeatmapSetID:1151466

[Difficulty]
HPDrainRate:5
CircleSize:4
OverallDifficulty:8.5
ApproachRate:9.3
SliderMultiplier:1.6
SliderTickRate:1

[Events]
//Background and Video events
0,0,"Miku 473.jpg",0,0
//Break Periods
//Storyboard Layer 0 (Background)
Sprite,Background,Centre,"miku 473.jpg",0,0 F,0,147140,,1 S,0,147140,,0.5555556 M,8,147140,147393,320,240,320.3302,240.15 M,8,147393,147456,320.3302,240.15,320.6365,240.0927 M,8,147456,147519,320.6365,240.0927,320.8903,239.7914 M,8,147519,147582,320.8903,239.7914,321.16,239.544 M,8,147582,147645,321.16,239.544,321.4683,239.5364 M,8,147645,147771,321.4683,239.5364,321.3349,240.675 M,8,147771,147897,321.3349,240.675,320.3302,240.15 M,8,147897,147960,320.3302,240.15,320.0916,240.4823 M,8,147960,148023,320.0915,240.4824,320.0125,241.0027 M,8,148023,148149,320.0125,241.0027,320.8009,242.3 M,8,148149,148275,320.8009,242.3,320.6464,241.1 M,8,148275,148401,320.6464,241.1,319.4309,241.5125 M,8,148401,148464,319.4309,241.5125,319.1254,241.5966 M,8,148464,148527,319.1254,241.5966,318.8199,241.6806 M,8,148527,148653,318.8199,241.6806,318.3068,240.2375 M,8,148653,148716,318.3068,240.2375,318.6123,240.3215 M,8,148716,148779,318.6123,240.3216,318.9178,240.4056 M,8,148779,148905,318.9178,240.4056,319.452,239.4625 M,8,148905,148968,319.452,239.4625,319.1591,239.2867 M,8,148968,149031,319.1591,239.2867,318.8689,239.1125 M,8,149031,149157,318.8689,239.1125,318.5597,238.125 M,8,149157,149283,318.5597,238.125,319.9438,238.9375 M,8,149283,149409,319.9438,238.9375,320.7096,238.425 M,8,149409,149472,320.7096,238.425,320.9833,238.6254 M,8,149472,149535,320.9833,238.6254,321.231,238.3431 M,8,149535,149598,321.231,238.3431,321.243,237.8221 M,8,149598,149661,321.243,237.8221,321.0187,237.5 M,8,149661,149788,321.0187,237.5,320.1616,237.5 M,8,149788,149914,320.1616,237.5,320.7096,238.425 M,8,149914,149977,320.7096,238.425,320.6606,238.9681 M,8,149977,150040,320.6606,238.9681,320.6117,239.5111 M,8,150040,150166,320.6117,239.5111,321.1452,240.45 M,8,150166,150292,321.1452,240.45,320.4778,240.8375 M,8,150292,150418,320.4778,240.8375,319.9719,239.925 M,8,150418,150544,319.9719,239.925,320.3091,242.075 M,8,150544,150670,320.3091,242.075,319.459,240.675 M,8,150670,150796,319.459,240.675,319.2623,241.8125 M,8,150796,150922,319.2623,241.8125,318.7564,240.9375 M,8,150922,150985,318.7564,240.9375,318.4544,240.9521 M,8,150985,151048,318.4544,240.952,318.2166,240.6232 M,8,151048,151174,318.2166,240.6232,318.6932,239.8 M,8,151174,151300,318.6932,239.8,318.2084,242.025 M,8,151300,151426,318.2084,242.025,318.6159,239.425 M,8,151426,151489,318.6159,239.425,318.9233,239.4043 M,8,151489,151552,318.9233,239.4043,319.1841,239.1234 M,8,151552,151615,319.1841,239.1234,319.4353,238.8168 M,8,151615,151678,319.4353,238.8168,319.7401,238.825 M,8,151678,151804,319.7401,238.825,318.7494,238.4375 M,8,151804,151930,318.7494,238.4375,319.7401,238.825 M,8,151930,151993,319.7401,238.825,320.0293,238.9711 M,8,151993,152056,320.0293,238.9711,320.2984,238.7318 M,8,152056,152183,320.2984,238.7318,320.822,238.0375 M,8,152183,152309,320.822,238.0375,319.9579,237.675 M,8,152309,152435,319.9579,237.675,320.1897,239.8125 M,8,152435,152498,320.1897,239.8125,320.2428,239.2707 M,8,152498,152561,320.2428,239.2706,320.2951,238.7375 M,8,152561,152687,320.2951,238.7375,320.4356,240.975 M,8,152687,152750,320.4356,240.975,320.6725,241.3283 M,8,152750,152813,320.6725,241.3284,320.9094,241.6816 M,8,152813,152939,320.9094,241.6816,319.7471,240.775 M,8,152939,153002,319.7471,240.775,319.4579,240.9695 M,8,153002,153065,319.4579,240.9695,319.171,241.1625 M,8,153065,153191,319.171,241.1625,318.5457,240.375 M,8,153191,153317,318.5457,240.375,319.2482,239.8375 M,8,153317,153443,319.2482,239.8375,319.185,242.2875 M,8,153443,153506,319.185,242.2875,318.8857,242.183 M,8,153506,153569,318.8856,242.1829,318.6651,241.825 M,8,153569,153695,318.6651,241.825,318.6932,239.3125 M,8,153695,153758,318.6932,239.3125,318.8916,238.9027 M,8,153758,153821,318.8917,238.9027,319.1834,238.7501 M,8,153821,153947,319.1834,238.7501,320.3794,238.4125 M,8,153947,154073,320.3794,238.4125,319.7892,238.6375 M,8,154073,154199,319.7892,238.6375,319.4169,237.8125 M,8,154199,154451,319.4169,237.8125,321.1241,239.1375 M,8,154451,154577,321.1241,239.1375,320.9344,240.25 M,8,154577,154704,320.9344,240.25,321.5948,240.55 M,8,154704,154830,321.5948,240.55,321.7845,239.4375 M,8,154830,154956,321.7845,239.4375,321.3349,239.8125 M,8,154956,155019,321.3349,239.8125,321.0294,239.7689 M,8,155019,155082,321.0294,239.7689,320.742,239.9671 M,8,155082,155145,320.742,239.9671,320.4374,239.9246 M,8,155145,155208,320.4374,239.9246,320.267,239.675 M,8,155208,155271,320.267,239.675,320.3576,240.1976 M,8,155271,155334,320.3576,240.1976,320.3445,240.7435 M,8,155334,155460,320.3445,240.7435,319.7682,241.9375 M,8,155460,155523,319.7682,241.9375,319.4618,241.8634 M,8,155523,155586,319.4618,241.8634,319.1555,241.7893 M,8,155586,155649,319.1555,241.7893,318.9702,241.4405 M,8,155649,155712,318.9701,241.4404,319.0726,240.95 M,8,155712,155838,319.0726,240.95,318.7845,239.9125 M,8,155838,155964,318.7845,239.9125,318.2857,240.3625 M,8,155964,156027,318.2857,240.3625,318.5023,239.9769 M,8,156027,156090,318.5024,239.9768,318.6116,239.4681 M,8,156090,156153,318.6117,239.4681,318.595,238.9246 M,8,156153,156216,318.595,238.9246,318.4403,238.7 M,8,156216,156279,318.4403,238.7,318.7395,238.5616 M,8,156279,156342,318.7395,238.5616,319.0387,238.4232 M,8,156342,156468,319.0387,238.4232,319.8033,238.175 M,8,156468,156594,319.8033,238.175,319.5785,239.2375 M,8,156594,156720,319.5785,239.2375,319.0445,238.425 M,8,156720,156846,319.0445,238.425,320.2529,239.05 M,8,156846,156972,320.2529,239.05,319.3817,240.35 M,8,156972,157098,319.3817,240.35,319.8033,238.175 M,8,157098,157225,319.8033,238.175,320.0211,240.2 M,8,157225,157351,320.0211,240.2,319.0445,238.425 M,8,157351,157477,319.0445,238.425,320.5761,237.8125 M,8,157477,157540,320.5761,237.8125,320.8817,237.8949 M,8,157540,157603,320.8818,237.8949,321.1874,237.9773 M,8,157603,157729,321.1874,237.9773,321.623,238.85 M,8,157729,157792,321.623,238.85,321.5766,239.3938 M,8,157792,157855,321.5766,239.3938,321.5303,239.9376 M,8,157855,157981,321.5303,239.9376,320.9977,240.65 M,8,157981,158107,320.9977,240.65,321.2225,242.075 M,8,158107,158233,321.2225,242.075,320.4215,241.7375 M,8,158233,158359,320.4215,241.7375,320.2108,240.425 M,8,158359,158422,320.2108,240.425,319.907,240.5231 M,8,158422,158485,319.907,240.5231,319.5983,240.5339 M,8,158485,158548,319.5983,240.5339,319.2927,240.4572 M,8,158548,158611,319.2927,240.4572,319.1569,240.1625 M,8,158611,158737,319.1569,240.1625,318.5948,241.3875 M,8,158737,158863,318.5948,241.3875,318.7143,239.3375 M,8,158863,158989,318.7143,239.3375,318.4543,238.15 M,8,158989,159052,318.4543,238.15,318.7611,238.2182 M,8,159052,159115,318.7611,238.2182,319.0678,238.2864 M,8,159115,159241,319.0678,238.2864,320.3232,237.5875 M,8,159241,159304,320.3232,237.5875,320.0165,237.6565 M,8,159304,159367,320.0164,237.6565,319.7119,237.725 M,8,159367,159493,319.7119,237.725,320.2389,238.9375 M,8,159493,159556,320.2389,238.9375,320.5419,239.0058 M,8,159556,159619,320.5419,239.0058,320.8263,238.8104 M,8,159619,159682,320.8264,238.8103,321.0246,238.3983 M,8,159682,159745,321.0246,238.3983,321.089,237.8671 M,8,159745,159872,321.089,237.8671,320.9344,239.225 M,8,159872,159998,320.9344,239.225,320.9836,240.6 M,8,159998,160061,320.9836,240.6,321.0084,240.0518 M,8,160061,160124,321.0084,240.0517,321.0328,239.5125 M,8,160124,160250,321.0328,239.5125,319.8033,241.475 M,8,160250,160313,319.8033,241.475,320.0996,241.5492 M,8,160313,160376,320.0996,241.5491,320.331,241.2157 M,8,160376,160439,320.331,241.2156,320.3583,240.7 M,8,160439,160502,320.3583,240.7,320.2318,240.4 M,8,160502,160565,320.2318,240.4,319.9233,240.4334 M,8,160565,160628,319.9232,240.4334,319.6147,240.4668 M,8,160628,160754,319.6147,240.4668,318.5386,239.1375 M,8,160754,160817,318.5386,239.1375,318.8472,239.1709 M,8,160817,160880,318.8472,239.1709,319.1558,239.2043 M,8,160880,161006,319.1558,239.2043,319.7682,238.275 M,8,161006,161069,319.7682,238.275,319.8274,238.8148 M,8,161069,161132,319.8275,238.8148,319.8867,239.3546 M,8,161132,161258,319.8867,239.3546,318.7283,241.3375 M,8,161258,161321,318.7283,241.3375,318.7859,240.7971 M,8,161321,161384,318.7859,240.7971,318.8434,240.2567 M,8,161384,161510,318.8434,240.2567,319.8033,241.475 M,8,161510,161573,319.8033,241.475,320.0738,241.7254 M,8,161573,161636,320.0738,241.7254,320.3777,241.695 M,8,161636,161699,320.3777,241.695,320.6299,241.3933 M,8,161699,161762,320.6299,241.3933,320.555,241.0875 M,8,161762,161825,320.555,241.0875,320.86,241.177 M,8,161825,161888,320.8601,241.177,321.1651,241.2664 M,8,161888,162014,321.1651,241.2664,321.7494,240.1375 M,8,162014,162140,321.7494,240.1375,321.2225,239.375 M,8,162140,162267,321.2225,239.375,320.5761,239.8125 M,8,162267,162393,320.5761,239.8125,320.555,241.0875 M,8,162393,162519,320.555,241.0875,319.8033,241.475 M,8,162519,162645,319.8033,241.475,320.1124,238.9875 M,8,162645,162771,320.1124,238.9875,319.445,239.2 M,8,162771,162897,319.445,239.2,319.2553,240.6125 M,8,162897,163023,319.2553,240.6125,318.4614,239.5625 M,8,163023,163086,318.4614,239.5625,318.6133,240.0415 M,8,163086,163149,318.6133,240.0416,318.6811,239.5223 M,8,163149,163212,318.6811,239.5222,318.7475,238.9851 M,8,163212,163275,318.7475,238.9851,318.6511,238.6125 M,8,163275,163338,318.6511,238.6125,318.9485,238.5347 M,8,163338,163401,318.9486,238.5346,319.1218,238.1 M,8,163401,163527,319.1218,238.1,320.3513,237.725 M,8,163527,163590,320.3513,237.725,320.0874,238.0115 M,8,163590,163653,320.0874,238.0115,319.9688,238.4041 M,8,163653,163716,319.9688,238.4042,320.0432,238.938 M,8,163716,163779,320.0432,238.938,320.1177,239.4717 M,8,163779,163905,320.1177,239.4717,320.9977,237.6875 M,8,163905,164031,320.9977,237.6875,321.7564,238.9125 M,8,164031,164094,321.7564,238.9125,321.6968,239.45 M,8,164094,164157,321.6968,239.4501,321.5556,239.9366 M,8,164157,164283,321.5556,239.9366,320.829,241.25 M,8,164283,164409,320.829,241.25,320.6674,240.1 M,8,164409,164535,320.6674,240.1,321.7986,241.1 M,8,164535,164598,321.7986,241.1,321.7694,241.6475 M,8,164598,164661,321.7694,241.6476,321.7402,242.1951 M,8,164661,164788,321.7402,242.1951,320.6323,239.9375 M,8,164788,164851,320.6323,239.9375,320.6615,239.39 M,8,164851,164914,320.6615,239.3899,320.6907,238.8424 M,8,164914,165040,320.6907,238.8424,320.9766,241.475 M,8,165040,165103,320.9766,241.475,320.7247,241.7832 M,8,165103,165166,320.7247,241.7832,320.4217,241.848 M,8,165166,165291,320.4217,241.848,319.445,240.4875 M,8,165291,165418,319.445,240.4875,320.3302,240.9 M,8,165418,165544,320.3302,240.9,318.4262,241.5 M,8,165544,165607,318.4262,241.5,318.3745,240.9579 M,8,165607,165670,318.3745,240.9579,318.3468,240.4103 M,8,165670,165733,318.3468,240.4102,318.3431,239.8604 M,8,165733,165796,318.3431,239.8604,318.3642,239.312 M,8,165796,165922,318.3642,239.312,318.5527,237.75 M,8,165922,166048,318.5527,237.75,320,238.7 M,8,166048,166174,320,238.7,319.2061,239.325 M,8,166174,166300,319.2061,239.325,319.6066,237.5 M,8,166300,166426,319.6066,237.5,319.1218,239.675 M,8,166426,166489,319.1218,239.675,319.163,240.2201 M,8,166489,166552,319.163,240.2202,319.2042,240.7652 M,8,166552,166678,319.2042,240.7652,320.5901,238.725 M,8,166678,166741,320.5901,238.725,320.549,238.1799 M,8,166741,166804,320.549,238.1799,320.5078,237.6348 M,8,166804,166931,320.5078,237.6348,320.7096,240.8 M,8,166931,167056,320.7096,240.8 M,8,167056,167119,320.7096,240.8,320.898,240.3766 M,8,167119,167182,320.8981,240.3766,321.1895,240.2298 M,8,167182,167245,321.1895,240.2298,321.4735,240.4139 M,8,167245,167309,321.4735,240.4139,321.7283,240.8875 M,8,167309,167372,321.7283,240.8875,321.4572,241.1361 M,8,167372,167435,321.4571,241.1362,321.2957,241.5956 M,8,167435,167561,321.2957,241.5956,319.7611,239.65 M,8,167561,167624,319.7611,239.65,320.0516,239.4884 M,8,167624,167687,320.0516,239.4884,320.3448,239.629 M,8,167687,167750,320.3448,239.629,320.5505,240.0263 M,8,167750,167813,320.5506,240.0263,320.601,240.5591 M,8,167813,167939,320.601,240.5591,319.2272,240.925 M,8,167939,168065,319.2272,240.925,319.171,238.9375 M,8,168065,168128,319.171,238.9375,319.1608,239.4872 M,8,168128,168191,319.1608,239.4873,319.1506,240.037 M,8,168191,168254,319.1506,240.037,319.1405,240.5866 M,8,168254,168317,319.1405,240.5866,319.2272,240.925 M,8,168317,168443,319.2272,240.925,318.9883,237.6875 M,8,168443,168569,318.9883,237.6875,321.1241,237.9 M,8,168569,168632,321.1241,237.9,321.0681,238.4259 M,8,168632,168695,321.0681,238.426,320.824,238.7357 M,8,168695,168758,320.824,238.7357,320.5281,238.6589 M,8,168758,168821,320.5281,238.6589,320.5199,238.5125 M,8,168821,168884,320.5199,238.5125,320.7935,238.7336 M,8,168884,168947,320.7935,238.7337,320.9055,239.2273 M,8,168947,169073,320.9055,239.2273,318.8759,237.9 M,8,169073,169136,318.8759,237.9,318.9319,238.4259 M,8,169136,169199,318.9319,238.426,319.176,238.7357 M,8,169199,169262,319.176,238.7357,319.4719,238.6589 M,8,169262,169325,319.4719,238.6589,319.4801,238.5125 M,8,169325,169388,319.4801,238.5125,319.2065,238.7336 M,8,169388,169451,319.2065,238.7337,319.0945,239.2273 M,8,169451,169577,319.0945,239.2273,320,241.9 M,8,169577,169640,320,241.9,320,241.35 M,8,169640,169703,320,241.3499,320,240.7999 M,8,169703,169766,320,240.7999,320,240.2499 M,8,169766,169829,320,240.2498,320,239.7 M,8,169829,169956,320,239.7,320,239.1 M,8,169956,170082,320,239.1,318.9461,237.675 M,8,170082,170145,318.9461,237.675,318.6416,237.6602 M,8,170145,170208,318.6415,237.6603,318.3786,237.9319 M,8,170208,170271,318.3786,237.9319,318.2353,238.4083 M,8,170271,170334,318.2353,238.4083,318.2527,238.948 M,8,170334,170460,318.2527,238.948,319.5082,238.3 M,8,170460,170586,319.5082,238.3 M,8,170586,170712,319.5082,238.3,319.5082,239.5 M,8,170712,170838,319.5082,239.5,320.4918,239.5 M,8,170838,170964,320.4918,239.5,320.4918,238.3 M,8,170964,171090,320.4918,238.3,319.4309,239.675 M,8,171090,171153,319.4309,239.675,319.2894,240.1597 M,8,171153,171216,319.2894,240.1598,319.257,240.7024 M,8,171216,171342,319.257,240.7024,320.7518,240.7125 M,8,171342,171405,320.7518,240.7125,320.7165,240.1698 M,8,171405,171468,320.7165,240.1698,320.5738,239.6861 M,8,171468,171594,320.5738,239.6861,320,241.9 M,8,171594,171657,320,241.9,320.3012,242.0232 M,8,171657,171720,320.3013,242.0232,320.6057,242.1188 M,8,171720,171783,320.6057,242.1188,320.9124,242.1869 M,8,171783,171846,320.9124,242.1869,321.2206,242.2262 M,8,171846,171972,321.2206,242.2262,320.6323,241.7 M,8,171972,172098,320.6323,241.7,321.4403,240.4375 M,8,172098,172161,321.4403,240.4375,321.7028,240.6232 M,8,172161,172224,321.7028,240.6232,321.6521,241.1111 M,8,172224,172287,321.6521,241.1111,321.3755,241.117 M,8,172287,172351,321.3755,241.117,321.363,240.9375 M,8,172351,172414,321.363,240.9375,321.3262,240.3914 M,8,172414,172477,321.3262,240.3914,321.2893,239.8453 M,8,172477,172603,321.2893,239.8453,321.1452,237.5375 M,8,172603,172666,321.1452,237.5375,320.8709,237.7906 M,8,172666,172729,320.8709,237.7906,320.5832,237.9907 M,8,172729,172792,320.5831,237.9908,320.2852,238.136 M,8,172792,172855,320.2852,238.136,320.2037,238.1625 M,8,172855,172918,320.2037,238.1625,320.4817,238.399 M,8,172918,172981,320.4817,238.399,320.7847,238.4966 M,8,172981,173107,320.7847,238.4966,319.5082,239.7625 M,8,173107,173170,319.5082,239.7625,319.2139,239.8591 M,8,173170,173233,319.2139,239.859,318.9757,239.541 M,8,173233,173296,318.9756,239.541,318.9458,239.0152 M,8,173296,173359,318.9458,239.0152,319.6206,237.65 M,8,173359,173485,319.6206,237.65 M,8,173485,173611,319.6206,237.65 M,8,173611,173674,319.6206,237.65,319.9271,237.7222 M,8,173674,173737,319.9271,237.7222,320.2041,237.9158 M,8,173737,173800,320.2041,237.9158,320.4874,238.0818 M,8,173800,173863,320.4874,238.0818,320.7939,238.15 M,8,173863,173989,320.7939,238.15,321.7002,237.675 M,8,173989,174115,321.7002,237.675,320.9625,239.8125 M,8,174115,174178,320.9625,239.8125,320.6617,239.8888 M,8,174178,174241,320.6617,239.8888,320.3887,239.6543 M,8,174241,174304,320.3887,239.6543,320.2347,239.1897 M,8,174304,174367,320.2347,239.1897,320.2561,238.6516 M,8,174367,174493,320.2561,238.6516,321.7002,239.3125 M,8,174493,174556,321.7002,239.3125,321.6616,239.8582 M,8,174556,174619,321.6616,239.8582,321.6229,240.4039 M,8,174619,174746,321.6229,240.4039,320.4496,241.5 M,8,174746,174809,320.4496,241.5,320.411,240.9543 M,8,174809,174872,320.411,240.9543,320.3723,240.4086 M,8,174872,174997,320.3723,240.4086,321.7424,242.075 M,8,174997,175124,321.7424,242.075,320.4988,241.9125 M,8,175124,175187,320.4988,241.9125,320.1995,242.0498 M,8,175187,175250,320.1995,242.0498,319.8964,242.1577 M,8,175250,175313,319.8964,242.1577,319.5905,242.2361 M,8,175313,175376,319.5905,242.2361,319.5222,242.15 M,8,175376,175439,319.5222,242.15,319.5617,241.6045 M,8,175439,175502,319.5617,241.6044,319.6012,241.059 M,8,175502,175628,319.6012,241.059,319.7752,238.325 M,8,175628,175691,319.7752,238.325,319.6201,237.8492 M,8,175691,175754,319.6201,237.8492,319.3636,237.7763 M,8,175754,175817,319.3636,237.7763,319.0608,237.8875 M,8,175817,175880,319.0608,237.8875,318.7581,237.9986 M,8,175880,176006,318.7581,237.9986,318.2506,239.3375 M,8,176006,176132,318.2506,239.3375,319.3958,239.875 M,8,176132,176195,319.3958,239.875,319.3472,239.3318 M,8,176195,176258,319.3471,239.3318,319.2985,238.7887 M,8,176258,176384,319.2985,238.7887,319.1007,241.5 M,8,176384,176510,319.1007,241.5 M,8,176510,176636,319.1007,241.5 M,8,176636,176699,319.1007,241.5,319.365,241.7733 M,8,176699,176762,319.365,241.7733,319.6701,241.7897 M,8,176762,176888,319.6701,241.7897,320.2248,239.1 M,8,176888,176951,320.2248,239.1,319.919,239.1271 M,8,176951,177014,319.919,239.1271,319.6557,239.4 M,8,177014,177140,319.6557,239.4,321.1031,240.35 M,8,177140,177203,321.1031,240.35,321.3991,240.192 M,8,177203,177266,321.3992,240.1919,321.4844,239.8161 M,8,177266,177329,321.4844,239.8161,321.4146,239.2804 M,8,177329,177393,321.4146,239.2804,321.356,238.9375 M,8,177393,177456,321.356,238.9375,321.3307,239.4857 M,8,177456,177519,321.3307,239.4857,321.3055,240.0338 M,8,177519,177645,321.3055,240.0338,321.2365,241.85 M,8,177645,177708,321.2365,241.85,320.9745,242.1325 M,8,177708,177771,320.9744,242.1326,320.6705,242.1965 M,8,177771,177897,320.6705,242.1965,319.7752,239.9 M,8,177897,177960,319.7752,239.9,320.0789,239.9744 M,8,177960,178023,320.0789,239.9744,320.341,240.2573 M,8,178023,178149,320.341,240.2573,318.2646,241.5625 M,8,178149,178212,318.2646,241.5625,318.4166,241.0883 M,8,178212,178275,318.4167,241.0882,318.6583,240.7527 M,8,178275,178338,318.6583,240.7527,318.9533,240.6048 M,8,178338,178401,318.9533,240.6048,319.2575,240.6716 M,8,178401,178527,319.2575,240.6716,320.2108,241.1125 M,8,178527,178653,320.2108,241.1125 M,8,178653,178716,320.2108,241.1125,320.1787,240.5655 M,8,178716,178779,320.1787,240.5654,320.1466,240.0184 M,8,178779,178905,320.1466,240.0184,320.007,237.625 M,8,178905,179031,320.007,237.625,319.2061,238.4875 M,8,179031,179157,319.2061,238.4875,321.6792,238.9 M,8,179157,179220,321.6792,238.9,321.6118,238.3632 M,8,179220,179283,321.6118,238.3632,321.5445,237.8264 M,8,179283,179410,321.5445,237.8264,321.3489,241.1 M,8,179410,179536,321.3489,241.1 F,0,179461,179661,1,0
Sprite,Background,Centre,"miku 473.jpg",0,0 F,0,82603,,1 S,0,82603,,0.5555556 M,8,82603,82855,320,240,320.007,239.8875 M,8,82855,82918,320.007,239.8875,320.312,239.8178 M,8,82918,82981,320.312,239.8178,320.5602,239.5007 M,8,82981,83044,320.5602,239.5007,320.8075,239.1819 M,8,83044,83107,320.8075,239.1819,321.1132,239.1247 M,8,83107,83233,321.1132,239.1247,321.7705,240.1875 M,8,83233,83359,321.7705,240.1875,321.7705,238.7875 M,8,83359,83422,321.7705,238.7875,321.7292,239.3326 M,8,83422,83485,321.7292,239.3326,321.6878,239.8776 M,8,83485,83611,321.6878,239.8776,321.2787,241.7375 M,8,83611,83737,321.2787,241.7375,321.0398,240.4375 M,8,83737,83863,321.0398,240.4375,320.5831,241.45 M,8,83863,83926,320.5831,241.45,320.3153,241.7124 M,8,83926,83989,320.3153,241.7124,320.014,241.7125 M,8,83989,84115,320.014,241.7125,319.452,240.2625 M,8,84115,84178,319.452,240.2625,319.7131,240.5437 M,8,84178,84241,319.7131,240.5437,320.0182,240.5659 M,8,84241,84367,320.0182,240.5659,319.6628,239.075 M,8,84367,84430,319.6628,239.075,319.4008,238.7957 M,8,84430,84493,319.4008,238.7957,319.2553,238.325 M,8,84493,84619,319.2553,238.325,319.9438,237.925 M,8,84619,84746,319.9438,237.925,318.9321,239.5 M,8,84746,84872,318.9321,239.5,318.4192,238.55 M,8,84872,84935,318.4192,238.55,318.6323,238.9378 M,8,84935,84998,318.6323,238.9378,318.7047,239.4634 M,8,84998,85061,318.7047,239.4634,318.6169,239.9814 M,8,85061,85124,318.6169,239.9814,318.3924,240.3487 M,8,85124,85250,318.3924,240.3487,318.3911,240.35 M,8,85250,85376,318.3911,240.35,318.9461,242.1 M,8,85376,85502,318.9461,242.1,319.0164,240.9625 M,8,85502,85628,319.0164,240.9625,319.6979,241.0625 M,8,85628,85754,319.6979,241.0625,319.6417,242.2125 M,8,85754,85880,319.6417,242.2125,319.5855,240.7125 M,8,85880,85943,319.5855,240.7125,319.6206,240.1661 M,8,85943,86006,319.6206,240.1661,319.6557,239.6196 M,8,86006,86132,319.6557,239.6196,319.445,238.225 M,8,86132,86195,319.445,238.225,319.7209,238.455 M,8,86195,86258,319.7209,238.455,320.0228,238.3842 M,8,86258,86384,320.0228,238.3842,321.1101,238.1375 M,8,86384,86447,321.1101,238.1375,320.8257,238.3287 M,8,86447,86510,320.8257,238.3287,320.6499,238.7685 M,8,86510,86573,320.6499,238.7685,320.6389,239.3087 M,8,86573,86636,320.6389,239.3087,320.7237,239.625 M,8,86636,86699,320.7237,239.625,321.0317,239.5789 M,8,86699,86762,321.0317,239.5789,321.3398,239.5329 M,8,86762,86888,321.3398,239.5329,321.5597,240.85 M,8,86888,86951,321.5597,240.85,321.306,241.1617 M,8,86951,87014,321.306,241.1617,321.1108,241.5854 M,8,87014,87077,321.1108,241.5854,320.8726,241.2431 M,8,87077,87140,320.8726,241.2431,320.5901,241.0375 M,8,87140,87267,320.5901,241.0375,320.4707,242.15 M,8,87267,87393,320.4707,242.15,319.5222,241.2625 M,8,87393,87456,319.5222,241.2625,319.5692,240.7189 M,8,87456,87519,319.5692,240.7189,319.6163,240.1753 M,8,87519,87582,319.6163,240.1753,319.6628,239.6375 M,8,87582,87645,319.6628,239.6375,319.5644,239.2625 M,8,87645,87771,319.5644,239.2625,319.3677,241.5 M,8,87771,87897,319.3677,241.5,318.2787,240.175 M,8,87897,88023,318.2787,240.175,319.0656,240.3 M,8,88023,88149,319.0656,240.3,318.7143,239.2625 M,8,88149,88212,318.7143,239.2625,318.8055,238.7416 M,8,88212,88275,318.8055,238.7417,318.7745,238.1989 M,8,88275,88401,318.7745,238.1989,318.623,241.2375 M,8,88401,88464,318.623,241.2375,318.5319,241.758 M,8,88464,88527,318.5319,241.758,318.5689,242.2992 M,8,88527,88653,318.5689,242.2992,319.9297,242.125 M,8,88653,88716,319.9297,242.125,320.021,241.6041 M,8,88716,88779,320.021,241.6042,319.99,241.0614 M,8,88779,88905,319.99,241.0614,319.7049,239.6875 M,8,88905,88968,319.7049,239.6875,319.9773,239.9476 M,8,88968,89031,319.9773,239.9475,320.2701,239.8023 M,8,89031,89157,320.2701,239.8023,321.1733,240.875 M,8,89157,89220,321.1733,240.875,320.9009,240.6149 M,8,89220,89283,320.9009,240.615,320.6112,240.775 M,8,89283,89409,320.6112,240.775,320.9836,238.375 M,8,89409,89472,320.9836,238.375,320.8923,238.8956 M,8,89472,89535,320.8923,238.8956,320.9274,239.4373 M,8,89535,89661,320.9274,239.4373,321.1733,240.875 M,8,89661,89914,321.1733,240.875,320.1054,238.45 M,8,89914,90040,320.1054,238.45,319.5714,237.975 M,8,90040,90166,319.5714,237.975,319.0023,238.2875 M,8,90166,90292,319.0023,238.2875,318.8127,239.2875 M,8,90292,90418,318.8127,239.2875,318.2014,238.5 M,8,90418,90481,318.2014,238.5,318.2294,239.0477 M,8,90481,90544,318.2294,239.0477,318.2574,239.5955 M,8,90544,90607,318.2574,239.5955,318.2854,240.1432 M,8,90607,90670,318.2854,240.1432,318.2225,240.5 M,8,90670,90733,318.2225,240.5,318.5313,240.475 M,8,90733,90796,318.5313,240.475,318.8401,240.4501 M,8,90796,90922,318.8401,240.4501,319.6768,241.7 M,8,90922,90985,319.6768,241.7,319.3974,241.9024 M,8,90985,91048,319.3974,241.9024,319.1132,241.7278 M,8,91048,91111,319.1132,241.7278,318.9643,241.2644 M,8,91111,91174,318.9643,241.2644,319.0164,240.75 M,8,91174,91300,319.0164,240.75,319.8595,239.1125 M,8,91300,91426,319.8595,239.1125,319.4379,239.7625 M,8,91426,91489,319.4379,239.7625,319.7461,239.7194 M,8,91489,91552,319.7461,239.7194,320.0543,239.6763 M,8,91552,91615,320.0543,239.6763,320.3625,239.6333 M,8,91615,91678,320.3625,239.6333,320.5691,239.6 M,8,91678,91804,320.5691,239.6,319.9789,240.6875 M,8,91804,91930,319.9789,240.6875,321.075,238.95 M,8,91930,91993,321.075,238.95,321.2165,239.428 M,8,91993,92056,321.2165,239.4279,321.1733,239.95 M,8,92056,92183,321.1733,239.95,320.7166,241.8 M,8,92183,92246,320.7166,241.8,320.575,241.322 M,8,92246,92309,320.575,241.3221,320.6183,240.8 M,8,92309,92435,320.6183,240.8,321.37,238.0375 M,8,92435,92498,321.37,238.0375,321.1347,238.3838 M,8,92498,92561,321.1347,238.3837,320.8355,238.4875 M,8,92561,92624,320.8355,238.4875,320.5446,238.3253 M,8,92624,92687,320.5446,238.3253,320.4145,238.1 M,8,92687,92813,320.4145,238.1,321.4333,237.75 M,8,92813,92939,321.4333,237.75,320.267,237.8125 M,8,92939,93002,320.267,237.8125,319.9605,237.8847 M,8,93002,93065,319.9605,237.8847,319.6835,238.0782 M,8,93065,93128,319.6835,238.0782,319.4003,238.2443 M,8,93128,93191,319.4003,238.2443,319.0937,238.3125 M,8,93191,93317,319.0937,238.3125,318.4965,237.7125 M,8,93317,93443,318.4965,237.7125,318.2014,239.825 M,8,93443,93506,318.2014,239.825,318.4598,240.1125 M,8,93506,93569,318.4598,240.1125,318.7638,240.123 M,8,93569,93632,318.7638,240.123,319.0278,239.8547 M,8,93632,93695,319.0278,239.8547,319.1769,239.3816 M,8,93695,93821,319.1769,239.3816,318.6089,239.05 M,8,93821,93947,318.6089,239.05,318.925,241.3125 M,8,93947,94073,318.925,241.3125,318.5386,242.2125 M,8,94073,94199,318.5386,242.2125,318.2506,241.1375 M,8,94199,94325,318.2506,241.1375,319.4379,242.0125 M,8,94325,94451,319.4379,242.0125,319.5995,240.6875 M,8,94451,94514,319.5995,240.6875,319.8631,240.4128 M,8,94514,94577,319.8631,240.4129,320.168,240.4005 M,8,94577,94640,320.168,240.4005,320.4376,240.6528 M,8,94640,94704,320.4376,240.6528,320.6183,240.4 M,8,94704,94767,320.6183,240.4,320.6183,240.95 M,8,94767,94830,320.6183,240.95,320.6183,241.5 M,8,94830,94956,320.6183,241.5,320.4918,238.675 M,8,94956,95019,320.4918,238.675,320.6469,239.1508 M,8,95019,95082,320.6469,239.1508,320.9033,239.2237 M,8,95082,95145,320.9033,239.2237,321.2061,239.1126 M,8,95145,95208,321.2061,239.1126,321.5089,239.0014 M,8,95208,95334,321.5089,239.0014,321.7986,237.925 M,8,95334,95460,321.7986,237.925,321.644,240.1375 M,8,95460,95523,321.644,240.1375,321.6987,240.6788 M,8,95523,95586,321.6987,240.6788,321.7534,241.2201 M,8,95586,95712,321.7534,241.2201,321.2084,242.1125 M,8,95712,95838,321.2084,242.1125,320.6183,240.4 M,8,95838,95964,320.6183,240.4,320.0562,241.8 M,8,95964,96027,320.0562,241.8,320.3608,241.7986 M,8,96027,96090,320.3608,241.7986,320.6218,241.5187 M,8,96090,96216,320.6218,241.5187,319.7049,240.375 M,8,96216,96279,319.7049,240.375,319.4471,240.0851 M,8,96279,96342,319.4471,240.0851,319.1429,240.0875 M,8,96342,96468,319.1429,240.0875,318.9953,242.3 M,8,96468,96531,318.9953,242.3,319.285,242.2094 M,8,96531,96594,319.2849,242.2094,319.3887,241.7234 M,8,96594,96657,319.3887,241.7234,319.2077,241.3182 M,8,96657,96720,319.2077,241.3182,319.0164,241.075 M,8,96720,96783,319.0164,241.075,318.7116,241.1671 M,8,96783,96846,318.7116,241.1671,318.4069,241.2592 M,8,96846,96972,318.4069,241.2592,318.5527,239.4875 M,8,96972,97035,318.5527,239.4875,318.6159,238.9491 M,8,97035,97098,318.6159,238.9491,318.679,238.4107 M,8,97098,97225,318.679,238.4107,319.6557,238.8 M,8,97225,97288,319.6557,238.8,319.5926,238.2616 M,8,97288,97351,319.5926,238.2616,319.5294,237.7232 M,8,97351,97477,319.5294,237.7232,320.4496,239.525 M,8,97477,97603,320.4496,239.525,320.7658,238.375 M,8,97603,97729,320.7658,238.375,320.5199,239.8625 M,8,97729,97981,320.5199,239.8625,320.2459,241.975 M,8,97981,98107,320.2459,241.975,320.8501,241.325 M,8,98107,98233,320.8501,241.325,319.8173,240.9375 M,8,98233,98359,319.8173,240.9375,319.0305,240.2625 M,8,98359,98485,319.0305,240.2625,319.192,241.5875 M,8,98485,98611,319.192,241.5875,319.5714,239.375 M,8,98611,98737,319.5714,239.375,318.2717,239.8 M,8,98737,98863,318.2717,239.8,319.192,241.5875 M,8,98863,98989,319.192,241.5875,319.1639,238.2375 M,8,98989,99052,319.1639,238.2375,319.3604,238.6572 M,8,99052,99115,319.3603,238.6572,319.6302,238.9163 M,8,99115,99178,319.6302,238.9163,319.9348,238.9796 M,8,99178,99241,319.9348,238.9796,320.2301,238.832 M,8,99241,99367,320.2301,238.832,321.0398,238.1375 M,8,99367,99493,321.0398,238.1375,321.4684,240.1 M,8,99493,99556,321.4684,240.1,321.4087,240.6375 M,8,99556,99619,321.4088,240.6375,321.2675,241.1241 M,8,99619,99745,321.2675,241.1241,320.7869,242.1125 M,8,99745,99871,320.7869,242.1125,320.548,240.875 M,8,99871,99998,320.548,240.875,319.8735,242.1 M,8,99998,100061,319.8735,242.1,319.5663,242.0393 M,8,100061,100124,319.5663,242.0393,319.2591,241.9785 M,8,100124,100250,319.2591,241.9785,318.5316,240.5375 M,8,100250,100313,318.5316,240.5375,318.8389,240.5982 M,8,100313,100376,318.8388,240.5982,319.1461,240.659 M,8,100376,100502,319.1461,240.659,319.993,241.8125 M,8,100502,100565,319.993,241.8125,319.6857,241.7518 M,8,100565,100628,319.6857,241.7518,319.3785,241.691 M,8,100628,100753,319.3785,241.691,319.0234,238.875 M,8,100753,100880,319.0234,238.875,319.6628,239.7 M,8,100880,101006,319.6628,239.7,318.4543,240.9875 M,8,101006,101069,318.4543,240.9875,318.6974,241.3273 M,8,101069,101132,318.6974,241.3273,318.9905,241.3468 M,8,101132,101195,318.9905,241.3468,319.2973,241.279 M,8,101195,101258,319.2973,241.279,319.6041,241.2113 M,8,101258,101384,319.6041,241.2113,320.7166,240.8125 M,8,101384,101510,320.7166,240.8125,320.1054,241.7 M,8,101510,101636,320.1054,241.7,319.9157,239.2875 M,8,101636,101762,319.9157,239.2875,319.719,240.8 M,8,101762,101888,319.719,240.8,321.2436,240.1 M,8,101888,101951,321.2436,240.1,321.2787,239.5536 M,8,101951,102014,321.2787,239.5536,321.3138,239.0071 M,8,102014,102140,321.3138,239.0071,320.1546,240.1625 M,8,102140,102203,320.1546,240.1625,320.1897,240.7089 M,8,102203,102266,320.1897,240.7089,320.2248,241.2554 M,8,102266,102393,320.2248,241.2554,320.5761,238.3125 M,8,102393,102519,320.5761,238.3125 M,8,102519,102582,320.5761,238.3125,320.2807,238.4747 M,8,102582,102645,320.2807,238.4747,319.9988,238.5874 M,8,102645,102708,319.9988,238.5874,319.887,238.0746 M,8,102708,102771,319.887,238.0746,319.7611,237.525 M,8,102771,102834,319.7611,237.525,319.4642,237.6137 M,8,102834,102897,319.4642,237.6137,319.2797,238.0341 M,8,102897,103023,319.2797,238.0341,319.0656,239.7 M,8,103023,103086,319.0656,239.7,319.356,239.5384 M,8,103086,103149,319.356,239.5384,319.6492,239.6789 M,8,103149,103212,319.6492,239.6789,319.8549,240.0761 M,8,103212,103275,319.8549,240.0761,319.9055,240.6091 M,8,103275,103401,319.9055,240.6091,318.5527,240.9 M,8,103401,103527,318.5527,240.9,319.5012,242.125 M,8,103527,103590,319.5012,242.125,319.8076,242.0526 M,8,103590,103653,319.8076,242.0526,320.114,241.9801 M,8,103653,103716,320.114,241.9801,320.4205,241.9077 M,8,103716,103779,320.4205,241.9077,320.5691,241.5875 M,8,103779,103905,320.5691,241.5875,318.7072,241.125 M,8,103905,104031,318.7072,241.125,319.6768,240.4875 M,8,104031,104094,319.6768,240.4875,319.885,240.8703 M,8,104094,104157,319.885,240.8703,319.8639,241.3999 M,8,104157,104283,319.8639,241.3999,319.9789,239.5125 M,8,104283,104346,319.9789,239.5125,320.1941,239.142 M,8,104346,104409,320.1941,239.142,320.4917,239.1797 M,8,104409,104535,320.4917,239.1797,319.4309,238.975 M,8,104535,104598,319.4309,238.975,319.2227,238.5922 M,8,104598,104661,319.2227,238.5922,319.2438,238.0626 M,8,104661,104788,319.2438,238.0626,319.1288,239.95 M,8,104788,104851,319.1288,239.95,318.9136,240.3204 M,8,104851,104914,318.9137,240.3204,318.616,240.2828 M,8,104914,105040,318.616,240.2828,319.0164,237.6875 M,8,105040,105103,319.0164,237.6875,319.3221,237.7694 M,8,105103,105166,319.3221,237.7694,319.6292,237.8316 M,8,105166,105229,319.6292,237.8316,319.9373,237.8741 M,8,105229,105292,319.9373,237.8741,320.2462,237.8963 M,8,105292,105418,320.2462,237.8963,321.4403,237.6375 M,8,105418,105544,321.4403,237.6375,320.281,238.4 M,8,105544,105607,320.281,238.4,319.9754,238.4819 M,8,105607,105670,319.9754,238.4819,319.6682,238.5441 M,8,105670,105733,319.6682,238.5441,319.3601,238.5866 M,8,105733,105796,319.3601,238.5866,319.0512,238.6088 M,8,105796,105922,319.0512,238.6088,318.2014,238.5 M,8,105922,106048,318.2014,238.5 M,8,106048,106174,318.2014,238.5,318.918,238.625 M,8,106174,106300,318.918,238.625,319.3115,239.6875 M,8,106300,106426,319.3115,239.6875,319.0937,240.9 M,8,106426,106552,319.0937,240.9,318.2014,238.2875 M,8,106552,106615,318.2014,238.2875,318.4951,238.1268 M,8,106615,106678,318.4951,238.1268,318.8018,238.1538 M,8,106678,106741,318.8018,238.1538,319.085,238.3645 M,8,106741,106804,319.085,238.3645,319.3096,238.7371 M,8,106804,106867,319.3096,238.7371,319.4499,239.223 M,8,106867,106930,319.4499,239.223,319.4864,239.7656 M,8,106930,107056,319.4864,239.7656,319.3255,241.175 M,8,107056,107119,319.3255,241.175,319.0195,241.2528 M,8,107119,107182,319.0195,241.2528,318.7135,241.3306 M,8,107182,107245,318.7135,241.3306,318.4075,241.4083 M,8,107245,107308,318.4075,241.4083,318.4871,240.9207 M,8,107308,107434,318.4871,240.9207,320.1265,241.6625 M,8,107434,107561,320.1265,241.6625,320.4637,238.925 M,8,107561,107624,320.4637,238.925,320.5263,239.4636 M,8,107624,107687,320.5263,239.4636,320.589,240.0022 M,8,107687,107750,320.589,240.0022,320.6516,240.5408 M,8,107750,107813,320.6516,240.5408,320.6183,241.075 M,8,107813,107938,320.6183,241.075,320.5901,238.475 M,8,107938,108065,320.5901,238.475,319.8876,240.5 M,8,108065,108128,319.8876,240.5,319.6015,240.6709 M,8,108128,108191,319.6015,240.6709,319.3219,240.4738 M,8,108191,108317,319.3219,240.4738,318.9813,238.9 M,8,108317,108380,318.9813,238.9,319.2673,238.7291 M,8,108380,108443,319.2673,238.7291,319.5469,238.9262 M,8,108443,108569,319.5469,238.9262,319.0586,240.9125 M,8,108569,108632,319.0586,240.9125,318.7779,241.1078 M,8,108632,108695,318.7779,241.1078,318.4934,240.9303 M,8,108695,108821,318.4934,240.9303,318.4333,238.0125 M,8,108821,108947,318.4333,238.0125 M,8,108947,109073,318.4333,238.0125 M,8,109073,109136,318.4333,238.0125,318.7397,238.0847 M,8,109136,109199,318.7397,238.0847,319.0167,238.2782 M,8,109199,109262,319.0167,238.2782,319.2999,238.4443 M,8,109262,109325,319.2999,238.4443,319.6066,238.5125 M,8,109325,109451,319.6066,238.5125,320.3372,238.0875 M,8,109451,109577,320.3372,238.0875,320.3302,240.6625 M,8,109577,109640,320.3302,240.6625,320.0294,240.7388 M,8,109640,109703,320.0294,240.7388,319.7564,240.5044 M,8,109703,109766,319.7564,240.5044,319.6024,240.0398 M,8,109766,109829,319.6024,240.0399,319.6238,239.5016 M,8,109829,109956,319.6238,239.5016,321.1241,239.5 M,8,109956,110081,321.1241,239.5,320.1476,240.5125 M,8,110081,110207,320.1476,240.5125,320.3864,238.425 M,8,110207,110333,320.3864,238.425,320.6183,241.5 M,8,110333,110459,320.6183,241.5,320.1194,239.3125 M,8,110459,110586,320.1194,239.3125,321.7986,239.5 M,8,110586,110649,321.7986,239.5,321.7524,238.9562 M,8,110649,110712,321.7525,238.9562,321.7063,238.4123 M,8,110712,110775,321.7063,238.4124,321.6602,237.8685 M,8,110775,110838,321.6602,237.8685,321.644,237.7 M,8,110838,110901,321.644,237.7,321.6198,238.2483 M,8,110901,110964,321.6198,238.2483,321.5955,238.7966 M,8,110964,111090,321.5955,238.7966,321.4965,240.7125 M,8,111090,111153,321.4965,240.7125,321.3414,241.1883 M,8,111153,111216,321.3414,241.1882,321.085,241.2612 M,8,111216,111279,321.085,241.2612,320.7822,241.1501 M,8,111279,111342,320.7822,241.1501,320.4794,241.0389 M,8,111342,111468,320.4794,241.0389,321.5667,240.3375 M,8,111468,111594,321.5667,240.3375,320.1194,239.3125 M,8,111594,111657,320.1194,239.3125,320.0647,239.8538 M,8,111657,111720,320.0647,239.8538,320.01,240.3951 M,8,111720,111846,320.01,240.3951,320.2108,242.1625 M,8,111846,111972,320.2108,242.1625 M,8,111972,112098,320.2108,242.1625 M,8,112098,112161,320.2108,242.1625,320.5154,242.1611 M,8,112161,112224,320.5154,242.1611,320.7763,241.8812 M,8,112224,112351,320.7763,241.8812,320.4567,239.7125 M,8,112351,112414,320.4567,239.7125,320.1516,239.7142 M,8,112414,112477,320.1516,239.7142,319.8946,240 M,8,112477,112603,319.8946,240,319.0023,241.5625 M,8,112603,112666,319.0023,241.5625,319.2729,241.3626 M,8,112666,112729,319.2729,241.3626,319.2657,240.8533 M,8,112729,112792,319.2657,240.8533,319.1378,240.3526 M,8,112792,112855,319.1378,240.3526,318.9602,239.75 M,8,112855,112918,318.9602,239.75,318.8976,240.2886 M,8,112918,112981,318.8976,240.2886,318.8349,240.8272 M,8,112981,113107,318.8349,240.8272,318.5457,237.7125 M,8,113107,113170,318.5457,237.7125,318.7941,238.0283 M,8,113170,113233,318.7941,238.0283,319.0974,238.0846 M,8,113233,113359,319.0974,238.0846,320.3372,237.6 M,8,113359,113422,320.3372,237.6,320.0337,237.6636 M,8,113422,113485,320.0338,237.6636,319.7892,237.9875 M,8,113485,113611,319.7892,237.9875,321.1663,239.9625 M,8,113611,113674,321.1663,239.9625,321.0412,239.4602 M,8,113674,113737,321.0412,239.4603,320.9621,238.9294 M,8,113737,113800,320.9621,238.9294,320.9307,238.383 M,8,113800,113863,320.9307,238.383,320.9489,237.8347 M,8,113863,113989,320.9489,237.8347,321.5176,238.7125 M,8,113989,114115,321.5176,238.7125,320.4426,239.2375 M,8,114115,114178,320.4426,239.2375,320.1451,239.0886 M,8,114178,114241,320.1451,239.0886,319.8474,238.9397 M,8,114241,114367,319.8474,238.9397,318.7845,238.45 M,8,114367,114493,318.7845,238.45,319.0515,239.475 M,8,114493,114619,319.0515,239.475,319.7611,237.6 M,8,114619,114682,319.7611,237.6,319.7907,238.1475 M,8,114682,114745,319.7906,238.1475,319.8202,238.695 M,8,114745,114872,319.8202,238.695,319.9157,241.55 M,8,114872,114998,319.9157,241.55 F,0,114924,115124,1,0
//Storyboard Layer 1 (Fail)
//Storyboard Layer 2 (Pass)
//Storyboard Layer 3 (Foreground)
Sprite,Foreground,Centre,"sb\glow.png",0,0 C,0,139325,,249,153,199 M,0,139325,139388,547,289,551.2124,264.3574 F,2,139325,140077,1,0 S,2,139325,140077,0.7 P,0,139325,140077,A M,0,139388,139451,551.2124,264.3574,555.4248,239.7149 M,0,139451,139514,555.4248,239.7149,559.6372,215.0723 M,0,139514,139577,559.6372,215.0723,563.8496,190.4298
Sprite,Foreground,Centre,"sb\glow.png",543,213 C,0,139704,,249,153,199 F,2,139704,140204,1,0 S,2,139704,140204,0.7 P,0,139704,140204,A
Sprite,Foreground,Centre,"sb\glow.png",0,0 C,0,139830,,249,153,199 M,0,139830,139893,543,213,518.1838,216.0264 F,2,139830,140582,1,0 S,2,139830,140582,0.7 P,0,139830,140582,A M,0,139893,139956,518.1838,216.0264,493.3677,219.0527 M,0,139956,140019,493.3677,219.0527,468.5516,222.0791 M,0,140019,140082,468.5516,222.0791,443.7354,225.1054
Sprite,Foreground,Centre,"sb\glow.png",352,284 C,0,140208,,249,153,199 F,2,140208,140708,1,0 S,2,140208,140708,0.7 P,0,140208,140708,A
Sprite,Foreground,Centre,"sb\glow.png",0,0 C,0,140334,,249,153,199 M,0,140334,140397,352,284,327.1847,280.967 F,2,140334,140960,1,0 S,2,140334,140960,0.7 P,0,140334,140960,A M,0,140397,140460,327.1847,280.967,302.3693,277.934
Sprite,Foreground,Centre,"sb\glow.png",0,0 C,0,140586,,249,153,199 M,0,140586,140649,297,172,321.8153,168.967 F,2,140586,141212,1,0 S,2,140586,141212,0.7 P,0,140586,141212,A M,0,140649,140712,321.8153,168.967,346.6307,165.934
Sprite,Foreground,Centre,"sb\glow.png",229,230 C,0,140838,,249,153,199 F,2,140838,141338,1,0 S,2,140838,141338,0.7 P,0,140838,141338,A
Sprite,Foreground,Centre,"sb\glow.png",415,222 C,0,141090,,249,153,199 F,2,141090,141590,1,0 S,2,141090,141590,0.7 P,0,141090,141590,A
Sprite,Foreground,Centre,"sb\glow.png",0,0 C,0,141342,,148,139,248 M,0,141342,141405,229,230,233.7079,205.4514 F,2,141342,142220,1,0 S,2,141342,142220,0.7 P,0,141342,142220,A M,0,141405,141468,233.7079,205.4514,239.9162,181.2388 M,0,141468,141531,239.9162,181.2388,247.6012,157.4539 M,0,141531,141594,247.6012,157.4539,256.734,134.1865 M,0,141594,141657,256.734,134.1865,267.2799,111.5247 M,0,141657,141720,267.2799,111.5247,279.199,89.55435
Sprite,Foreground,Centre,"sb\glow.png",0,0 C,0,141846,,148,139,248 M,0,141846,141909,283,102,258.1454,99.30742 F,2,141846,142598,1,0 S,2,141846,142598,0.7 P,0,141846,142598,A M,0,141909,141972,258.1454,99.30742,233.2908,96.61484 M,0,141972,142035,233.2908,96.61484,208.4363,93.92226 M,0,142035,142098,208.4363,93.92226,183.5817,91.22968
Sprite,Foreground,Centre,"sb\glow.png",0,0 C,0,142351,,148,139,248 M,0,142351,142414,325,189,349.8546,186.3074 F,2,142351,143103,1,0 S,2,142351,143103,0.7 P,0,142351,143103,A M,0,142414,142477,349.8546,186.3074,374.7092,183.6148 M,0,142477,142540,374.7092,183.6148,399.5637,180.9223 M,0,142540,142603,399.5637,180.9223,424.4183,178.2297
Sprite,Foreground,Centre,"sb\glow.png",566,111 C,0,142855,,148,139,248 F,2,142855,143355,1,0 S,2,142855,143355,0.7 P,0,142855,143355,A
Sprite,Foreground,Centre,"sb\glow.png",566,111 C,0,143107,,148,139,248 F,2,143107,143607,1,0 S,2,143107,143607,0.7 P,0,143107,143607,A
Sprite,Foreground,Centre,"sb\glow.png",0,0 C,0,143359,,243,124,128 M,0,143359,143422,566,111,562.38,135.7365 F,2,143359,144111,1,0 S,2,143359,144111,0.7 P,0,143359,144111,A M,0,143422,143485,562.38,135.7365,558.76,160.4731 M,0,143485,143548,558.76,160.4731,555.1401,185.2096 M,0,143548,143611,555.1401,185.2096,551.5201,209.9461
Sprite,Foreground,Centre,"sb\glow.png",526,189 C,0,143737,,243,124,128 F,2,143737,144237,1,0 S,2,143737,144237,0.7 P,0,143737,144237,A
Sprite,Foreground,Centre,"sb\glow.png",0,0 C,0,143863,,243,124,128 M,0,143863,143926,526,189,529.62,213.7365 F,2,143863,144615,1,0 S,2,143863,144615,0.7 P,0,143863,144615,A M,0,143926,143989,529.62,213.7365,533.24,238.4731 M,0,143989,144052,533.24,238.4731,536.8599,263.2096 M,0,144052,144115,536.8599,263.2096,540.4799,287.9461
Sprite,Foreground,Centre,"sb\glow.png",561,440 C,0,144367,,243,124,128 F,2,144367,144867,1,0 S,2,144367,144867,0.7 P,0,144367,144867,A
Sprite,Foreground,Centre,"sb\glow.png",504,373 C,0,144619,,243,124,128 F,2,144619,145119,1,0 S,2,144619,145119,0.7 P,0,144619,145119,A
Sprite,Foreground,Centre,"sb\glow.png",364,422 C,0,144872,,243,124,128 F,2,144872,145372,1,0 S,2,144872,145372,0.7 P,0,144872,145372,A
Sprite,Foreground,Centre,"sb\glow.png",504,373 C,0,145124,,243,124,128 F,2,145124,145624,1,0 S,2,145124,145624,0.7 P,0,145124,145624,A
Sprite,Foreground,Centre,"sb\glow.png",270,329 C,0,145376,,201,137,243 F,2,145376,145876,1,0 S,2,145376,145876,0.7 P,0,145376,145876,A
Sprite,Foreground,Centre,"sb\glow.png",270,329 C,0,145880,,201,137,243 F,2,145880,146380,1,0 S,2,145880,146380,0.7 P,0,145880,146380,A
Sprite,Foreground,Centre,"sb\glow.png",270,329 C,0,146384,,201,137,243 F,2,146384,146884,1,0 S,2,146384,146884,0.7 P,0,146384,146884,A
Sprite,Foreground,Centre,"sb\glow.png",0,0 C,0,74788,,148,139,248 M,0,74788,74851,449,296,468.088,301.4214 F,2,74788,75792,1,0 S,2,74788,75792,0.7 P,0,74788,75792,A M,0,74851,74914,468.088,301.4214,487.87,300.843 M,0,74914,74977,487.87,300.843,506.5437,294.3767 M,0,74977,75040,506.5437,294.3767,522.1057,282.1483 M,0,75040,75103,522.1057,282.1483,533.295,265.856 M,0,75103,75166,533.295,265.856,538.5364,246.7695 M,0,75166,75229,538.5364,246.7695,537.8676,227.0128 M,0,75229,75292,537.8676,227.0128,530.7321,208.5491
Sprite,Foreground,Centre,"sb\glow.png",0,0 C,0,75796,,243,124,128 M,0,75796,75859,431,321,425.5786,340.088 F,2,75796,76800,1,0 S,2,75796,76800,0.7 P,0,75796,76800,A M,0,75859,75922,425.5786,340.088,426.157,359.87 M,0,75922,75985,426.157,359.87,432.6233,378.5437 M,0,75985,76048,432.6233,378.5437,444.8517,394.1057 M,0,76048,76111,444.8517,394.1057,461.144,405.295 M,0,76111,76174,461.144,405.295,480.2306,410.5363 M,0,76174,76237,480.2306,410.5363,499.9872,409.8676 M,0,76237,76300,499.9872,409.8676,518.4509,402.732
Sprite,Foreground,Centre,"sb\glow.png",0,0 C,0,76804,,201,137,243 M,0,76804,76867,406,303,386.8941,297.6351 F,2,76804,77682,1,0 S,2,76804,77682,0.7 P,0,76804,77682,A M,0,76867,76930,386.8941,297.6351,367.1103,298.236 M,0,76930,76993,367.1103,298.236,348.4327,304.6975 M,0,76993,77056,348.4327,304.6975,332.8367,316.8863 M,0,77056,77119,332.8367,316.8863,321.5854,333.1374 M,0,77119,77182,321.5854,333.1374,316.2216,352.1917
Sprite,Foreground,Centre,"sb\glow.png",323,390 C,0,77309,,201,137,243 F,2,77309,77809,1,0 S,2,77309,77809,0.7 P,0,77309,77809,A
Sprite,Foreground,Centre,"sb\glow.png",0,0 C,0,77813,,249,153,199 M,0,77813,77876,424,278,429.4214,258.9119 F,2,77813,78817,1,0 S,2,77813,78817,0.7 P,0,77813,78817,A M,0,77876,77939,429.4214,258.9119,428.843,239.13 M,0,77939,78002,428.843,239.13,422.3767,220.4563 M,0,78002,78065,422.3767,220.4563,410.1483,204.8943 M,0,78065,78128,410.1483,204.8943,393.856,193.705 M,0,78128,78191,393.856,193.705,374.7694,188.4637 M,0,78191,78254,374.7694,188.4637,355.0128,189.1325 M,0,78254,78317,355.0128,189.1325,336.549,196.268
Sprite,Foreground,Centre,"sb\glow.png",0,0 C,0,78821,,148,139,248 M,0,78821,78884,449,296,468.088,301.4214 F,2,78821,79825,1,0 S,2,78821,79825,0.7 P,0,78821,79825,A M,0,78884,78947,468.088,301.4214,487.87,300.843 M,0,78947,79010,487.87,300.843,506.5437,294.3767 M,0,79010,79073,506.5437,294.3767,522.1057,282.1483 M,0,79073,79136,522.1057,282.1483,533.295,265.856 M,0,79136,79199,533.295,265.856,538.5364,246.7695 M,0,79199,79262,538.5364,246.7695,537.8676,227.0128 M,0,79262,79325,537.8676,227.0128,530.7321,208.5491
Sprite,Foreground,Centre,"sb\glow.png",0,0 C,0,79830,,243,124,128 M,0,79830,79893,191,296,171.912,301.4214 F,2,79830,80834,1,0 S,2,79830,80834,0.7 P,0,79830,80834,A M,0,79893,79956,171.912,301.4214,152.13,300.843 M,0,79956,80019,152.13,300.843,133.4563,294.3767 M,0,80019,80082,133.4563,294.3767,117.8943,282.1483 M,0,80082,80145,117.8943,282.1483,106.7049,265.856 M,0,80145,80208,106.7049,265.856,101.4636,246.7694 M,0,80208,80271,101.4636,246.7694,102.1324,227.0128 M,0,80271,80334,102.1324,227.0128,109.268,208.5491
Sprite,Foreground,Centre,"sb\glow.png",0,0 C,0,80838,,201,137,243 M,0,80838,80901,320,88,320,103 F,2,80838,82724,1,0 S,2,80838,82724,0.7 P,0,80838,82724,A M,0,80901,80964,320,103,320,118 M,0,80964,81027,320,118,320,133 M,0,81027,81090,320,133,320,148 M,0,81090,81153,320,148,320,163 M,0,81153,81216,320,163,320,178 M,0,81216,81279,320,178,320,193 M,0,81279,81342,320,193,320,208 M,0,81342,81405,320,208,320,223 M,0,81405,81468,320,223,320,238 M,0,81468,81531,320,238,320,253 M,0,81531,81594,320,253,320,268 M,0,81594,81657,320,268,320,283 M,0,81657,81720,320,283,320,298 M,0,81720,81783,320,298,320,313 M,0,81783,81846,320,313,320,328 M,0,81846,81909,320,328,320,343 M,0,81909,81972,320,343,320,358 M,0,81972,82035,320,358,320,373 M,0,82035,82098,320,373,320,388 M,0,82098,82161,320,388,320,403 M,0,82161,82224,320,403,320,418
//Storyboard Layer 4 (Overlay)
//Storyboard Sound Samples

[TimingPoints]
2193,504.201680672269,4,2,1,50,1,0
18327,-50,4,2,1,80,0,0
34461,-80,4,2,1,60,0,0
50596,-50,4,2,1,80,0,0
58663,-80,4,2,1,60,0,0
66730,-66.6666666666667,4,2,1,60,0,0
74798,-100,4,2,1,70,0,0
80848,-133.333333333333,4,2,1,70,0,0
82361,-200,4,2,1,50,0,0
82865,-45.4545454545455,4,2,1,90,0,1
115134,-50,4,2,1,80,0,0
123201,-66.6666666666667,4,2,1,65,0,0
131268,-57.1428571428571,4,2,1,70,0,0
139335,-80,4,2,1,75,0,0
146898,-200,4,2,1,60,0,0
147403,-45.4545454545455,4,2,1,90,0,1
179671,-50,4,2,1,80,0,0

[Colours]
Combo1 : 201,137,243
Combo2 : 249,153,199
Combo3 : 148,139,248
Combo4 : 243,124,128

[HitObjects]
53,341,2192,6,0,P|118:328|156:311,1,80,2|0,0:0|0:0,0:0:0:0:
175,296,2571,2,0,P|129:269|118:214,1,80,2|0,0:0|0:0,0:0:0:0:
140,202,2949,1,2,0:0:0:0:
144,190,3201,6,0,L|132:95,1,80,2|0,0:0|0:0,0:0:0:0:
130,73,3579,2,0,P|168:48|209:56,1,80,2|0,0:0|0:0,0:0:0:0:
232,83,3957,1,2,0:0:0:0:
226,95,4209,6,0,P|206:155|204:183,1,80,2|0,0:0|0:0,0:0:0:0:
241,209,4587,2,0,P|280:202|320:204,1,80,2|0,0:0|0:0,0:0:0:0:
366,225,4966,1,2,0:0:0:0:
373,234,5134,6,0,L|370:255,1,13.3333333333333,2|2,0:0|0:0,0:0:0:0:
373,234,5218,6,0,L|481:220,1,80,2|0,0:0|0:0,0:0:0:0:
481,236,5596,2,0,P|510:193|499:152,1,80,2|0,0:0|0:0,0:0:0:0:
473,124,5974,1,2,0:0:0:0:
470,113,6226,6,0,P|494:53|511:20,1,80,2|0,0:0|0:0,0:0:0:0:
487,9,6604,2,0,P|448:18|410:32,1,80,2|0,0:0|0:0,0:0:0:0:
369,63,6982,1,2,0:0:0:0:
360,73,7235,6,0,L|262:56,1,80,2|0,0:0|0:0,0:0:0:0:
251,79,7613,2,0,L|153:96,1,80,2|0,0:0|0:0,0:0:0:0:
118,79,7991,1,2,0:0:0:0:
122,91,8243,6,0,P|137:134|143:177,1,80,2|0,0:0|0:0,0:0:0:0:
158,205,8621,2,0,P|138:246|112:280,1,80,2|0,0:0|0:0,0:0:0:0:
71,295,8999,1,2,0:0:0:0:
78,304,9125,6,0,L|75:327,1,13.3333333333333,2|2,0:0|0:0,0:0:0:0:
78,304,9251,6,0,P|138:292|178:291,1,80,2|0,0:0|0:0,0:0:0:0:
202,312,9629,2,0,P|262:324|302:325,1,80,2|0,0:0|0:0,0:0:0:0:
326,304,10008,1,2,0:0:0:0:
339,294,10260,6,0,P|301:264|306:216,1,80,2|0,0:0|0:0,0:0:0:0:
334,201,10638,2,0,P|372:171|367:123,1,80,2|0,0:0|0:0,0:0:0:0:
353,95,11016,1,2,0:0:0:0:
360,80,11268,6,0,P|313:56|261:58,1,80,2|0,0:0|0:0,0:0:0:0:
245,81,11646,2,0,P|198:105|146:103,1,80,2|0,0:0|0:0,0:0:0:0:
130,80,12024,1,2,0:0:0:0:
134,69,12277,6,0,P|105:26|64:9,1,80,2|0,0:0|0:0,0:0:0:0:
78,23,12655,2,0,L|-5:37,1,80,2|0,0:0|0:0,0:0:0:0:
12,66,13033,1,2,0:0:0:0:
16,76,13201,6,0,L|13:93,1,13.3333333333333,2|2,0:0|0:0,0:0:0:0:
16,76,13285,6,0,L|94:62,1,80,2|0,0:0|0:0,0:0:0:0:
108,69,13663,2,0,P|143:104|153:144,1,80,2|0,0:0|0:0,0:0:0:0:
133,182,14041,1,2,0:0:0:0:
141,194,14293,6,0,P|207:177|237:179,1,80,2|0,0:0|0:0,0:0:0:0:
255,211,14671,2,0,P|321:228|351:226,1,80,2|0,0:0|0:0,0:0:0:0:
378,213,15050,1,2,0:0:0:0:
387,196,15302,6,0,P|366:151|359:105,1,80,2|0,0:0|0:0,0:0:0:0:
371,72,15680,2,0,P|424:85|467:75,1,80,2|0,0:0|0:0,0:0:0:0:
491,51,16058,1,2,0:0:0:0:
492,62,16310,6,0,L|508:154,1,80,2|0,0:0|0:0,0:0:0:0:
488,184,16688,2,0,L|504:276,1,80,2|0,0:0|0:0,0:0:0:0:
484,306,17066,1,2,0:0:0:0:
477,315,17193,6,0,L|480:338,1,13.3333333333333,2|2,0:0|0:0,0:0:0:0:
477,315,17319,6,0,P|417:303|377:302,1,80,2|8,0:0|0:0,0:0:0:0:
320,320,17697,1,2,0:0:0:0:
323,307,17823,2,0,L|306:199,1,80,2|10,1:2|0:0,0:0:0:0:
295,116,18201,1,2,1:2:0:0:
213,30,18327,6,0,B|158:66|158:66|169:159,1,160,14|0,0:0|0:0,0:0:0:0:
191,260,18705,5,2,1:2:0:0:
108,227,18831,1,10,0:0:0:0:
92,224,18957,1,2,0:0:0:0:
76,224,19083,1,2,1:2:0:0:
191,260,19209,2,0,P|246:244|270:191,1,120,2|0,0:0|0:0,0:0:0:0:
271,169,19461,5,2,1:2:0:0:
370,226,19587,1,2,1:2:0:0:
468,172,19714,1,2,0:0:0:0:
368,111,19840,2,0,L|371:70,2,40,10|2|2,0:0|0:0|0:0,0:0:0:0:
370,226,20092,5,2,1:2:0:0:
457,90,20218,1,2,1:2:0:0:
275,88,20344,6,0,B|177:89|224:149|131:143,1,160,10|0,0:0|0:0,0:0:0:0:
143,62,20722,5,2,1:2:0:0:
77,200,20848,2,0,P|54:170|55:128,2,80,10|2|2,0:0|0:0|1:2,0:0:0:0:
181,307,21226,2,0,B|163:288|150:255|150:255|123:279|99:285,1,120,2|0,0:0|0:0,0:0:0:0:
76,291,21478,5,2,1:2:0:0:
232,239,21604,1,2,1:2:0:0:
299,318,21730,1,2,0:0:0:0:
375,252,21856,5,10,0:0:0:0:
460,228,21982,1,2,0:0:0:0:
442,321,22108,1,2,1:2:0:0:
393,153,22235,1,2,1:2:0:0:
469,90,22361,6,0,P|396:114|334:68,1,160,10|0,0:0|0:0,0:0:0:0:
148,72,22739,5,2,1:2:0:0:
228,29,22865,1,10,0:0:0:0:
239,53,22991,1,2,0:0:0:0:
240,82,23117,1,2,1:2:0:0:
151,216,23243,2,0,B|157:166|157:166|151:149|151:149|158:97,1,120,2|0,0:0|0:0,0:0:0:0:
148,72,23495,5,2,1:2:0:0:
164,241,23621,1,2,1:2:0:0:
262,185,23747,1,2,0:0:0:0:
271,308,23873,2,0,L|275:347,2,40,10|2|2,0:0|0:0|0:0,0:0:0:0:
342,241,24125,5,2,1:2:0:0:
492,352,24251,1,2,1:2:0:0:
434,266,24377,6,0,P|440:190|376:149,1,160,10|0,0:0|0:0,0:0:0:0:
296,92,24756,5,2,1:2:0:0:
406,51,24882,2,0,P|455:38|487:23,2,80,10|2|2,0:0|0:0|1:2,0:0:0:0:
254,15,25260,2,0,P|208:45|204:108,1,120,2|0,0:0|0:0,0:0:0:0:
219,128,25512,5,2,1:2:0:0:
171,217,25638,1,2,1:2:0:0:
230,294,25764,1,2,0:0:0:0:
306,206,25890,5,14,0:0:0:0:
141,305,26016,1,2,0:0:0:0:
323,205,26142,1,2,1:2:0:0:
135,140,26268,1,2,1:2:0:0:
28,218,26394,6,0,B|48:59,1,160,14|0,0:0|0:0,0:0:0:0:
149,14,26772,5,2,1:2:0:0:
228,87,26898,1,10,0:0:0:0:
248,95,27024,1,2,0:0:0:0:
271,95,27150,1,2,1:2:0:0:
389,49,27277,2,0,B|356:28|356:28|380:119,1,120,2|0,0:0|0:0,0:0:0:0:
370,132,27529,1,2,1:2:0:0:
500,207,27655,5,2,1:2:0:0:
472,107,27781,1,2,0:0:0:0:
393,226,27907,2,0,L|368:272,2,40,10|2|2,0:0|0:0|0:0,0:0:0:0:
464,302,28159,5,2,1:2:0:0:
294,207,28285,1,2,1:2:0:0:
150,292,28411,6,0,B|58:281|87:339|0:328,1,160,10|0,0:0|0:0,0:0:0:0:
123,374,28789,5,2,1:2:0:0:
221,338,28915,2,0,P|236:296|225:254,2,80,10|2|2,0:0|0:0|1:2,0:0:0:0:
137,267,29293,2,0,L|148:147,1,120,2|0,0:0|0:0,0:0:0:0:
152,124,29545,1,2,1:2:0:0:
61,171,29671,1,2,1:2:0:0:
231,183,29798,1,2,0:0:0:0:
159,30,29924,5,10,0:0:0:0:
152,124,30050,1,2,0:0:0:0:
309,130,30176,1,2,1:2:0:0:
316,36,30302,1,2,1:2:0:0:
425,0,30428,6,0,B|436:57|436:57|416:102|416:102|423:154,1,160,10|0,0:0|0:0,0:0:0:0:
463,324,30806,5,2,1:2:0:0:
473,238,30932,1,10,0:0:0:0:
442,237,31058,1,2,0:0:0:0:
414,253,31184,1,2,1:2:0:0:
322,329,31310,2,0,B|237:319|237:319|230:302|241:285,1,120,2|0,0:0|0:0,0:0:0:0:
260,265,31562,5,2,1:2:0:0:
143,325,31688,1,2,1:2:0:0:
55,246,31814,1,2,0:0:0:0:
161,192,31940,2,0,L|167:135,2,40,10|2|2,0:0|0:0|0:0,0:0:0:0:
143,325,32193,5,2,1:2:0:0:
170,127,32319,1,2,1:2:0:0:
258,181,32445,6,0,P|284:139|236:45,1,160,10|0,0:0|0:0,0:0:0:0:
170,127,32823,5,2,1:2:0:0:
312,107,32949,2,0,L|404:96,2,80,10|2|2,0:0|0:0|1:2,0:0:0:0:
384,195,33327,2,0,P|441:187|476:140,1,120,2|0,0:0|0:0,0:0:0:0:
479,115,33579,5,2,1:2:0:0:
457,278,33705,1,2,1:2:0:0:
369,369,33831,1,2,0:0:0:0:
331,268,33957,5,14,0:0:0:0:
164,338,34083,1,2,0:0:0:0:
270,357,34209,1,2,1:2:0:0:
143,240,34335,1,2,1:2:0:0:
301,143,34461,6,0,L|280:5,1,100,6|2,0:0|0:0,0:0:0:0:
253,73,34840,2,0,L|132:57,1,100,2|0,0:0|0:0,0:0:0:0:
81,113,35218,1,2,0:0:0:0:
89,123,35470,6,0,L|99:231,1,100,2|0,0:0|0:0,0:0:0:0:
190,283,35974,2,0,L|180:391,1,100,2|0,0:0|0:0,0:0:0:0:
196,253,36478,6,0,P|237:206|291:201,1,100,2|0,0:0|0:0,0:0:0:0:
288,227,36856,2,0,B|336:173|336:173|316:74,1,150,2|2,0:0|0:0,0:0:0:0:
301,2,37487,2,0,P|376:2|451:59,2,150,2|2|2,0:0|0:0|0:0,0:0:0:0:
171,113,38495,6,0,L|180:3,1,100,2|2,0:0|0:0,0:0:0:0:
192,42,38873,2,0,L|201:152,1,100,2|0,0:0|0:0,0:0:0:0:
212,284,39251,1,2,0:0:0:0:
216,273,39503,6,0,L|364:285,1,100,2|0,0:0|0:0,0:0:0:0:
392,360,40008,2,0,L|540:348,1,100,2|0,0:0|0:0,0:0:0:0:
418,242,40512,6,0,P|400:184|405:116,1,100,2|2,0:0|0:0,0:0:0:0:
433,109,40890,2,0,P|392:49|294:65,1,150,2|2,0:0|0:0,0:0:0:0:
197,108,41520,2,0,P|129:104|4:71,2,150,2|2|2,0:0|0:0|0:0,0:0:0:0:
330,82,42529,6,0,L|320:203,1,100,2|2,0:0|0:0,0:0:0:0:
334,230,42907,2,0,P|285:266|229:269,1,100,2|0,0:0|0:0,0:0:0:0:
139,250,43285,1,2,0:0:0:0:
145,238,43537,6,0,L|129:110,1,100,2|0,0:0|0:0,0:0:0:0:
240,80,44041,2,0,L|256:208,1,100,2|0,0:0|0:0,0:0:0:0:
276,343,44545,6,0,P|349:324|380:304,1,100,2|2,0:0|0:0,0:0:0:0:
401,269,44924,2,0,B|346:237|346:237|361:124,1,150,2|2,0:0|0:0,0:0:0:0:
379,58,45428,1,2,0:0:0:0:
379,58,45554,2,0,P|324:32|273:42,1,100,2|2,0:0|0:0,0:0:0:0:
264,129,45932,2,0,P|307:153|357:151,1,100,2|0,0:0|0:0,0:0:0:0:
327,71,46310,1,2,0:0:0:0:
498,71,46562,6,0,P|467:127|466:182,1,100,2|2,0:0|0:0,0:0:0:0:
475,211,46940,2,0,P|506:267|507:322,1,100,2|0,0:0|0:0,0:0:0:0:
462,376,47319,1,2,0:0:0:0:
452,366,47571,6,0,L|334:381,1,100,2|0,0:0|0:0,0:0:0:0:
260,321,48075,2,0,L|142:306,1,100,2|0,0:0|0:0,0:0:0:0:
22,369,48579,6,0,P|105:341|71:176,1,250,2|2,0:0|0:0,0:0:0:0:
111,213,49335,1,2,0:0:0:0:
102,225,49587,6,0,L|-15:215,1,100,2|2,0:0|0:0,0:0:0:0:
15,202,49966,2,0,L|56:85,1,100,2|2,0:0|0:0,0:0:0:0:
14,17,50344,1,2,0:0:0:0:
163,100,50596,6,0,B|256:113|221:61|316:73,1,160,14|0,0:0|0:0,0:0:0:0:
291,161,50974,5,2,1:2:0:0:
408,108,51100,1,10,0:0:0:0:
416,86,51226,1,2,0:0:0:0:
415,61,51352,1,2,1:2:0:0:
381,216,51478,2,0,B|382:270|382:270|391:289|391:289|391:333,1,120,2|0,0:0|0:0,0:0:0:0:
408,360,51730,5,2,1:2:0:0:
465,244,51856,1,2,1:2:0:0:
300,323,51982,1,2,0:0:0:0:
193,288,52108,2,0,L|147:303,2,40,10|2|2,0:0|0:0|0:0,0:0:0:0:
269,226,52361,5,2,1:2:0:0:
208,373,52487,1,2,1:2:0:0:
178,190,52613,6,0,B|157:87|157:87|135:137,1,160,10|0,0:0|0:0,0:0:0:0:
84,229,52991,5,2,1:2:0:0:
269,226,53117,2,0,L|350:195,2,80,10|2|2,0:0|0:0|1:2,0:0:0:0:
192,288,53495,2,0,P|148:350|84:357,1,120,2|0,0:0|0:0,0:0:0:0:
77,356,53747,5,2,1:2:0:0:
103,249,53873,1,2,1:2:0:0:
135,137,53999,1,2,0:0:0:0:
84,229,54125,5,10,0:0:0:0:
232,145,54251,1,2,0:0:0:0:
89,43,54377,1,2,1:2:0:0:
249,147,54503,1,2,1:2:0:0:
340,83,54629,6,0,B|343:123|375:147|375:147|339:178|338:219,1,160,10|0,0:0|0:0,0:0:0:0:
426,223,55008,5,2,1:2:0:0:
430,72,55134,1,10,0:0:0:0:
446,50,55260,1,2,0:0:0:0:
473,39,55386,1,2,1:2:0:0:
480,170,55512,2,0,L|462:288,1,120,2|0,0:0|0:0,0:0:0:0:
478,314,55764,5,2,1:2:0:0:
426,223,55890,1,2,1:2:0:0:
301,293,56016,1,2,0:0:0:0:
353,384,56142,2,0,L|387:364,2,40,10|2|2,0:0|0:0|0:0,0:0:0:0:
224,334,56394,5,2,1:2:0:0:
286,168,56520,1,2,1:2:0:0:
301,293,56646,6,0,B|211:268|236:338|148:306,1,160,10|0,0:0|0:0,0:0:0:0:
61,343,57024,5,2,1:2:0:0:
179,223,57150,2,0,P|186:177|162:134,2,80,10|2|2,0:0|0:0|1:2,0:0:0:0:
80,162,57529,2,0,P|81:103|126:66,1,120,2|0,0:0|0:0,0:0:0:0:
155,63,57781,5,2,1:2:0:0:
255,117,57907,1,2,1:2:0:0:
347,59,58033,1,2,0:0:0:0:
430,6,58159,5,10,0:0:0:0:
353,156,58285,1,2,0:0:0:0:
252,15,58411,1,2,1:2:0:0:
347,59,58537,1,2,1:2:0:0:
353,156,58663,6,0,L|341:255,1,100,2|2,0:0|0:0,0:0:0:0:
369,248,59041,2,0,L|357:347,1,100,2|0,0:0|0:0,0:0:0:0:
280,371,59419,1,2,0:0:0:0:
443,313,59671,6,0,P|496:321|516:372,1,100,2|0,0:0|0:0,0:0:0:0:
265,226,60176,2,0,P|212:218|192:167,1,100,2|0,0:0|0:0,0:0:0:0:
85,227,60680,6,0,L|99:128,1,100,2|2,0:0|0:0,0:0:0:0:
74,114,61058,2,0,P|14:119|0:159,1,100,2|0,0:0|0:0,0:0:0:0:
5,181,61436,2,0,L|-7:237,1,50,2|2,0:0|0:0,0:0:0:0:
62,310,61688,6,0,P|111:310|149:280,1,100,2|2,0:0|0:0,0:0:0:0:
196,353,62066,2,0,P|231:318|237:270,1,100,2|0,0:0|0:0,0:0:0:0:
179,196,62445,1,2,0:0:0:0:
334,279,62697,6,0,P|389:257|445:264,1,100,2|2,0:0|0:0,0:0:0:0:
479,326,63075,2,0,L|461:177,1,150,2|2,0:0|0:0,0:0:0:0:
471,154,63579,1,2,0:0:0:0:
481,134,63705,1,2,0:0:0:0:
295,98,63957,2,0,L|318:54,1,50,2|0,0:0|0:0,0:0:0:0:
412,69,64209,2,0,L|370:159,1,100,2|0,0:0|0:0,0:0:0:0:
385,288,64714,6,0,B|293:268|329:330|241:315,1,150,2|2,0:0|0:0,0:0:0:0:
70,258,65344,1,2,0:0:0:0:
70,258,65470,1,2,0:0:0:0:
140,327,65722,6,0,L|169:231,1,100,2|2,0:0|0:0,0:0:0:0:
162,207,66100,2,0,L|191:111,1,100,2|0,0:0|0:0,0:0:0:0:
187,80,66478,1,2,0:0:0:0:
322,108,66730,6,0,B|395:121|395:121|426:21,1,120.000004577637,2|2,0:0|0:0,0:0:0:0:
418,25,67108,2,0,L|275:42,1,120.000004577637,2|0,0:0|0:0,0:0:0:0:
324,146,67487,2,0,L|423:158,1,60.0000022888184,2|0,0:0|0:0,0:0:0:0:
495,171,67739,5,2,0:0:0:0:
480,68,67991,1,0,0:0:0:0:
383,198,68243,1,2,0:0:0:0:
398,301,68495,1,0,0:0:0:0:
405,288,68747,6,0,P|351:277|309:331,1,120.000004577637,2|2,0:0|0:0,0:0:0:0:
236,362,69125,2,0,P|182:373|140:319,1,120.000004577637,2|0,0:0|0:0,0:0:0:0:
178,260,69503,2,0,L|162:178,1,60.0000022888184,2|0,0:0|0:0,0:0:0:0:
144,93,69756,2,0,P|215:104|275:88,1,120.000004577637,2|2,0:0|0:0,0:0:0:0:
378,53,70134,2,0,P|319:41|260:52,1,120.000004577637,2|0,0:0|0:0,0:0:0:0:
317,145,70512,1,2,0:0:0:0:
316,158,70764,6,0,L|304:328,1,120.000004577637,2|2,0:0|0:0,0:0:0:0:
331,354,71142,2,0,P|283:301|213:320,1,120.000004577637,2|0,0:0|0:0,0:0:0:0:
146,354,71520,2,0,L|71:365,1,60.0000022888184,2|0,0:0|0:0,0:0:0:0:
15,304,71772,5,2,0:0:0:0:
144,241,72024,1,0,0:0:0:0:
256,384,72277,1,2,0:0:0:0:
385,321,72529,1,0,0:0:0:0:
385,331,72781,6,0,B|469:306|469:306|440:50,1,300.000011444092,2|2,0:0|0:0,0:0:0:0:
443,83,73537,1,2,0:0:0:0:
337,173,73789,2,0,L|205:149,1,120.000004577637,2|2,0:0|0:0,0:0:0:0:
145,211,74167,1,2,0:0:0:0:
145,211,74293,2,0,L|277:187,1,120.000004577637,2|2,0:0|0:0,0:0:0:0:
385,240,74798,6,0,P|456:229|457:139,1,160,10|0,0:0|0:0,0:0:0:0:
367,265,75806,6,0,P|378:336|468:337,1,160,10|0,0:0|0:0,0:0:0:0:
342,247,76814,6,0,P|271:258|256:328,1,120,10|0,0:0|0:0,0:0:0:0:
259,334,77319,1,0,0:0:0:0:
360,222,77823,6,0,P|349:151|259:150,1,160,10|0,0:0|0:0,0:0:0:0:
385,240,78831,6,0,P|456:229|457:139,1,160,10|0,0:0|0:0,0:0:0:0:
127,240,79840,6,0,P|56:229|55:139,1,160,10|0,0:0|0:0,0:0:0:0:
256,32,80848,6,0,L|256:384,1,330.000012588501,10|0,0:0|0:0,0:0:0:0:
256,384,82361,6,2,L|256:320,1,60,2|0,0:0|0:0,0:1:0:0:
255,193,82865,6,0,B|157:191|194:259|97:254,1,176.000005371094,14|2,0:0|0:0,0:0:0:0:
4,169,83243,1,2,1:2:0:0:
4,281,83369,2,0,L|26:118,1,88.000002685547,2|0,1:2|0:0,0:0:0:0:
38,30,83621,1,2,1:2:0:0:
108,149,83747,1,2,1:2:0:0:
173,68,83873,6,0,P|211:47|254:47,1,88.000002685547,10|0,0:0|0:0,0:0:0:0:
334,163,84125,2,0,P|296:140|252:139,1,88.000002685547,10|0,0:0|0:0,0:0:0:0:
304,258,84377,2,0,P|341:280|362:318,1,88.000002685547,2|0,1:2|0:0,0:0:0:0:
264,350,84629,5,2,1:2:0:0:
408,224,84756,1,2,1:2:0:0:
481,300,84882,6,0,P|440:226|485:156,1,176.000005371094,10|2,0:0|0:0,0:0:0:0:
484,156,85260,1,2,1:2:0:0:
406,16,85386,1,2,1:2:0:0:
396,107,85512,1,2,0:0:0:0:
299,99,85638,1,2,1:2:0:0:
307,7,85764,1,2,1:2:0:0:
315,127,85890,6,0,L|303:232,1,88.000002685547,10|10,0:0|0:0,0:0:0:0:
335,326,86142,2,0,P|292:307|247:316,1,88.000002685547,2|2,1:2|0:0,0:0:0:0:
98,333,86394,2,0,P|154:302|165:239,1,132.00000402832,2|0,1:2|0:0,0:0:0:0:
153,214,86646,2,0,L|34:224,1,88.000002685547,2|2,0:0|1:2,0:0:0:0:
34,116,86898,6,0,B|76:94|98:57|98:57|125:88|172:101,1,176.000005371094,10|2,0:0|0:0,0:0:0:0:
189,12,87277,1,2,1:2:0:0:
324,83,87403,2,0,L|304:213,1,132.00000402832,2|0,1:2|0:0,0:0:0:0:
318,243,87655,1,2,1:2:0:0:
346,64,87781,1,2,1:2:0:0:
501,170,87907,5,10,0:0:0:0:
389,160,88033,1,0,0:0:0:0:
439,243,88159,2,0,P|426:283|431:330,1,88.000002685547,10|0,0:0|0:0,0:0:0:0:
452,85,88411,2,0,P|465:45|459:-2,1,88.000002685547,2|0,1:2|0:0,0:0:0:0:
266,14,88663,2,0,P|253:54|258:101,1,88.000002685547,2|2,1:2|1:2,0:0:0:0:
298,209,88915,6,0,B|257:187|257:187|217:200,1,88.000002685547,10|0,0:0|0:0,0:0:0:0:
89,114,89167,2,0,B|130:136|130:136|169:122,1,88.000002685547,2|2,0:0|1:2,0:0:0:0:
116,314,89419,2,0,P|129:274|123:226,1,88.000002685547,2|2,1:2|0:0,0:0:0:0:
89,114,89671,1,2,1:2:0:0:
241,308,89924,5,10,0:0:0:0:
317,346,90050,1,10,0:0:0:0:
398,321,90176,1,2,1:2:0:0:
425,241,90302,1,2,0:0:0:0:
512,304,90428,2,0,L|500:172,1,132.00000402832,6|0,1:2|0:0,0:0:0:0:
509,144,90680,2,0,L|421:148,1,88.000002685547,2|2,1:2|1:2,0:0:0:0:
302,48,90932,6,0,P|382:45|396:124,1,176.000005371094,14|2,0:0|0:0,0:0:0:0:
276,255,91310,1,2,1:2:0:0:
336,203,91436,2,0,L|196:214,1,132.00000402832,2|0,1:2|0:0,0:0:0:0:
175,216,91688,1,2,1:2:0:0:
259,129,91814,1,2,1:2:0:0:
103,268,91940,6,0,P|83:231|89:188,1,88.000002685547,10|0,0:0|0:0,0:0:0:0:
154,40,92193,2,0,P|174:77|168:120,1,88.000002685547,10|0,0:0|0:0,0:0:0:0:
61,341,92445,2,0,P|116:306|195:331,1,132.00000402832,2|0,1:2|0:0,0:0:0:0:
197,336,92697,5,2,1:2:0:0:
52,364,92823,1,2,1:2:0:0:
218,359,92949,6,0,B|286:350|286:350|313:328|313:328|385:319,1,176.000005371094,10|2,0:0|0:0,0:0:0:0:
470,367,93327,1,2,1:2:0:0:
512,198,93453,2,0,P|431:174|373:234,1,176.000005371094,2|2,1:2|1:2,0:0:0:0:
454,260,93831,1,2,1:2:0:0:
409,79,93957,5,10,0:0:0:0:
464,7,94083,1,10,0:0:0:0:
505,93,94209,1,2,1:2:0:0:
336,23,94335,1,2,0:0:0:0:
313,129,94461,2,0,P|261:154|181:118,1,132.00000402832,2|0,1:2|0:0,0:0:0:0:
168,152,94714,2,0,L|168:47,1,88.000002685547,2|2,0:0|1:2,0:0:0:0:
186,290,94966,6,0,B|157:240|157:240|31:266,1,176.000005371094,10|2,0:0|0:0,0:0:0:0:
0,350,95344,1,2,1:2:0:0:
22,173,95470,2,0,L|6:84,1,88.000002685547,2|0,1:2|0:0,0:0:0:0:
84,15,95722,1,2,1:2:0:0:
168,152,95848,1,2,1:2:0:0:
248,40,95974,6,0,P|204:40|167:63,1,88.000002685547,10|0,0:0|0:0,0:0:0:0:
298,154,96226,2,0,P|334:177|378:177,1,88.000002685547,10|0,0:0|0:0,0:0:0:0:
399,0,96478,2,0,P|350:15|379:82,1,132.00000402832,2|0,1:2|0:0,0:0:0:0:
396,98,96730,2,0,L|502:80,1,88.000002685547,2|2,1:2|1:2,0:0:0:0:
462,225,96982,6,0,L|443:316,1,88.000002685547,10|0,0:0|0:0,0:0:0:0:
305,280,97235,2,0,L|324:371,1,88.000002685547,2|2,0:0|1:2,0:0:0:0:
192,222,97487,1,2,1:2:0:0:
147,314,97613,1,2,0:0:0:0:
182,195,97739,1,2,1:2:0:0:
221,26,97991,5,10,0:0:0:0:
135,78,98117,1,10,0:0:0:0:
282,109,98243,5,2,1:2:0:0:
394,163,98369,1,2,0:0:0:0:
371,57,98495,1,6,1:2:0:0:
317,234,98621,5,0,0:0:0:0:
502,200,98747,1,2,1:2:0:0:
371,57,98873,1,2,1:2:0:0:
375,325,98999,6,0,P|323:276|207:287,1,176.000005371094,14|2,0:0|0:0,0:0:0:0:
108,333,99377,1,2,1:2:0:0:
47,176,99503,2,0,P|66:109|111:58,1,88.000002685547,2|0,1:2|0:0,0:0:0:0:
144,15,99755,1,2,1:2:0:0:
178,114,99881,1,2,1:2:0:0:
274,16,100008,6,0,L|400:30,1,88.000002685547,10|0,0:0|0:0,0:0:0:0:
465,141,100260,2,0,L|339:127,1,88.000002685547,10|0,0:0|0:0,0:0:0:0:
257,39,100512,2,0,L|383:53,1,88.000002685547,2|0,1:2|0:0,0:0:0:0:
395,274,100763,5,2,1:2:0:0:
304,208,100890,1,2,1:2:0:0:
476,105,101016,6,0,B|434:72|434:72|297:89,1,176.000005371094,10|2,0:0|0:0,0:0:0:0:
154,119,101394,1,2,1:2:0:0:
241,48,101520,1,2,1:2:0:0:
268,241,101646,1,2,0:0:0:0:
296,120,101772,1,2,1:2:0:0:
79,176,101898,6,0,L|67:281,1,88.000002685547,2|10,1:2|0:0,0:0:0:0:
234,171,102150,2,0,L|222:66,1,88.000002685547,10|2,0:0|1:2,0:0:0:0:
174,319,102403,1,2,0:0:0:0:
174,319,102529,2,0,B|255:294|255:294|281:361,1,132.00000402832,2|0,1:2|0:0,0:0:0:0:
290,382,102781,2,0,P|351:358|359:307,1,88.000002685547,2|2,0:0|1:2,0:0:0:0:
389,208,103033,6,0,P|283:189|296:85,1,176.000005371094,10|2,0:0|0:0,0:0:0:0:
462,112,103411,1,2,1:2:0:0:
327,14,103537,2,0,L|184:33,1,132.00000402832,2|0,1:2|0:0,0:0:0:0:
175,57,103789,1,2,1:2:0:0:
440,94,103915,1,2,1:2:0:0:
302,145,104041,6,0,P|269:94|297:50,1,88.000002685547,10|0,0:0|0:0,0:0:0:0:
259,223,104293,2,0,P|208:256|164:228,1,88.000002685547,10|0,0:0|0:0,0:0:0:0:
337,266,104545,2,0,P|370:317|342:361,1,88.000002685547,2|0,1:2|0:0,0:0:0:0:
380,188,104798,2,0,P|431:155|475:183,1,88.000002685547,2|2,1:2|1:2,0:0:0:0:
396,369,105050,6,0,P|304:357|203:352,1,176.000005371094,10|2,0:0|0:0,0:0:0:0:
51,373,105428,1,2,1:2:0:0:
216,312,105554,2,0,P|308:300|409:295,1,176.000005371094,2|2,1:2|1:2,0:0:0:0:
512,304,105932,1,2,1:2:0:0:
512,304,106058,5,10,0:0:0:0:
410,294,106184,1,10,0:0:0:0:
354,209,106310,1,2,1:2:0:0:
385,112,106436,1,2,0:0:0:0:
512,321,106562,6,0,P|410:327|338:162,1,264.000008056641,6|2,1:2|1:2,0:0:0:0:
352,90,107066,6,0,B|485:71|485:71|460:143,1,176.000005371094,14|2,0:0|0:0,0:0:0:0:
238,51,107444,1,2,1:2:0:0:
190,270,107571,2,0,L|160:125,1,132.00000402832,2|0,1:2|0:0,0:0:0:0:
168,98,107823,1,2,1:2:0:0:
172,306,107948,1,2,1:2:0:0:
272,144,108075,6,0,P|309:130|359:152,1,88.000002685547,10|0,0:0|0:0,0:0:0:0:
401,272,108327,2,0,P|364:286|314:264,1,88.000002685547,10|0,0:0|0:0,0:0:0:0:
390,111,108579,2,0,P|430:95|471:110,1,88.000002685547,2|0,1:2|0:0,0:0:0:0:
479,343,108831,1,2,1:2:0:0:
479,343,108957,1,2,1:2:0:0:
479,343,109083,6,0,B|411:334|411:334|384:312|384:312|312:303,1,176.000005371094,10|2,0:0|0:0,0:0:0:0:
208,337,109461,1,2,1:2:0:0:
209,131,109587,2,0,P|309:169|291:252,1,176.000005371094,2|2,1:2|1:2,0:0:0:0:
96,224,109966,1,2,1:2:0:0:
235,143,110091,5,10,0:0:0:0:
201,310,110217,1,8,0:0:0:0:
168,64,110343,1,2,1:2:0:0:
239,239,110469,1,2,0:0:0:0:
0,224,110596,2,0,L|24:383,1,132.00000402832,2|0,1:2|0:0,0:0:0:0:
22,368,110848,2,0,L|32:241,1,88.000002685547,2|2,0:0|1:2,0:0:0:0:
43,127,111100,6,0,B|72:77|72:77|198:103,1,176.000005371094,10|2,0:0|0:0,0:0:0:0:
33,157,111478,1,2,1:2:0:0:
239,239,111604,2,0,L|255:150,1,88.000002685547,2|0,1:2|0:0,0:0:0:0:
226,11,111856,1,2,1:2:0:0:
226,11,111982,1,2,1:2:0:0:
226,11,112108,6,0,P|182:11|145:34,1,88.000002685547,10|0,0:0|0:0,0:0:0:0:
191,207,112361,2,0,P|234:207|271:184,1,88.000002685547,10|0,0:0|0:0,0:0:0:0:
398,59,112613,2,0,B|358:56|352:97|352:97|392:185,1,132.00000402832,2|0,1:2|0:0,0:0:0:0:
404,204,112865,2,0,L|428:88,1,88.000002685547,2|2,1:2|1:2,0:0:0:0:
463,367,113117,6,0,P|395:336|349:351,1,88.000002685547,10|0,0:0|0:0,0:0:0:0:
208,376,113369,2,0,P|251:371|286:345,1,88.000002685547,2|2,0:0|1:2,0:0:0:0:
90,187,113621,2,0,P|121:281|118:375,1,176.000005371094,2|2,1:2|1:2,0:0:0:0:
40,287,113999,1,2,1:2:0:0:
193,245,114125,2,0,L|289:272,1,88.000002685547,10|10,0:0|0:0,0:0:0:0:
429,308,114377,1,2,1:2:0:0:
391,226,114503,1,2,0:0:0:0:
290,376,114629,6,0,L|278:251,1,88.000002685547,6|0,1:2|0:0,0:0:0:0:
268,60,114882,1,2,1:2:0:0:
268,60,115008,1,2,1:2:0:0:
268,60,115134,6,0,B|179:56|209:113|121:111,1,160,14|0,0:0|0:0,0:0:0:0:
132,28,115512,5,2,1:2:0:0:
255,151,115638,1,10,0:0:0:0:
264,167,115764,1,2,0:0:0:0:
271,186,115890,1,2,1:2:0:0:
161,268,116016,2,0,P|219:267|259:310,1,120,2|0,0:0|0:0,0:0:0:0:
266,344,116268,5,2,1:2:0:0:
391,271,116394,1,2,1:2:0:0:
364,372,116520,1,2,0:0:0:0:
415,173,116646,2,0,L|416:114,2,40,10|2|2,0:0|0:0|0:0,0:0:0:0:
486,249,116898,5,2,1:2:0:0:
326,151,117024,1,2,1:2:0:0:
456,35,117150,6,0,B|357:58|357:58|335:40|344:0,1,160,10|0,0:0|0:0,0:0:0:0:
456,35,117529,5,2,1:2:0:0:
261,39,117655,2,0,L|173:35,2,80,10|2|2,0:0|0:0|1:2,0:0:0:0:
208,135,118033,2,0,B|125:131|125:131|145:161,1,120,2|0,0:0|0:0,0:0:0:0:
163,183,118285,5,2,1:2:0:0:
86,58,118411,1,2,1:2:0:0:
16,190,118537,1,2,0:0:0:0:
88,259,118663,5,10,0:0:0:0:
184,101,118789,1,2,0:0:0:0:
88,259,118915,1,2,1:2:0:0:
0,109,119041,1,2,1:2:0:0:
5,309,119167,6,0,P|81:289|152:322,1,160,10|0,0:0|0:0,0:0:0:0:
227,377,119545,1,2,1:2:0:0:
359,271,119671,1,10,0:0:0:0:
333,285,119798,1,2,0:0:0:0:
305,286,119924,1,2,1:2:0:0:
437,299,120050,2,0,P|401:240|400:175,1,120,2|0,0:0|0:0,0:0:0:0:
415,159,120302,5,2,1:2:0:0:
474,311,120428,1,2,1:2:0:0:
508,207,120554,1,2,0:0:0:0:
467,73,120680,2,0,L|456:34,2,40,10|2|2,0:0|0:0|0:0,0:0:0:0:
347,82,120932,5,2,1:2:0:0:
177,35,121058,1,2,1:2:0:0:
239,143,121184,6,0,P|175:180|175:275,1,160,10|0,0:0|0:0,0:0:0:0:
258,230,121562,1,2,1:2:0:0:
91,148,121688,2,0,P|56:165|16:172,2,80,10|2|2,0:0|0:0|1:2,0:0:0:0:
110,288,122066,2,0,B|168:260|168:260|207:298,1,120,2|0,0:0|0:0,0:0:0:0:
227,322,122319,5,2,1:2:0:0:
87,302,122445,1,2,1:2:0:0:
147,375,122571,1,2,0:0:0:0:
258,230,122697,6,0,B|309:273|309:273|317:325,1,120,14|0,0:0|0:0,0:0:0:0:
348,330,122949,2,0,L|340:250,1,80,2|2,1:2|1:2,0:0:0:0:
338,140,123201,6,0,B|403:137|382:178|448:176,1,120.000004577637,14|0,0:0|0:0,0:0:0:0:
447,81,123579,2,0,P|421:59|328:41,1,120.000004577637,2|0,0:0|0:0,0:0:0:0:
261,89,123957,1,2,0:0:0:0:
26,132,124209,5,10,0:0:0:0:
108,52,124461,1,2,0:0:0:0:
76,219,124714,2,0,L|52:349,1,120.000004577637,10|2,0:0|0:0,0:0:0:0:
240,234,125218,6,0,P|182:236|155:286,1,120.000004577637,10|2,0:0|0:0,0:0:0:0:
314,277,125596,2,0,P|340:226|310:177,1,120.000004577637,2|0,0:0|0:0,0:0:0:0:
237,321,125974,1,2,0:0:0:0:
218,149,126226,6,0,L|204:21,1,120.000004577637,10|2,0:0|0:0,0:0:0:0:
225,8,126604,1,2,0:0:0:0:
225,8,126730,2,0,L|299:23,1,60.0000022888184,10|0,0:0|0:0,0:0:0:0:
354,85,126982,2,0,L|413:74,1,60.0000022888184,10|0,0:0|0:0,0:0:0:0:
512,41,127235,6,0,B|484:18|484:18|499:108,1,120.000004577637,10|2,0:0|0:0,0:0:0:0:
444,168,127613,2,0,P|387:167|351:212,1,120.000004577637,2|0,0:0|0:0,0:0:0:0:
423,254,127991,1,2,0:0:0:0:
198,234,128243,6,0,P|159:241|120:317,1,120.000004577637,10|2,0:0|0:0,0:0:0:0:
259,284,128747,2,0,L|243:164,1,120.000004577637,10|2,0:0|0:0,0:0:0:0:
232,65,129251,6,0,B|157:62|191:105|123:103,1,120.000004577637,10|2,0:0|0:0,0:0:0:0:
45,145,129629,2,0,P|27:100|63:40,1,120.000004577637,2|0,0:0|0:0,0:0:0:0:
121,190,130008,1,2,0:0:0:0:
11,313,130260,6,0,P|61:306|130:347,1,120.000004577637,10|2,0:0|0:0,0:0:0:0:
197,384,130638,2,0,P|233:351|206:288,1,120.000004577637,2|0,0:0|0:0,0:0:0:0:
241,203,131016,2,0,P|221:166|221:144,1,60.0000022888184,2|0,0:0|0:0,0:0:0:0:
246,42,131268,6,0,P|334:27|391:-1,1,140.000001335144,10|0,0:0|0:0,0:0:0:0:
321,81,131646,2,0,P|228:64|181:23,1,140.000001335144,2|0,0:0|0:0,0:0:0:0:
167,13,132024,2,0,L|186:106,1,70.000000667572,2|0,0:0|0:0,0:0:0:0:
216,245,132277,5,10,0:0:0:0:
226,108,132529,1,2,0:0:0:0:
325,233,132781,1,2,1:2:0:0:
315,370,133033,1,2,0:0:0:0:
327,201,133285,6,0,B|423:188|423:188|467:239,1,140.000001335144,10|2,0:0|0:0,0:0:0:0:
479,270,133663,2,0,L|307:247,1,140.000001335144,2|0,0:0|0:0,0:0:0:0:
206,338,134041,2,0,L|82:355,1,70.000000667572,2|0,0:0|0:0,0:0:0:0:
41,358,134293,1,10,0:0:0:0:
143,238,134545,1,2,0:0:0:0:
143,238,134671,2,0,P|112:164|53:118,1,140.000001335144,2|2,0:0|0:0,0:0:0:0:
16,112,135050,2,0,P|53:84|100:83,1,70.000000667572,10|2,0:0|0:0,0:0:0:0:
204,113,135302,6,0,P|279:81|261:-4,1,140.000001335144,10|2,0:0|0:0,0:0:0:0:
284,30,135680,1,2,0:0:0:0:
284,30,135806,1,2,1:2:0:0:
401,114,136058,2,0,P|440:97|489:83,1,70.000000667572,2|0,0:0|0:0,0:0:0:0:
463,241,136310,5,10,0:0:0:0:
506,110,136562,1,2,0:0:0:0:
459,214,136814,1,2,1:2:0:0:
419,46,137066,2,0,L|415:144,1,70.000000667572,2|2,0:0|0:0,0:0:0:0:
411,300,137319,6,0,P|348:222|274:258,1,140.000001335144,10|2,0:0|0:0,0:0:0:0:
261,273,137697,1,2,0:0:0:0:
261,273,137823,2,0,L|167:260,1,70.000000667572,2|0,1:2|0:0,0:0:0:0:
77,315,138075,1,2,0:0:0:0:
77,315,138201,1,2,0:0:0:0:
77,315,138327,6,0,P|119:229|82:168,1,140.000001335144,10|2,0:0|1:2,0:0:0:0:
97,184,138663,1,2,0:0:0:0:
82,175,138747,1,2,0:0:0:0:
65,181,138831,2,0,P|115:221|156:212,1,70.000000667572,10|0,0:0|0:0,0:0:0:0:
246,187,139083,2,0,P|296:147|337:156,1,70.000000667572,2|2,1:2|0:0,0:0:0:0:
483,233,139335,6,0,L|503:116,1,100,14|2,0:0|0:0,0:0:0:0:
479,157,139714,1,10,0:0:0:0:
479,157,139840,2,0,L|356:172,1,100,2|10,1:2|0:0,0:0:0:0:
288,228,140218,1,2,0:0:0:0:
288,228,140344,2,0,L|198:217,1,50,2|0,1:2|0:0,0:0:0:0:
233,116,140596,2,0,L|323:105,1,50,10|0,0:0|0:0,0:0:0:0:
165,174,140848,1,2,1:2:0:0:
351,166,141100,1,2,0:0:0:0:
165,174,141352,6,0,P|182:106|228:13,1,150,10|10,0:0|0:0,0:0:0:0:
219,46,141856,2,0,L|99:33,1,100,2|8,0:0|0:0,0:0:0:0:
261,133,142361,2,0,L|381:120,1,100,2|10,0:0|0:0,0:0:0:0:
502,55,142865,1,2,1:2:0:0:
502,55,143117,1,2,0:0:0:0:
502,55,143369,6,0,L|484:178,1,100,10|2,0:0|0:0,0:0:0:0:
462,133,143747,1,10,0:0:0:0:
462,133,143873,2,0,L|480:256,1,100,2|10,1:2|0:0,0:0:0:0:
497,384,144377,1,2,0:0:0:0:
440,317,144629,1,10,0:0:0:0:
300,366,144882,1,2,1:2:0:0:
440,317,145134,1,2,0:0:0:0:
206,273,145386,5,10,0:0:0:0:
206,273,145890,1,2,1:2:0:0:
206,273,146394,1,10,0:0:0:0:
206,273,146898,6,2,L|214:349,1,60,2|0,1:2|0:0,0:1:0:0:
209,172,147403,6,0,B|106:170|157:231|46:221,1,176.000005371094,14|2,0:0|0:0,0:0:0:0:
66,130,147781,1,2,1:2:0:0:
209,172,147907,2,0,P|248:137|254:100,1,88.000002685547,2|0,1:2|0:0,0:0:0:0:
142,0,148159,1,2,1:2:0:0:
164,96,148285,1,2,1:2:0:0:
337,63,148411,6,0,L|434:48,1,88.000002685547,10|0,0:0|0:0,0:0:0:0:
497,165,148663,2,0,L|400:150,1,88.000002685547,10|0,0:0|0:0,0:0:0:0:
334,227,148915,2,0,L|417:255,1,88.000002685547,2|0,1:2|0:0,0:0:0:0:
461,334,149167,5,2,1:2:0:0:
264,269,149293,1,2,1:2:0:0:
155,310,149419,2,0,P|81:315|111:384,1,176.000005371094,10|2,0:0|0:0,0:0:0:0:
233,384,149798,1,2,1:2:0:0:
155,310,149924,2,0,L|172:204,1,88.000002685547,2|2,1:2|0:0,0:0:0:0:
93,148,150176,1,2,1:2:0:0:
188,117,150302,1,2,1:2:0:0:
260,190,150428,5,10,0:0:0:0:
212,6,150554,1,10,0:0:0:0:
333,130,150680,5,2,1:2:0:0:
362,31,150806,1,2,0:0:0:0:
433,109,150932,6,0,P|506:128|516:191,1,88.000002685547,2|0,1:2|0:0,0:0:0:0:
447,197,151184,5,2,0:0:0:0:
505,8,151310,1,2,1:2:0:0:
453,230,151436,6,0,B|351:219|386:296|293:278,1,176.000005371094,10|2,0:0|0:0,0:0:0:0:
434,309,151814,1,2,1:2:0:0:
293,278,151940,2,0,P|251:266|213:286,1,88.000002685547,2|0,1:2|0:0,0:0:0:0:
139,341,152193,1,2,1:2:0:0:
262,370,152319,1,2,1:2:0:0:
229,199,152445,6,0,L|214:285,1,88.000002685547,10|0,0:0|0:0,0:0:0:0:
194,106,152697,2,0,L|126:49,1,88.000002685547,10|0,0:0|0:0,0:0:0:0:
292,122,152949,2,0,L|374:91,1,88.000002685547,2|0,1:2|0:0,0:0:0:0:
463,154,153201,1,2,1:2:0:0:
363,197,153327,1,2,1:2:0:0:
372,1,153453,6,0,P|414:9|446:38,1,88.000002685547,10|0,0:0|0:0,0:0:0:0:
442,239,153705,2,0,P|414:272|372:284,1,88.000002685547,2|2,0:0|1:2,0:0:0:0:
202,311,153957,1,2,1:2:0:0:
286,293,154083,1,2,0:0:0:0:
339,359,154209,1,2,1:2:0:0:
96,253,154461,5,10,0:0:0:0:
123,164,154587,1,10,0:0:0:0:
29,140,154714,1,2,1:2:0:0:
2,229,154840,1,2,0:0:0:0:
66,199,154966,6,0,B|140:219|125:167|200:192,1,132.00000402832,6|0,1:2|0:0,0:0:0:0:
218,210,155218,2,0,P|204:145|218:93,1,88.000002685547,2|2,1:2|1:2,0:0:0:0:
289,29,155470,6,0,B|392:43|392:43|416:80|388:108,1,176.000005371094,14|2,0:0|0:0,0:0:0:0:
429,191,155848,1,2,1:2:0:0:
500,155,155974,2,0,P|455:218|463:289,1,132.00000402832,2|0,1:2|0:0,0:0:0:0:
478,288,156226,2,0,L|378:314,1,88.000002685547,2|2,1:2|1:2,0:0:0:0:
284,330,156478,5,10,0:0:0:0:
316,245,156604,1,0,0:0:0:0:
392,310,156730,1,10,0:0:0:0:
220,260,156856,1,0,0:0:0:0:
344,156,156982,5,2,1:2:0:0:
284,330,157108,1,0,0:0:0:0:
253,168,157235,1,2,1:2:0:0:
392,310,157361,1,2,1:2:0:0:
174,359,157487,6,0,L|75:344,1,88.000002685547,10|0,0:0|0:0,0:0:0:0:
25,276,157739,2,0,L|40:177,1,88.000002685547,2|2,0:0|1:2,0:0:0:0:
114,132,157991,1,2,1:2:0:0:
82,18,158117,1,2,0:0:0:0:
196,45,158243,1,2,1:2:0:0:
226,150,158369,6,0,P|310:141|384:155,1,132.00000402832,10|0,0:0|0:0,0:0:0:0:
376,171,158621,1,10,0:0:0:0:
456,73,158747,1,2,1:2:0:0:
439,237,158873,1,2,0:0:0:0:
476,332,158999,2,0,L|388:321,1,88.000002685547,2|0,1:2|0:0,0:0:0:0:
210,377,159251,2,0,L|297:366,1,88.000002685547,2|2,0:0|1:2,0:0:0:0:
222,269,159503,6,0,P|138:279|101:355,1,176.000005371094,10|2,0:0|0:0,0:0:0:0:
123,246,159882,1,2,1:2:0:0:
116,136,160008,2,0,L|109:223,1,88.000002685547,2|0,1:2|0:0,0:0:0:0:
284,66,160260,2,0,P|223:69|205:128,1,132.00000402832,2|0,1:2|0:0,0:0:0:0:
223,152,160512,6,0,L|338:145,1,88.000002685547,10|0,0:0|0:0,0:0:0:0:
464,253,160764,2,0,L|349:246,1,88.000002685547,10|0,0:0|0:0,0:0:0:0:
289,322,161016,2,0,L|272:235,1,88.000002685547,2|0,1:2|0:0,0:0:0:0:
437,77,161268,2,0,L|419:172,1,88.000002685547,2|2,1:2|1:2,0:0:0:0:
284,66,161520,6,0,P|223:44|150:101,1,132.00000402832,10|0,0:0|0:0,0:0:0:0:
177,97,161772,2,0,L|86:82,1,88.000002685547,2|2,0:0|1:2,0:0:0:0:
7,173,162024,5,2,1:2:0:0:
82,234,162150,1,2,0:0:0:0:
174,199,162277,1,2,1:2:0:0:
177,97,162403,1,2,1:2:0:0:
284,66,162529,5,10,0:0:0:0:
240,265,162655,1,10,0:0:0:0:
335,248,162781,1,2,1:2:0:0:
362,135,162907,1,2,0:0:0:0:
475,219,163033,6,0,B|453:180|453:180|433:271,1,132.00000402832,6|0,1:2|0:0,0:0:0:0:
448,295,163285,2,0,P|406:301|381:336,1,88.000002685547,2|2,1:2|1:2,0:0:0:0:
206,366,163537,6,0,B|265:330|265:330|229:185,1,176.000005371094,14|2,0:0|0:0,0:0:0:0:
114,369,163915,1,2,1:2:0:0:
6,271,164041,2,0,P|25:204|70:153,1,88.000002685547,2|0,1:2|0:0,0:0:0:0:
138,84,164293,1,2,1:2:0:0:
161,176,164419,1,2,1:2:0:0:
0,96,164545,6,0,L|11:-20,1,88.000002685547,10|0,0:0|0:0,0:0:0:0:
166,189,164798,2,0,L|155:305,1,88.000002685547,10|0,0:0|0:0,0:0:0:0:
117,66,165050,2,0,P|167:37|222:43,1,88.000002685547,2|0,1:2|0:0,0:0:0:0:
335,145,165301,5,2,1:2:0:0:
229,102,165428,1,2,1:2:0:0:
491,50,165554,6,0,P|503:156|495:260,1,176.000005371094,10|2,0:0|0:0,0:0:0:0:
476,351,165932,1,2,1:2:0:0:
256,288,166058,1,2,1:2:0:0:
369,238,166184,1,2,0:0:0:0:
312,384,166310,1,2,1:2:0:0:
381,210,166436,6,0,L|365:91,1,88.000002685547,2|10,1:2|0:0,0:0:0:0:
172,286,166688,2,0,L|188:405,1,88.000002685547,10|2,0:0|1:2,0:0:0:0:
155,120,166941,1,2,0:0:0:0:
155,120,167066,2,0,P|101:165|38:144,1,132.00000402832,2|0,1:2|0:0,0:0:0:0:
10,113,167319,2,0,P|53:89|74:18,1,88.000002685547,2|2,0:0|1:2,0:0:0:0:
290,212,167571,6,0,P|184:193|197:89,1,176.000005371094,10|2,0:0|0:0,0:0:0:0:
366,110,167949,1,2,1:2:0:0:
374,269,168075,2,0,L|379:117,1,132.00000402832,2|0,1:2|0:0,0:0:0:0:
366,110,168327,1,2,1:2:0:0:
400,369,168453,1,2,1:2:0:0:
96,352,168579,6,0,P|142:284|201:310,1,132.00000402832,10|0,0:0|0:0,0:0:0:0:
182,303,168831,2,0,P|133:272|129:229,1,88.000002685547,10|0,0:0|0:0,0:0:0:0:
416,352,169083,2,0,P|370:284|311:310,1,132.00000402832,2|0,1:2|0:0,0:0:0:0:
330,303,169335,2,0,P|379:272|383:229,1,88.000002685547,2|2,1:2|1:2,0:0:0:0:
256,32,169587,6,0,L|256:224,1,176.000005371094,10|2,0:0|0:0,0:0:0:0:
256,256,169966,1,2,1:2:0:0:
406,370,170092,2,0,P|502:328|470:226,1,176.000005371094,2|2,1:2|1:2,0:0:0:0:
326,320,170470,1,2,1:2:0:0:
326,320,170596,5,10,0:0:0:0:
326,224,170722,1,10,0:0:0:0:
186,224,170848,1,2,1:2:0:0:
186,320,170974,1,2,0:0:0:0:
337,210,171100,6,0,P|362:147|352:89,1,88.000002685547,6|0,1:2|0:0,0:0:0:0:
149,127,171352,2,0,P|154:171|175:210,1,88.000002685547,2|2,1:2|1:2,0:0:0:0:
256,32,171604,6,0,P|197:19|36:5,1,176.000005371094,14|2,0:0|0:0,0:0:0:0:
166,48,171982,1,2,1:2:0:0:
51,149,172108,2,0,P|10:111|71:108,1,132.00000402832,2|0,1:2|0:0,0:0:0:0:
62,109,172361,2,0,L|77:234,1,88.000002685547,2|2,1:2|1:2,0:0:0:0:
93,381,172613,6,0,P|175:344|237:329,1,132.00000402832,10|0,0:0|0:0,0:0:0:0:
227,331,172865,2,0,P|173:308|132:304,1,88.000002685547,10|0,0:0|0:0,0:0:0:0:
326,203,173117,2,0,P|389:205|399:278,1,132.00000402832,2|0,1:2|0:0,0:0:0:0:
310,372,173369,1,2,1:2:0:0:
310,372,173495,1,2,1:2:0:0:
310,372,173621,6,0,B|242:363|242:363|215:341|215:341|143:332,1,176.000005371094,10|2,0:0|0:0,0:0:0:0:
14,370,173999,1,2,1:2:0:0:
119,199,174125,2,0,P|219:237|201:320,1,176.000005371094,2|2,1:2|1:2,0:0:0:0:
14,239,174503,2,0,L|29:120,1,88.000002685547,2|10,1:2|0:0,0:0:0:0:
192,64,174756,2,0,L|207:183,1,88.000002685547,10|2,0:0|1:2,0:0:0:0:
8,18,175007,1,2,0:0:0:0:
185,31,175134,2,0,P|251:15|324:4,1,132.00000402832,2|0,1:2|0:0,0:0:0:0:
324,12,175386,2,0,L|311:113,1,88.000002685547,2|2,0:0|1:2,0:0:0:0:
295,306,175638,6,0,B|324:356|324:356|450:330,1,176.000005371094,10|2,0:0|0:0,0:0:0:0:
512,225,176016,1,2,1:2:0:0:
349,182,176142,2,0,L|367:295,1,88.000002685547,2|0,1:2|0:0,0:0:0:0:
384,64,176394,1,2,1:2:0:0:
384,64,176520,1,2,1:2:0:0:
384,64,176646,6,0,P|331:39|282:48,1,88.000002685547,10|0,0:0|0:0,0:0:0:0:
224,256,176898,2,0,P|267:254|305:232,1,88.000002685547,10|0,0:0|0:0,0:0:0:0:
99,156,177150,2,0,B|39:174|39:174|58:256,1,132.00000402832,2|0,1:2|0:0,0:0:0:0:
63,269,177403,2,0,L|72:159,1,88.000002685547,2|2,1:2|1:2,0:0:0:0:
80,36,177655,6,0,P|184:13|215:30,1,88.000002685547,10|0,0:0|0:0,0:0:0:0:
288,192,177907,2,0,P|244:186|207:163,1,88.000002685547,2|2,0:0|1:2,0:0:0:0:
503,59,178159,2,0,P|433:130|319:105,1,176.000005371094,2|2,1:2|1:2,0:0:0:0:
226,95,178537,1,2,1:2:0:0:
226,95,178663,2,0,L|238:210,1,88.000002685547,10|10,0:0|0:0,0:0:0:0:
255,374,178915,1,2,1:2:0:0:
369,305,179041,1,2,0:0:0:0:
9,272,179167,6,0,L|34:384,1,88.000002685547,6|0,1:2|0:0,0:0:0:0:
57,86,179420,1,2,1:2:0:0:
57,86,179546,1,2,1:2:0:0:
153,149,179671,6,0,B|238:134|220:194|304:180,1,160,14|0,0:0|0:0,0:0:0:0:
284,91,180050,5,2,1:2:0:0:
391,168,180176,1,10,0:0:0:0:
389,190,180302,1,2,0:0:0:0:
388,210,180428,1,2,1:2:0:0:
478,130,180554,2,0,P|454:77|397:65,1,120,2|0,0:0|0:0,0:0:0:0:
371,43,180806,5,2,1:2:0:0:
284,91,180932,1,2,1:2:0:0:
199,48,181058,1,2,0:0:0:0:
113,98,181184,2,0,L|70:104,2,40,10|2|2,0:0|0:0|0:0,0:0:0:0:
198,152,181436,5,2,1:2:0:0:
283,6,181562,1,2,1:2:0:0:
186,178,181688,6,0,B|198:241|198:241|216:262|216:262|227:329,1,160,10|0,0:0|0:0,0:0:0:0:
278,195,182066,5,2,1:2:0:0:
131,306,182193,2,0,P|94:289|55:282,2,80,10|2|2,0:0|0:0|1:2,0:0:0:0:
316,278,182571,2,0,P|358:237|362:179,1,120,2|0,0:0|0:0,0:0:0:0:
357,152,182823,5,2,1:2:0:0:
215,59,182949,1,2,1:2:0:0:
382,50,183075,1,2,0:0:0:0:
253,152,183201,5,10,0:0:0:0:
294,0,183327,1,2,0:0:0:0:
357,152,183453,1,2,1:2:0:0:
382,50,183579,1,2,1:2:0:0:
491,42,183705,6,0,L|458:198,1,160,10|0,0:0|0:0,0:0:0:0:
510,289,184083,5,2,1:2:0:0:
392,318,184209,1,10,0:0:0:0:
370,306,184335,1,2,0:0:0:0:
344,302,184461,1,2,1:2:0:0:
304,198,184587,2,0,B|236:202|263:239|195:240,1,120,2|0,0:0|0:0,0:0:0:0:
175,264,184840,5,2,1:2:0:0:
31,196,184966,1,2,1:2:0:0:
134,163,185092,1,2,0:0:0:0:
68,303,185218,2,0,L|45:356,2,40,10|2|2,0:0|0:0|0:0,0:0:0:0:
31,196,185470,5,2,1:2:0:0:
175,264,185596,1,2,1:2:0:0:
220,142,185722,6,0,P|176:78|99:77,1,160,10|0,0:0|0:0,0:0:0:0:
134,163,186100,5,2,1:2:0:0:
200,48,186226,2,0,P|237:36|273:50,2,80,10|2|2,0:0|0:0|1:2,0:0:0:0:
332,140,186604,2,0,P|379:104|375:33,1,120,2|0,0:0|0:0,0:0:0:0:
405,22,186856,1,2,1:2:0:0:
416,194,186982,1,2,1:2:0:0:
505,103,187108,1,2,0:0:0:0:
332,140,187235,5,14,0:0:0:0:
500,241,187361,1,2,0:0:0:0:
318,283,187487,1,2,1:2:0:0:
416,194,187613,1,2,1:2:0:0:
372,356,187739,6,0,P|314:311|229:333,1,160,14|0,0:0|0:0,0:0:0:0:
144,373,188117,1,2,1:2:0:0:
200,234,188243,1,10,0:0:0:0:
200,194,188369,1,2,0:0:0:0:
183,158,188495,1,2,1:2:0:0:
108,276,188621,2,0,P|105:222|70:152,1,120,2|0,0:0|0:0,0:0:0:0:
61,141,188873,5,2,1:2:0:0:
183,158,188999,1,2,1:2:0:0:
203,40,189125,1,2,0:0:0:0:
76,26,189251,5,10,0:0:0:0:
183,158,189377,1,2,0:0:0:0:
283,88,189503,1,2,1:2:0:0:
381,59,189629,1,2,1:2:0:0:
358,156,189756,6,0,B|411:179|411:179|385:282,1,160,10|0,0:0|0:0,0:0:0:0:
310,327,190134,1,2,1:2:0:0:
466,324,190260,2,0,P|500:342|508:379,2,80,10|2|2,0:0|0:0|1:2,0:0:0:0:
310,327,190638,2,0,P|253:313|226:262,1,120,2|0,0:0|0:0,0:0:0:0:
238,237,190890,5,2,1:2:0:0:
105,318,191016,1,2,1:2:0:0:
101,162,191142,1,2,0:0:0:0:
150,238,191268,5,10,0:0:0:0:
16,291,191394,1,2,0:0:0:0:
10,197,191520,1,2,1:2:0:0:
105,318,191646,1,2,1:2:0:0:
101,162,191772,6,0,P|137:102|232:108,1,160,10|0,0:0|0:0,0:0:0:0:
283,191,192150,5,2,1:2:0:0:
308,92,192277,1,10,0:0:0:0:
298,52,192403,1,2,0:0:0:0:
269,21,192529,1,2,1:2:0:0:
376,155,192655,2,0,P|427:147|450:80,1,120,2|0,0:0|0:0,0:0:0:0:
475,64,192907,5,2,1:2:0:0:
474,231,193033,1,2,1:2:0:0:
402,289,193159,1,2,0:0:0:0:
474,346,193285,5,10,0:0:0:0:
333,347,193411,1,2,0:0:0:0:
237,296,193537,1,2,1:2:0:0:
126,301,193663,1,2,1:2:0:0:
205,188,193789,6,0,P|280:187|331:250,1,160,10|0,0:0|0:0,0:0:0:0:
91,199,194167,5,2,1:2:0:0:
126,104,194293,2,0,P|159:83|198:87,2,80,10|2|2,0:0|0:0|1:2,0:0:0:0:
22,259,194671,2,0,P|-2:205|15:150,1,120,2|0,0:0|0:0,0:0:0:0:
31,127,194924,5,2,1:2:0:0:
126,104,195050,1,2,1:2:0:0:
184,182,195176,1,2,0:0:0:0:
273,125,195302,5,14,0:0:0:0:
251,14,195428,1,2,0:0:0:0:
362,55,195554,5,2,1:2:0:0:
336,204,195680,1,6,1:2:0:0:
