osu file format v14

[General]
AudioFilename: audio.mp3
AudioLeadIn: 0
PreviewTime: 82361
Countdown: 0
SampleSet: Soft
StackLeniency: 0.5
Mode: 0
LetterboxInBreaks: 0
EpilepsyWarning: 1
WidescreenStoryboard: 1

[Editor]
Bookmarks: 2192,18327,34461,50596,66730,82865,98999,115134,131268,147403,163537,179671,195680
DistanceSpacing: 1.8
BeatDivisor: 4
GridSize: 32
TimelineZoom: 2.899999

[Metadata]
Title:Nanimo nai Youna
TitleUnicode:何もない様な
Artist:MIMI
ArtistUnicode:MIMI
Creator:eiri-
Version:Easy
Source:osu!
Tags:Ayyri Trynna Hatsune Miku feat. 初音ミク Featured Artist FA Japanese Pop Vocaloid
BeatmapID:2417959
BeatmapSetID:1151466

[Difficulty]
HPDrainRate:3
CircleSize:2.5
OverallDifficulty:4
ApproachRate:5
SliderMultiplier:1
SliderTickRate:1

[Events]
//Background and Video events
0,0,"Miku 473.jpg",0,0
//Break Periods
//Storyboard Layer 0 (Background)
Sprite,Background,Centre,"miku 473.jpg",0,0 F,0,147140,,1 S,0,147140,,0.5555556 M,8,147140,147403,320,240,320.9414,238.9 M,8,147403,147466,320.9414,238.9,320.9202,238.7484 M,8,147466,147529,320.9201,238.7484,320.8989,238.5968 M,8,147529,147592,320.8988,238.5968,320.8775,238.4452 M,8,147592,147655,320.8775,238.4452,320.8562,238.2936 M,8,147655,147718,320.8562,238.2936,320.8349,238.142 M,8,147718,147781,320.8349,238.142,320.8137,237.9905 M,8,147781,147907,320.8137,237.9905,320.5269,237.7625 M,8,147907,147970,320.5269,237.7625,320.4408,237.7931 M,8,147970,148033,320.4408,237.7932,320.3547,237.8238 M,8,148033,148096,320.3547,237.8238,320.2686,237.8544 M,8,148096,148159,320.2686,237.8544,320.1825,237.8851 M,8,148159,148411,320.1825,237.8851,319.9087,238.9 M,8,148411,148663,319.9087,238.9,319.3115,238.4 M,8,148663,148915,319.3115,238.4,318.7494,239.025 M,8,148915,148978,318.7494,239.025,318.7392,239.1802 M,8,148978,149041,318.7392,239.1802,318.7289,239.3354 M,8,149041,149104,318.7289,239.3354,318.7186,239.4906 M,8,149104,149167,318.7186,239.4906,318.7084,239.6457 M,8,149167,149419,318.7084,239.6457,319.0796,240.65 M,8,149419,149482,319.0796,240.65,319.0694,240.8052 M,8,149482,149545,319.0694,240.8052,319.0591,240.9604 M,8,149545,149608,319.0591,240.9604,319.0488,241.1156 M,8,149608,149671,319.0488,241.1156,319.0386,241.2707 M,8,149671,149924,319.0386,241.2707,319.6417,241.8 M,8,149924,150428,319.6417,241.8,320.8361,241.05 M,8,150428,150680,320.8361,241.05,320.5059,240.025 M,8,150680,150932,320.5059,240.025,321.1031,239.5 M,8,150932,150995,321.1031,239.5,321.1891,239.5311 M,8,150995,151058,321.1891,239.5311,321.2752,239.5623 M,8,151058,151121,321.2752,239.5623,321.3612,239.5934 M,8,151121,151184,321.3612,239.5934,321.4473,239.6246 M,8,151184,151436,321.4473,239.6246,321.6159,238.475 M,8,151436,151499,321.6159,238.475,321.5304,238.4399 M,8,151499,151562,321.5303,238.4399,321.4448,238.4047 M,8,151562,151625,321.4448,238.4047,321.3592,238.3696 M,8,151625,151688,321.3592,238.3696,321.2736,238.3345 M,8,151688,151751,321.2736,238.3344,321.188,238.2993 M,8,151751,151814,321.188,238.2993,321.1025,238.2642 M,8,151814,151940,321.1025,238.2642,320.8993,237.85 M,8,151940,152003,320.8993,237.85,320.8137,237.8849 M,8,152003,152066,320.8137,237.8849,320.7281,237.9199 M,8,152066,152129,320.7281,237.9199,320.6425,237.9549 M,8,152129,152192,320.6425,237.9549,320.5569,237.9898 M,8,152192,152445,320.5569,237.9898,320.2529,238.9875 M,8,152445,152697,320.2529,238.9875,320.4918,240.0375 M,8,152697,152949,320.4918,240.0375,320.2248,241.0625 M,8,152949,153012,320.2248,241.0625,320.1375,241.078 M,8,153012,153075,320.1374,241.078,320.05,241.0936 M,8,153075,153138,320.05,241.0936,319.9626,241.1091 M,8,153138,153201,319.9626,241.1091,319.8753,241.1247 M,8,153201,153453,319.8753,241.1247,319.3044,241.7375 M,8,153453,153705,319.3044,241.7375,318.7845,241.0125 M,8,153705,153957,318.7845,241.0125,318.9602,239.875 M,8,153957,154461,318.9602,239.875,319.6206,237.9625 M,8,154461,154524,319.6206,237.9625,319.7072,237.9364 M,8,154524,154587,319.7072,237.9364,319.7938,237.9104 M,8,154587,154650,319.7938,237.9104,319.8804,237.8843 M,8,154650,154713,319.8804,237.8843,319.967,237.8582 M,8,154713,154966,319.967,237.8582,320.014,238.9875 M,8,154966,155029,320.014,238.9875,320.0213,239.1432 M,8,155029,155092,320.0213,239.1432,320.0286,239.2989 M,8,155092,155155,320.0286,239.299,320.0359,239.4547 M,8,155155,155218,320.0359,239.4547,320.0432,239.6103 M,8,155218,155470,320.0432,239.6103,319.6838,240.6125 M,8,155470,155533,319.6838,240.6125,319.746,240.7217 M,8,155533,155596,319.746,240.7218,319.8173,240.8111 M,8,155596,155659,319.8173,240.8111,319.8956,240.8789 M,8,155659,155722,319.8956,240.8789,319.9803,240.916 M,8,155722,155785,319.9803,240.916,320.067,240.9292 M,8,155785,155848,320.067,240.9292,320.1542,240.9146 M,8,155848,155974,320.1542,240.9146,320.4496,241.2125 M,8,155974,156226,320.4496,241.2125,321.082,241.3125 M,8,156226,156478,321.082,241.3125,321.5878,240.6375 M,8,156478,156541,321.5878,240.6375,321.5756,240.4828 M,8,156541,156604,321.5756,240.4828,321.5634,240.328 M,8,156604,156667,321.5634,240.328,321.5512,240.1733 M,8,156667,156730,321.5512,240.1732,321.539,240.0186 M,8,156730,156982,321.539,240.0186,321.0398,239.2375 M,8,156982,157045,321.0398,239.2375,321.0522,239.0828 M,8,157045,157108,321.0522,239.0828,321.0647,238.9281 M,8,157108,157171,321.0647,238.9281,321.0771,238.7734 M,8,157171,157234,321.0771,238.7734,321.089,238.625 M,8,157234,157487,321.089,238.625,320.6604,237.8 M,8,157487,157739,320.6604,237.8,320.0421,238.25 M,8,157739,157991,320.0421,238.25,319.4099,237.875 M,8,157991,158495,319.4099,237.875,319.6487,240.0875 M,8,158495,158558,319.6487,240.0875,319.6333,240.2413 M,8,158558,158621,319.6333,240.2413,319.6178,240.3951 M,8,158621,158684,319.6178,240.3952,319.6024,240.549 M,8,158684,158747,319.6024,240.549,319.5869,240.7028 M,8,158747,158999,319.5869,240.7028,319.0515,241.4125 M,8,158999,159062,319.0515,241.4125,318.9651,241.385 M,8,159062,159125,318.9651,241.385,318.8786,241.3576 M,8,159125,159188,318.8786,241.3576,318.7921,241.3301 M,8,159188,159251,318.7921,241.3301,318.7057,241.3026 M,8,159251,159503,318.7057,241.3026,318.3138,240.35 M,8,159503,159566,318.3138,240.35,318.3255,240.1951 M,8,159566,159629,318.3255,240.1951,318.3372,240.0403 M,8,159629,159692,318.3372,240.0402,318.3488,239.8854 M,8,159692,159755,318.3488,239.8854,318.3605,239.7305 M,8,159755,159818,318.3605,239.7305,318.3722,239.5756 M,8,159818,159881,318.3722,239.5756,318.3839,239.4208 M,8,159881,160008,318.3839,239.4208,318.2295,238.9 M,8,160008,160260,318.2295,238.9,318.8056,238.3 M,8,160260,160512,318.8056,238.3,319.4028,237.7625 M,8,160512,160575,319.4028,237.7625,319.4897,237.785 M,8,160575,160638,319.4897,237.785,319.5766,237.8075 M,8,160638,160701,319.5766,237.8075,319.6635,237.83 M,8,160701,160764,319.6635,237.83,319.7504,237.8525 M,8,160764,161016,319.7504,237.8525,320.1757,238.7 M,8,161016,161079,320.1757,238.7,320.2626,238.6783 M,8,161079,161142,320.2626,238.6783,320.3496,238.6567 M,8,161142,161205,320.3496,238.6567,320.4366,238.635 M,8,161205,161268,320.4366,238.635,320.5235,238.6133 M,8,161268,161520,320.5235,238.6133,321.1803,238.3875 M,8,161520,161772,321.1803,238.3875,321.2857,239.5625 M,8,161772,162024,321.2857,239.5625,320.6323,239.8 M,8,162024,162529,320.6323,239.8,319.5433,240.95 M,8,162529,162592,319.5433,240.95,319.5555,241.1047 M,8,162592,162655,319.5555,241.1048,319.5677,241.2595 M,8,162655,162718,319.5677,241.2595,319.5799,241.4142 M,8,162718,162781,319.5799,241.4143,319.592,241.569 M,8,162781,163033,319.592,241.569,318.9321,241.7375 M,8,163033,163096,318.9321,241.7375,318.9197,241.5828 M,8,163096,163159,318.9197,241.5828,318.9073,241.4281 M,8,163159,163222,318.9073,241.4281,318.8948,241.2734 M,8,163222,163285,318.8948,241.2734,318.8829,241.125 M,8,163285,163537,318.8829,241.125,318.7775,239.95 M,8,163537,163600,318.7775,239.95,318.8647,239.9306 M,8,163600,163663,318.8647,239.9306,318.9518,239.9112 M,8,163663,163726,318.9518,239.9112,319.039,239.8919 M,8,163726,163789,319.039,239.8918,319.1261,239.8725 M,8,163789,163852,319.1261,239.8725,319.2133,239.8531 M,8,163852,163915,319.2133,239.8531,319.3004,239.8337 M,8,163915,164041,319.3004,239.8337,319.5504,239.4875 M,8,164041,164104,319.5504,239.4875,319.6365,239.5181 M,8,164104,164167,319.6365,239.5181,319.7226,239.5488 M,8,164167,164230,319.7226,239.5488,319.8087,239.5794 M,8,164230,164293,319.8087,239.5794,319.8948,239.6101 M,8,164293,164545,319.8948,239.6101,320.5199,239.8125 M,8,164545,164798,320.5199,239.8125,320.6604,238.725 M,8,164798,165050,320.6604,238.725,321.2225,239.275 M,8,165050,165113,321.2225,239.275,321.2332,239.4301 M,8,165113,165176,321.2332,239.4301,321.2439,239.5852 M,8,165176,165239,321.2439,239.5852,321.2546,239.7403 M,8,165239,165302,321.2546,239.7403,321.2653,239.8953 M,8,165302,165554,321.2653,239.8953,321.3419,241.025 M,8,165554,165806,321.3419,241.025,320.815,241.75 M,8,165806,166058,320.815,241.75,320.3653,240.875 M,8,166058,166562,320.3653,240.875,319.192,241.7125 M,8,166562,166625,319.192,241.7125,319.105,241.6911 M,8,166625,166688,319.105,241.6911,319.018,241.6698 M,8,166688,166751,319.018,241.6698,318.931,241.6485 M,8,166751,166814,318.931,241.6484,318.8441,241.6271 M,8,166814,167066,318.8441,241.6271,318.9321,240.45 M,8,167066,167129,318.9321,240.45,319.019,240.4717 M,8,167129,167192,319.0191,240.4717,319.106,240.4933 M,8,167192,167255,319.106,240.4933,319.193,240.515 M,8,167255,167318,319.193,240.515,319.28,240.5367 M,8,167318,167571,319.28,240.5367,319.7682,239.725 M,8,167571,167634,319.7682,239.725,319.7587,239.5697 M,8,167634,167697,319.7587,239.5696,319.7493,239.4143 M,8,167697,167760,319.7493,239.4143,319.7398,239.2589 M,8,167760,167823,319.7398,239.2589,319.7304,239.1036 M,8,167823,167886,319.7304,239.1036,319.7209,238.9482 M,8,167886,167949,319.7209,238.9482,319.7119,238.8 M,8,167949,168075,319.7119,238.8,319.4941,238.3875 M,8,168075,168138,319.4941,238.3875,319.509,238.2335 M,8,168138,168201,319.509,238.2335,319.5239,238.0795 M,8,168201,168264,319.5239,238.0795,319.5388,237.9255 M,8,168264,168327,319.5388,237.9255,319.5536,237.7715 M,8,168327,168579,319.5536,237.7715,320.1897,237.725 M,8,168579,168831,320.1897,237.725,320.4848,238.8 M,8,168831,169083,320.4848,238.8,321.1452,238.575 M,8,169083,169146,321.1452,238.575,321.1578,238.7296 M,8,169146,169209,321.1578,238.7296,321.1704,238.8843 M,8,169209,169272,321.1704,238.8843,321.183,239.0389 M,8,169272,169335,321.183,239.0389,321.1956,239.1935 M,8,169335,169587,321.1956,239.1935,321.2857,240.375 M,8,169587,169650,321.2857,240.375,321.1986,240.3553 M,8,169650,169713,321.1986,240.3553,321.1115,240.3356 M,8,169713,169776,321.1115,240.3356,321.0243,240.3159 M,8,169776,169839,321.0243,240.3159,320.9372,240.2963 M,8,169839,170092,320.9372,240.2963,320.2881,240.0875 M,8,170092,170596,320.2881,240.0875,319.2131,241.2875 M,8,170596,170848,319.2131,241.2875,318.8689,240.2875 M,8,170848,171100,318.8689,240.2875,319.2202,239.2875 M,8,171100,171163,319.2202,239.2875,319.2132,239.1317 M,8,171163,171226,319.2132,239.1317,319.2062,238.976 M,8,171226,171289,319.2062,238.976,319.1993,238.8202 M,8,171289,171352,319.1993,238.8202,319.1924,238.6645 M,8,171352,171604,319.1924,238.6645,319.6768,237.85 M,8,171604,171667,319.6768,237.85,319.7639,237.8696 M,8,171667,171730,319.7639,237.8696,319.8511,237.8892 M,8,171730,171793,319.8511,237.8892,319.9382,237.9088 M,8,171793,171856,319.9382,237.9088,320.0254,237.9283 M,8,171856,171919,320.0254,237.9283,320.1125,237.9479 M,8,171919,171982,320.1125,237.9479,320.1996,237.9675 M,8,171982,172108,320.1996,237.9675,320.4848,237.725 M,8,172108,172171,320.4848,237.725,320.5093,237.875 M,8,172171,172234,320.5093,237.875,320.5338,238.0251 M,8,172234,172297,320.5338,238.0251,320.5584,238.1751 M,8,172297,172360,320.5584,238.1751,320.5829,238.3251 M,8,172360,172613,320.5829,238.3251,320.7307,239.425 M,8,172613,172865,320.7307,239.425,320.0773,239.1875 M,8,172865,173117,320.0773,239.1875,319.8173,240.2875 M,8,173117,173180,319.8173,240.2875,319.731,240.316 M,8,173180,173243,319.731,240.316,319.6446,240.3446 M,8,173243,173306,319.6446,240.3446,319.5583,240.3731 M,8,173306,173369,319.5583,240.3731,319.472,240.4016 M,8,173369,173621,319.472,240.4016,318.9532,239.7875 M,8,173621,173684,318.9532,239.7875,318.8668,239.759 M,8,173684,173747,318.8668,239.759,318.7805,239.7304 M,8,173747,173810,318.7805,239.7304,318.6941,239.7019 M,8,173810,173873,318.6941,239.7019,318.6078,239.6734 M,8,173873,174125,318.6078,239.6734,318.2365,240.575 M,8,174125,174629,318.2365,240.575,319.2553,241.925 M,8,174629,174882,319.2553,241.925,319.8595,241.425 M,8,174882,175134,319.8595,241.425,320.4567,241.975 M,8,175134,175197,320.4567,241.975,320.5435,241.9511 M,8,175197,175260,320.5435,241.9511,320.6302,241.9272 M,8,175260,175323,320.6303,241.9272,320.717,241.9032 M,8,175323,175386,320.7171,241.9032,320.8038,241.8793 M,8,175386,175638,320.8038,241.8793,320.7798,240.7 M,8,175638,175701,320.7798,240.7,320.6929,240.7215 M,8,175701,175764,320.6929,240.7216,320.6059,240.7431 M,8,175764,175827,320.6059,240.7431,320.5189,240.7646 M,8,175827,175890,320.5189,240.7646,320.4319,240.7862 M,8,175890,175953,320.4319,240.7862,320.3449,240.8078 M,8,175953,176016,320.3449,240.8078,320.258,240.8293 M,8,176016,176142,320.258,240.8293,320.0211,240.425 M,8,176142,176394,320.0211,240.425,319.4169,240.925 M,8,176394,176646,319.4169,240.925,318.9672,240.15 M,8,176646,176709,318.9672,240.15,318.9787,239.9951 M,8,176709,176772,318.9787,239.9951,318.9902,239.8402 M,8,176772,176835,318.9902,239.8402,319.0017,239.6853 M,8,176835,176898,319.0017,239.6852,319.0132,239.5304 M,8,176898,177150,319.0132,239.5304,319.5363,238.7875 M,8,177150,177213,319.5363,238.7875,319.5248,238.6326 M,8,177213,177276,319.5248,238.6326,319.5133,238.4777 M,8,177276,177339,319.5133,238.4777,319.5018,238.3228 M,8,177339,177402,319.5018,238.3227,319.4903,238.1679 M,8,177402,177655,319.4903,238.1679,318.8829,237.675 M,8,177655,177907,318.8829,237.675,318.2787,238.175 M,8,177907,178159,318.2787,238.175,318.5105,239.225 M,8,178159,178663,318.5105,239.225,319.0445,241.275 M,8,178663,178726,319.0445,241.275,319.027,241.4281 M,8,178726,178789,319.027,241.4281,319.0094,241.5812 M,8,178789,178852,319.0094,241.5812,318.9919,241.7343 M,8,178852,178915,318.9919,241.7344,318.9744,241.8874 M,8,178915,179167,318.9744,241.8874,319.6206,242.15 M,8,179167,179230,319.6206,242.15,319.6382,241.9969 M,8,179230,179293,319.6382,241.9969,319.6557,241.8438 M,8,179293,179356,319.6557,241.8438,319.6732,241.6907 M,8,179356,179419,319.6732,241.6906,319.6907,241.5376 F,0,179461,179661,1,0
Sprite,Background,Centre,"miku 473.jpg",0,0 F,0,82603,,1 S,0,82603,,0.5555556 M,8,82603,82865,320,240,321.1101,238.7375 M,8,82865,82928,321.1101,238.7375,321.121,238.8925 M,8,82928,82991,321.121,238.8925,321.1319,239.0476 M,8,82991,83054,321.1319,239.0476,321.1428,239.2026 M,8,83054,83117,321.1428,239.2026,321.1537,239.3577 M,8,83117,83180,321.1537,239.3577,321.1645,239.5127 M,8,83180,83243,321.1645,239.5127,321.1754,239.6678 M,8,83243,83369,321.1754,239.6678,321.0609,240.2 M,8,83369,83432,321.0609,240.2,321.071,240.3552 M,8,83432,83495,321.071,240.3552,321.0811,240.5104 M,8,83495,83558,321.0811,240.5104,321.0912,240.6656 M,8,83558,83621,321.0912,240.6656,321.1013,240.8208 M,8,83621,83873,321.1013,240.8208,320.829,241.8375 M,8,83873,84125,320.829,241.8375,320.2037,241.775 M,8,84125,84377,320.2037,241.775,319.5785,241.6375 M,8,84377,84440,319.5785,241.6375,319.4919,241.6636 M,8,84440,84503,319.4919,241.6636,319.4053,241.6896 M,8,84503,84566,319.4053,241.6896,319.3187,241.7157 M,8,84566,84629,319.3187,241.7157,319.2321,241.7418 M,8,84629,84882,319.2321,241.7418,318.644,241.35 M,8,84882,85134,318.644,241.35,318.9461,240.3625 M,8,85134,85386,318.9461,240.3625,318.5527,239.5 M,8,85386,85890,318.5527,239.5,319.2693,237.6375 M,8,85890,85953,319.2693,237.6375,319.357,237.6463 M,8,85953,86016,319.357,237.6463,319.4447,237.6552 M,8,86016,86079,319.4447,237.6552,319.5323,237.664 M,8,86079,86142,319.5323,237.664,319.6201,237.6728 M,8,86142,86394,319.6201,237.6728,319.6136,238.8 M,8,86394,86457,319.6136,238.8,319.6083,238.956 M,8,86457,86520,319.6083,238.956,319.6031,239.1119 M,8,86520,86583,319.6031,239.1119,319.5978,239.2679 M,8,86583,86646,319.5978,239.2679,319.5925,239.4239 M,8,86646,86898,319.5925,239.4239,320.2248,239.5625 M,8,86898,86961,320.2248,239.5625,320.2343,239.4072 M,8,86961,87024,320.2343,239.4072,320.2437,239.2518 M,8,87024,87087,320.2437,239.2518,320.2531,239.0965 M,8,87087,87150,320.2531,239.0965,320.2626,238.9411 M,8,87150,87213,320.2626,238.9411,320.272,238.7858 M,8,87213,87276,320.272,238.7858,320.281,238.6375 M,8,87276,87403,320.281,238.6375,320.4848,238.2 M,8,87403,87466,320.4848,238.2,320.572,238.2185 M,8,87466,87529,320.572,238.2185,320.6592,238.237 M,8,87529,87592,320.6592,238.237,320.7464,238.2556 M,8,87592,87655,320.7464,238.2556,320.8336,238.2741 M,8,87655,87907,320.8336,238.2741,321.4614,238.4125 M,8,87907,88159,321.4614,238.4125,321.644,239.5 M,8,88159,88411,321.644,239.5,321.2787,240.4125 M,8,88411,88474,321.2787,240.4125,321.2913,240.5671 M,8,88474,88537,321.2913,240.5671,321.3039,240.7218 M,8,88537,88600,321.3039,240.7218,321.3165,240.8764 M,8,88600,88663,321.3165,240.8764,321.3291,241.031 M,8,88663,88915,321.3291,241.031,320.7096,241.225 M,8,88915,88978,320.7096,241.225,320.6972,241.0703 M,8,88978,89041,320.6972,241.0703,320.6848,240.9156 M,8,89041,89104,320.6848,240.9156,320.6723,240.761 M,8,89104,89167,320.6723,240.761,320.6604,240.6125 M,8,89167,89419,320.6604,240.6125,320.1546,239.9375 M,8,89419,89924,320.1546,239.9375,319.0937,241.1625 M,8,89924,90176,319.0937,241.1625,318.4824,240.8875 M,8,90176,90428,318.4824,240.8875,318.6792,239.825 M,8,90428,90491,318.6792,239.825,318.6631,239.6714 M,8,90491,90554,318.6631,239.6714,318.647,239.5178 M,8,90554,90617,318.647,239.5178,318.6309,239.3642 M,8,90617,90680,318.6309,239.3642,318.6148,239.2106 M,8,90680,90932,318.6148,239.2106,319.0796,238.45 M,8,90932,90995,319.0796,238.45,319.1674,238.4549 M,8,90995,91058,319.1674,238.4549,319.2552,238.4598 M,8,91058,91121,319.2552,238.4598,319.343,238.4646 M,8,91121,91184,319.343,238.4646,319.4307,238.4695 M,8,91184,91247,319.4307,238.4695,319.5185,238.4744 M,8,91247,91310,319.5185,238.4744,319.6063,238.4793 M,8,91310,91436,319.6063,238.4793,319.9016,238.2625 M,8,91436,91499,319.9016,238.2625,319.9392,238.4038 M,8,91499,91562,319.9392,238.4038,319.9767,238.545 M,8,91562,91625,319.9767,238.545,320.0143,238.6863 M,8,91625,91688,320.0142,238.6863,320.0518,238.8275 M,8,91688,91940,320.0518,238.8275,320.3162,239.8625 M,8,91940,92193,320.3162,239.8625,319.7963,240.5125 M,8,92193,92445,319.7963,240.5125,320.1686,241.4375 M,8,92445,92508,320.1686,241.4375,320.255,241.466 M,8,92508,92571,320.255,241.466,320.3413,241.4946 M,8,92571,92634,320.3413,241.4946,320.4276,241.5231 M,8,92634,92697,320.4276,241.5231,320.514,241.5516 M,8,92697,92949,320.514,241.5516,321.089,241.0625 M,8,92949,93012,321.089,241.0625,321.1062,240.9093 M,8,93012,93075,321.1062,240.9093,321.1234,240.7561 M,8,93075,93138,321.1234,240.7561,321.1407,240.6029 M,8,93138,93201,321.1407,240.6029,321.1579,240.4496 M,8,93201,93453,321.1579,240.4496,320.8712,239.4625 M,8,93453,93957,320.8712,239.4625,320.0211,237.8125 M,8,93957,94209,320.0211,237.8125,319.4169,238.1125 M,8,94209,94461,319.4169,238.1125,318.8408,237.6875 M,8,94461,94524,318.8408,237.6875,318.7542,237.7136 M,8,94524,94587,318.7542,237.7136,318.6676,237.7397 M,8,94587,94650,318.6676,237.7397,318.581,237.7658 M,8,94650,94713,318.581,237.7658,318.4944,237.7919 M,8,94713,94966,318.4944,237.7919,318.5878,238.9125 M,8,94966,95029,318.5878,238.9125,318.5999,239.0673 M,8,95029,95092,318.5999,239.0672,318.612,239.222 M,8,95092,95155,318.612,239.222,318.6241,239.3768 M,8,95155,95218,318.6241,239.3768,318.6363,239.5315 M,8,95218,95281,318.6363,239.5315,318.6484,239.6863 M,8,95281,95344,318.6484,239.6863,318.6605,239.841 M,8,95344,95470,318.6605,239.841,318.5457,240.3625 M,8,95470,95722,318.5457,240.3625,318.6581,241.475 M,8,95722,95974,318.6581,241.475,319.171,240.8125 M,8,95974,96037,319.171,240.8125,319.258,240.792 M,8,96037,96100,319.258,240.792,319.3451,240.7716 M,8,96100,96163,319.3451,240.7716,319.4322,240.7511 M,8,96163,96226,319.4322,240.7511,319.5192,240.7307 M,8,96226,96478,319.5192,240.7307,320.0351,241.3875 M,8,96478,96541,320.0351,241.3875,320.1223,241.3689 M,8,96541,96604,320.1223,241.3689,320.2095,241.3503 M,8,96604,96667,320.2095,241.3503,320.2967,241.3316 M,8,96667,96730,320.2967,241.3316,320.3839,241.313 M,8,96730,96982,320.3839,241.313,320.9555,241.7875 M,8,96982,97235,320.9555,241.7875 M,8,97235,97487,320.9555,241.7875,321.4684,241.125 M,8,97487,97991,321.4684,241.125,320.6393,239.4375 M,8,97991,98054,320.6393,239.4375,320.6569,239.2844 M,8,98054,98117,320.6569,239.2844,320.6744,239.1313 M,8,98117,98180,320.6744,239.1313,320.6919,238.9782 M,8,98180,98243,320.6919,238.9782,320.7095,238.8251 M,8,98243,98495,320.7095,238.8251,320.0913,238.6125 M,8,98495,98558,320.0913,238.6125,320.0755,238.7662 M,8,98558,98621,320.0755,238.7662,320.0596,238.9199 M,8,98621,98684,320.0596,238.9198,320.0437,239.0735 M,8,98684,98747,320.0437,239.0735,320.0281,239.225 M,8,98747,98999,320.0281,239.225,319.9016,240.3375 M,8,98999,99062,319.9016,240.3375,319.8145,240.3569 M,8,99062,99125,319.8145,240.3569,319.7274,240.3763 M,8,99125,99188,319.7274,240.3763,319.6402,240.3956 M,8,99188,99251,319.6402,240.3956,319.5531,240.415 M,8,99251,99314,319.5531,240.415,319.4659,240.4344 M,8,99314,99377,319.4659,240.4344,319.3788,240.4538 M,8,99377,99503,319.3788,240.4538,319.0866,240.225 M,8,99503,99566,319.0866,240.225,319.0963,240.0697 M,8,99566,99629,319.0963,240.0697,319.106,239.9144 M,8,99629,99692,319.106,239.9144,319.1158,239.7591 M,8,99692,99755,319.1158,239.7591,319.1255,239.6038 M,8,99755,100008,319.1255,239.6038,319.2131,238.5 M,8,100008,100260,319.2131,238.5,318.7354,237.7875 M,8,100260,100512,318.7354,237.7875,318.3138,238.6375 M,8,100512,100575,318.3138,238.6375,318.3245,238.7926 M,8,100575,100638,318.3245,238.7926,318.3352,238.9477 M,8,100638,100701,318.3352,238.9477,318.3459,239.1028 M,8,100701,100764,318.3459,239.1027,318.3566,239.2578 M,8,100764,101016,318.3566,239.2578,318.4333,240.3875 M,8,101016,101268,318.4333,240.3875,319.0866,240.225 M,8,101268,101520,319.0866,240.225,319.192,241.3375 M,8,101520,102024,319.192,241.3375,320.3653,240.4875 M,8,102024,102087,320.3653,240.4875,320.4523,240.5089 M,8,102087,102150,320.4523,240.5089,320.5393,240.5302 M,8,102150,102213,320.5393,240.5302,320.6263,240.5515 M,8,102213,102276,320.6263,240.5515,320.7133,240.5729 M,8,102276,102529,320.7133,240.5729,320.7869,239.4625 M,8,102529,102592,320.7869,239.4625,320.6999,239.4411 M,8,102592,102655,320.6999,239.4411,320.6129,239.4198 M,8,102655,102718,320.6129,239.4198,320.5259,239.3985 M,8,102718,102781,320.5259,239.3985,320.4389,239.3771 M,8,102781,103033,320.4389,239.3771,319.8243,239.2 M,8,103033,103096,319.8243,239.2,319.8149,239.0447 M,8,103096,103159,319.8149,239.0447,319.8055,238.8893 M,8,103159,103222,319.8055,238.8893,319.7961,238.734 M,8,103222,103285,319.7961,238.734,319.7866,238.5786 M,8,103285,103348,319.7866,238.5786,319.7772,238.4233 M,8,103348,103411,319.7772,238.4233,319.7682,238.275 M,8,103411,103537,319.7682,238.275,319.5644,237.85 M,8,103537,103600,319.5644,237.85,319.4842,237.9137 M,8,103600,103663,319.4842,237.9137,319.404,237.9773 M,8,103663,103726,319.404,237.9773,319.3238,238.041 M,8,103726,103789,319.3238,238.041,319.2436,238.1046 M,8,103789,104041,319.2436,238.1046,318.6581,238.575 M,8,104041,104293,318.6581,238.575,318.8478,239.65 M,8,104293,104545,318.8478,239.65,318.5738,240.6625 M,8,104545,104608,318.5738,240.6625,318.5864,240.8171 M,8,104608,104671,318.5864,240.8171,318.599,240.9718 M,8,104671,104734,318.599,240.9718,318.6116,241.1264 M,8,104734,104797,318.6116,241.1264,318.6241,241.281 M,8,104797,105050,318.6241,241.281,319.2482,241.475 M,8,105050,105113,319.2482,241.475,319.2358,241.3203 M,8,105113,105176,319.2358,241.3203,319.2234,241.1656 M,8,105176,105239,319.2234,241.1656,319.211,241.011 M,8,105239,105302,319.211,241.011,319.1991,240.8625 M,8,105302,105554,319.1991,240.8625,319.6628,240.0875 M,8,105554,106058,319.6628,240.0875,320.8361,240.9 M,8,106058,106310,320.8361,240.9,321.3349,240.2125 M,8,106310,106562,321.3349,240.2125,320.9836,239.2875 M,8,106562,106625,320.9836,239.2875,320.9905,239.1317 M,8,106625,106688,320.9905,239.1317,320.9975,238.976 M,8,106688,106751,320.9975,238.976,321.0045,238.8202 M,8,106751,106814,321.0045,238.8202,321.0114,238.6645 M,8,106814,107066,321.0114,238.6645,320.4637,238.1125 M,8,107066,107129,320.4637,238.1125,320.3766,238.1321 M,8,107129,107192,320.3766,238.1321,320.2894,238.1517 M,8,107192,107255,320.2895,238.1517,320.2023,238.1712 M,8,107255,107318,320.2023,238.1712,320.1152,238.1908 M,8,107318,107381,320.1152,238.1908,320.0281,238.2104 M,8,107381,107444,320.0281,238.2104,319.9409,238.23 M,8,107444,107571,319.9409,238.23,319.6417,238.05 M,8,107571,107634,319.6417,238.05,319.6229,238.2026 M,8,107634,107697,319.6229,238.2026,319.6042,238.3553 M,8,107697,107760,319.6042,238.3553,319.5854,238.5079 M,8,107760,107823,319.5854,238.5079,319.5666,238.6606 M,8,107823,108075,319.5666,238.6606,319.445,239.7625 M,8,108075,108327,319.445,239.7625,319.0023,240.575 M,8,108327,108579,319.0023,240.575,319.3326,241.55 M,8,108579,108642,319.3326,241.55,319.4189,241.5785 M,8,108642,108705,319.4189,241.5785,319.5052,241.6071 M,8,108705,108768,319.5052,241.6071,319.5916,241.6356 M,8,108768,108831,319.5916,241.6356,319.6779,241.6641 M,8,108831,109083,319.6779,241.6641,320.2037,241.0375 M,8,109083,109146,320.2037,241.0375,320.2901,241.009 M,8,109146,109209,320.2901,241.009,320.3764,240.9804 M,8,109209,109272,320.3764,240.9804,320.4628,240.9519 M,8,109272,109335,320.4628,240.9519,320.5491,240.9234 M,8,109335,109587,320.5491,240.9234,321.1663,240.675 M,8,109587,110092,321.1663,240.675,320.5972,238.6625 M,8,110092,110344,320.5972,238.6625,320.1194,239.5 M,8,110344,110596,320.1194,239.5,319.5222,239 M,8,110596,110659,319.5222,239,319.4357,239.0261 M,8,110659,110722,319.4357,239.0261,319.3491,239.0522 M,8,110722,110785,319.3491,239.0522,319.2625,239.0783 M,8,110785,110848,319.2625,239.0783,319.1759,239.1044 M,8,110848,111100,319.1759,239.1044,319.1991,240.275 M,8,111100,111163,319.1991,240.275,319.286,240.2966 M,8,111163,111226,319.286,240.2966,319.373,240.3181 M,8,111226,111289,319.373,240.3181,319.46,240.3396 M,8,111289,111352,319.46,240.3396,319.547,240.3612 M,8,111352,111415,319.547,240.3612,319.634,240.3827 M,8,111415,111478,319.634,240.3827,319.7209,240.4043 M,8,111478,111604,319.7209,240.4043,320.014,240.2 M,8,111604,111856,320.014,240.2,320.534,240.8625 M,8,111856,112108,320.534,240.8625,320.9766,240.0625 M,8,112108,112171,320.9766,240.0625,321.0637,240.042 M,8,112171,112234,321.0636,240.042,321.1507,240.0216 M,8,112234,112297,321.1507,240.0216,321.2378,240.0011 M,8,112297,112360,321.2378,240.0011,321.3249,239.9807 M,8,112360,112613,321.3249,239.9807,321.5808,241.0125 M,8,112613,112676,321.5808,241.0125,321.4936,241.0311 M,8,112676,112739,321.4936,241.0311,321.4064,241.0497 M,8,112739,112802,321.4064,241.0497,321.3192,241.0683 M,8,112802,112865,321.3192,241.0683,321.232,241.087 M,8,112865,113117,321.232,241.087,320.7798,241.875 M,8,113117,113369,320.7798,241.875 M,8,113369,113621,320.7798,241.875,320.2459,241.2875 M,8,113621,114125,320.2459,241.2875,320.534,239.1 M,8,114125,114188,320.534,239.1,320.5164,238.9469 M,8,114188,114251,320.5164,238.9469,320.4989,238.7938 M,8,114251,114314,320.4989,238.7938,320.4814,238.6407 M,8,114314,114377,320.4814,238.6407,320.4638,238.4876 M,8,114377,114629,320.4638,238.4876,319.8454,238.725 M,8,114629,114692,319.8454,238.725,319.8613,238.8787 M,8,114692,114755,319.8613,238.8787,319.8772,239.0323 M,8,114755,114818,319.8772,239.0323,319.893,239.186 M,8,114818,114881,319.893,239.186,319.9087,239.3375 F,0,114924,115124,1,0
//Storyboard Layer 1 (Fail)
//Storyboard Layer 2 (Pass)
//Storyboard Layer 3 (Foreground)
Sprite,Foreground,Centre,"sb\glow.png",0,0 C,0,139335,,249,153,199 M,0,139335,139398,251,344,239.6754,338.7203 F,2,139335,140591,1,0 S,2,139335,140591,0.7 P,0,139335,140591,A M,0,139398,139461,239.6754,338.7203,228.1685,333.8448 M,0,139461,139524,228.1685,333.8448,216.3534,329.7798 M,0,139524,139587,216.3534,329.7798,204.3981,326.1414 M,0,139587,139650,204.3981,326.1414,192.2224,323.3358 M,0,139650,139713,192.2224,323.3358,179.9512,320.9745 M,0,139713,139776,179.9512,320.9745,192.2224,323.3358 M,0,139776,139839,192.2224,323.3358,204.3981,326.1414 M,0,139839,139902,204.3981,326.1414,216.3534,329.7798 M,0,139902,139965,216.3534,329.7798,228.1685,333.8448 M,0,139965,140028,228.1685,333.8448,239.6754,338.7203 M,0,140028,140091,239.6754,338.7203,251,344
Sprite,Foreground,Centre,"sb\glow.png",319,402 C,0,140344,,249,153,199 F,2,140344,140844,1,0 S,2,140344,140844,0.7 P,0,140344,140844,A
Sprite,Foreground,Centre,"sb\glow.png",496,371 C,0,140848,,249,153,199 F,2,140848,141348,1,0 S,2,140848,141348,0.7 P,0,140848,141348,A
Sprite,Foreground,Centre,"sb\glow.png",450,293 C,0,141100,,249,153,199 F,2,141100,141600,1,0 S,2,141100,141600,0.7 P,0,141100,141600,A
Sprite,Foreground,Centre,"sb\glow.png",0,0 C,0,141352,,148,139,248 M,0,141352,141415,506,222,507.3317,209.5711 F,2,141352,142608,1,0 S,2,141352,142608,0.7 P,0,141352,142608,A M,0,141415,141478,507.3317,209.5711,508.6633,197.1423 M,0,141478,141541,508.6633,197.1423,509.995,184.7134 M,0,141541,141604,509.995,184.7134,511.3267,172.2845 M,0,141604,141667,511.3267,172.2845,512.6583,159.8557 M,0,141667,141730,512.6583,159.8557,513.99,147.4268 M,0,141730,141793,513.99,147.4268,512.6583,159.8557 M,0,141793,141856,512.6583,159.8557,511.3267,172.2845 M,0,141856,141919,511.3267,172.2845,509.995,184.7134 M,0,141919,141982,509.995,184.7134,508.6633,197.1423 M,0,141982,142045,508.6633,197.1423,507.3317,209.5711 M,0,142045,142108,507.3317,209.5711,506,222
Sprite,Foreground,Centre,"sb\glow.png",552,300 C,0,142361,,148,139,248 F,2,142361,142861,1,0 S,2,142361,142861,0.7 P,0,142361,142861,A
Sprite,Foreground,Centre,"sb\glow.png",403,199 C,0,142865,,148,139,248 F,2,142865,143365,1,0 S,2,142865,143365,0.7 P,0,142865,143365,A
Sprite,Foreground,Centre,"sb\glow.png",322,238 C,0,143117,,148,139,248 F,2,143117,143617,1,0 S,2,143117,143617,0.7 P,0,143117,143617,A
Sprite,Foreground,Centre,"sb\glow.png",0,0 C,0,143369,,243,124,128 M,0,143369,143432,254,178,253.3066,165.5192 F,2,143369,144625,1,0 S,2,143369,144625,0.7 P,0,143369,144625,A M,0,143432,143495,253.3066,165.5192,252.6133,153.0385 M,0,143495,143558,252.6133,153.0385,251.9199,140.5577 M,0,143558,143621,251.9199,140.5577,251.2265,128.077 M,0,143621,143684,251.2265,128.077,250.5331,115.5962 M,0,143684,143747,250.5331,115.5962,249.8398,103.1155 M,0,143747,143810,249.8398,103.1155,250.5331,115.5962 M,0,143810,143873,250.5331,115.5962,251.2265,128.077 M,0,143873,143936,251.2265,128.077,251.9199,140.5577 M,0,143936,143999,251.9199,140.5577,252.6133,153.0385 M,0,143999,144062,252.6133,153.0385,253.3066,165.5192 M,0,144062,144125,253.3066,165.5192,254,178
Sprite,Foreground,Centre,"sb\glow.png",173,217 C,0,144377,,243,124,128 F,2,144377,144877,1,0 S,2,144377,144877,0.7 P,0,144377,144877,A
Sprite,Foreground,Centre,"sb\glow.png",0,0 C,0,144882,,243,124,128 M,0,144882,144945,208,393,220.1892,395.7703 F,2,144882,145634,1,0 S,2,144882,145634,0.7 P,0,144882,145634,A M,0,144945,145008,220.1892,395.7703,232.3783,398.5405 M,0,145008,145071,232.3783,398.5405,244.5675,401.3108 M,0,145071,145134,244.5675,401.3108,256.7567,404.0811
Sprite,Foreground,Centre,"sb\glow.png",335,360 C,0,145386,,201,137,243 F,2,145386,145886,1,0 S,2,145386,145886,0.7 P,0,145386,145886,A
Sprite,Foreground,Centre,"sb\glow.png",510,320 C,0,145890,,201,137,243 F,2,145890,146390,1,0 S,2,145890,146390,0.7 P,0,145890,146390,A
Sprite,Foreground,Centre,"sb\glow.png",470,145 C,0,146394,,201,137,243 F,2,146394,146894,1,0 S,2,146394,146894,0.7 P,0,146394,146894,A
Sprite,Foreground,Centre,"sb\glow.png",218,384 C,0,74798,,249,153,199 F,2,74798,75298,1,0 S,2,74798,75298,0.7 P,0,74798,75298,A
Sprite,Foreground,Centre,"sb\glow.png",422,384 C,0,75806,,249,153,199 F,2,75806,76306,1,0 S,2,75806,76306,0.7 P,0,75806,76306,A
Sprite,Foreground,Centre,"sb\glow.png",422,112 C,0,76814,,249,153,199 F,2,76814,77314,1,0 S,2,76814,77314,0.7 P,0,76814,77314,A
Sprite,Foreground,Centre,"sb\glow.png",218,112 C,0,77823,,249,153,199 F,2,77823,78323,1,0 S,2,77823,78323,0.7 P,0,77823,78323,A
Sprite,Foreground,Centre,"sb\glow.png",218,384 C,0,78831,,148,139,248 F,2,78831,79331,1,0 S,2,78831,79331,0.7 P,0,78831,79331,A
Sprite,Foreground,Centre,"sb\glow.png",422,384 C,0,79840,,148,139,248 F,2,79840,80340,1,0 S,2,79840,80340,0.7 P,0,79840,80340,A
Sprite,Foreground,Centre,"sb\glow.png",0,0 C,0,80848,,243,124,128 M,0,80848,80911,320,88,320,100.5 F,2,80848,82608,1,0 S,2,80848,82608,0.7 P,0,80848,82608,A M,0,80911,80974,320,100.5,320,113 M,0,80974,81037,320,113,320,125.5 M,0,81037,81100,320,125.5,320,138 M,0,81100,81163,320,138,320,150.5 M,0,81163,81226,320,150.5,320,163 M,0,81226,81289,320,163,320,175.5 M,0,81289,81352,320,175.5,320,188 M,0,81352,81415,320,188,320,200.5 M,0,81415,81478,320,200.5,320,213 M,0,81478,81541,320,213,320,225.5 M,0,81541,81604,320,225.5,320,238 M,0,81604,81667,320,238,320,250.5 M,0,81667,81730,320,250.5,320,263 M,0,81730,81793,320,263,320,275.5 M,0,81793,81856,320,275.5,320,288 M,0,81856,81919,320,288,320,300.5 M,0,81919,81982,320,300.5,320,313 M,0,81982,82045,320,313,320,325.5 M,0,82045,82108,320,325.5,320,338
//Storyboard Layer 4 (Overlay)
//Storyboard Sound Samples

[TimingPoints]
2193,504.201680672269,4,2,1,50,1,0
18327,-100,4,2,1,80,0,0
34461,-100,4,2,1,60,0,0
50596,-100,4,2,1,80,0,0
58663,-100,4,2,1,60,0,0
66730,-100,4,2,1,60,0,0
74798,-100,4,2,1,70,0,0
80848,-100,4,2,1,70,0,0
82361,-100,4,2,1,50,0,0
82865,-100,4,2,1,90,0,1
115134,-100,4,2,1,80,0,0
123201,-100,4,2,1,65,0,0
131268,-100,4,2,1,70,0,0
139335,-100,4,2,1,75,0,0
146898,-100,4,2,1,60,0,0
147403,-100,4,2,1,90,0,1
179671,-100,4,2,1,80,0,0

[Colours]
Combo1 : 201,137,243
Combo2 : 249,153,199
Combo3 : 148,139,248
Combo4 : 243,124,128

[HitObjects]
48,241,2192,6,0,L|125:230,1,75,2|2,0:0|0:0,0:0:0:0:
255,276,2949,1,2,0:0:0:0:
255,276,3201,2,0,L|247:179,2,75,2|2|2,0:0|0:0|0:0,0:0:0:0:
338,308,4209,6,0,P|374:292|399:256,1,75,2|2,0:0|0:0,0:0:0:0:
401,129,4966,1,2,0:0:0:0:
401,129,5218,2,0,P|440:158|472:167,1,75,2|2,0:0|0:0,0:0:0:0:
290,23,6226,6,0,L|205:34,1,75,2|2,0:0|0:0,0:0:0:0:
92,81,6982,1,2,0:0:0:0:
92,81,7235,2,0,P|75:34|54:4,2,75,2|2|2,0:0|0:0|0:0,0:0:0:0:
143,154,8243,6,0,L|241:144,1,75,2|2,0:0|0:0,0:0:0:0:
127,247,8999,1,2,0:0:0:0:
127,247,9251,2,0,L|29:237,1,75,2|2,0:0|0:0,0:0:0:0:
245,356,10260,6,0,L|343:346,1,75,2|2,0:0|0:0,0:0:0:0:
388,234,11016,1,2,0:0:0:0:
388,234,11268,2,0,L|377:146,2,75,2|2|2,0:0|0:0|0:0,0:0:0:0:
472,264,12277,6,0,L|481:176,1,75,2|2,0:0|0:0,0:0:0:0:
494,59,13033,1,2,0:0:0:0:
494,59,13285,2,0,P|470:28|427:-4,1,75,2|2,0:0|0:0,0:0:0:0:
343,206,14293,6,0,L|257:216,1,75,2|2,0:0|0:0,0:0:0:0:
167,303,15050,1,2,0:0:0:0:
167,303,15302,2,0,L|81:293,2,75,2|2|2,0:0|0:0|0:0,0:0:0:0:
241,353,16310,6,0,L|327:343,1,75,2|2,0:0|0:0,0:0:0:0:
454,336,17066,1,2,0:0:0:0:
454,336,17319,2,0,L|443:268,1,50,2|8,0:0|0:0,0:0:0:0:
435,197,17823,1,2,1:2:0:0:
484,122,18075,1,10,0:0:0:0:
434,46,18327,6,0,P|399:59|347:57,1,75,14|2,0:0|1:2,0:0:0:0:
322,41,18831,1,10,0:0:0:0:
268,165,19209,2,0,L|271:249,1,75,2|2,0:0|1:2,0:0:0:0:
272,330,19840,1,10,0:0:0:0:
188,363,20092,1,2,1:2:0:0:
100,340,20344,6,0,P|85:304|110:259,1,75,10|2,0:0|1:2,0:0:0:0:
129,241,20848,1,10,0:0:0:0:
183,116,21226,2,0,L|171:34,1,75,2|2,0:0|1:2,0:0:0:0:
255,7,21856,1,10,0:0:0:0:
328,58,22108,1,2,1:2:0:0:
412,29,22361,6,0,P|419:68|407:103,1,75,10|2,0:0|1:2,0:0:0:0:
391,135,22865,1,10,0:0:0:0:
451,255,23243,2,0,L|464:328,1,75,2|2,0:0|1:2,0:0:0:0:
383,368,23873,2,0,L|327:360,1,50,10|2,0:0|1:2,0:0:0:0:
271,296,24377,6,0,L|187:317,1,75,10|2,0:0|1:2,0:0:0:0:
156,331,24882,1,10,0:0:0:0:
35,270,25260,2,0,L|45:195,1,75,2|2,0:0|1:2,0:0:0:0:
59,106,25890,1,14,0:0:0:0:
132,157,26142,1,2,1:2:0:0:
215,123,26394,6,0,L|214:27,1,75,14|2,0:0|1:2,0:0:0:0:
248,18,26898,1,10,0:0:0:0:
349,107,27277,1,2,0:0:0:0:
274,219,27655,1,2,1:2:0:0:
274,219,27907,2,0,L|279:268,1,50,10|2,0:0|1:2,0:0:0:0:
347,326,28411,6,0,P|379:320|408:283,1,75,10|2,0:0|1:2,0:0:0:0:
427,249,28915,1,10,0:0:0:0:
505,138,29293,2,0,P|484:97|479:61,1,75,2|2,0:0|1:2,0:0:0:0:
392,43,29924,2,0,P|388:67|378:90,1,50,10|2,0:0|1:2,0:0:0:0:
309,147,30428,6,0,P|261:141|226:141,1,75,10|2,0:0|1:2,0:0:0:0:
191,155,30932,1,10,0:0:0:0:
57,145,31310,2,0,P|54:182|70:216,1,75,2|2,0:0|1:2,0:0:0:0:
142,269,31940,1,10,0:0:0:0:
107,352,32193,1,2,1:2:0:0:
195,370,32445,6,0,L|281:351,1,75,10|2,0:0|1:2,0:0:0:0:
312,345,32949,1,10,0:0:0:0:
343,213,33327,2,0,P|326:173|322:140,1,75,2|2,0:0|1:2,0:0:0:0:
341,53,33957,1,14,0:0:0:0:
252,34,34209,1,2,1:2:0:0:
186,95,34461,6,0,L|94:87,1,75,6|2,0:0|0:0,0:0:0:0:
50,209,35218,1,2,0:0:0:0:
50,209,35470,2,0,P|78:249|97:302,1,100,2|0,0:0|0:0,0:0:0:0:
241,190,36478,6,0,L|233:104,1,75,2|2,0:0|0:0,0:0:0:0:
373,113,37235,1,2,0:0:0:0:
373,113,37487,2,0,L|381:199,1,75,2|2,0:0|0:0,0:0:0:0:
399,326,38243,1,2,0:0:0:0:
399,326,38495,6,0,L|309:315,1,75,2|2,0:0|0:0,0:0:0:0:
197,355,39251,1,2,0:0:0:0:
197,355,39503,2,0,P|179:308|151:267,1,100,2|0,0:0|0:0,0:0:0:0:
24,139,40512,6,0,L|32:53,1,75,2|2,0:0|0:0,0:0:0:0:
168,93,41268,1,2,0:0:0:0:
168,93,41520,2,0,L|160:179,1,75,2|2,0:0|0:0,0:0:0:0:
151,306,42277,1,2,0:0:0:0:
151,306,42529,6,0,L|246:295,1,75,2|2,0:0|0:0,0:0:0:0:
349,238,43285,1,2,0:0:0:0:
349,238,43537,2,0,P|377:278|396:331,1,100,2|0,0:0|0:0,0:0:0:0:
494,175,44545,6,0,L|486:89,1,75,2|2,0:0|0:0,0:0:0:0:
356,115,45302,1,2,0:0:0:0:
356,115,45554,2,0,L|364:201,1,75,2|2,0:0|0:0,0:0:0:0:
381,328,46310,1,2,0:0:0:0:
381,328,46562,6,0,L|291:317,1,75,2|2,0:0|0:0,0:0:0:0:
174,349,47319,1,2,0:0:0:0:
174,349,47571,2,0,L|197:238,1,100,2|0,0:0|0:0,0:0:0:0:
122,86,48579,6,0,B|149:183|149:183|418:139,1,350,2|2,0:0|0:0,0:0:0:0:
436,60,50596,6,0,P|399:50|362:54,1,75,14|2,0:0|1:2,0:0:0:0:
321,34,51100,1,10,0:0:0:0:
208,109,51478,1,2,0:0:0:0:
281,221,51856,1,2,1:2:0:0:
281,221,52108,2,0,L|268:277,1,50,10|2,0:0|1:2,0:0:0:0:
244,356,52613,6,0,L|170:340,1,75,10|2,0:0|1:2,0:0:0:0:
127,354,53117,1,10,0:0:0:0:
53,240,53495,2,0,L|70:167,1,75,2|2,0:0|1:2,0:0:0:0:
153,132,54125,1,10,0:0:0:0:
227,182,54377,1,2,1:2:0:0:
300,130,54629,6,0,L|296:48,1,75,10|2,0:0|1:2,0:0:0:0:
330,25,55134,1,10,0:0:0:0:
452,82,55512,2,0,L|456:165,1,75,2|2,0:0|1:2,0:0:0:0:
466,246,56142,1,10,0:0:0:0:
382,279,56394,1,2,1:2:0:0:
408,364,56646,6,0,L|334:376,1,75,10|2,0:0|1:2,0:0:0:0:
295,354,57150,1,10,0:0:0:0:
225,238,57529,2,0,L|237:164,1,75,2|2,0:0|1:2,0:0:0:0:
263,77,58159,1,10,0:0:0:0:
263,77,58411,1,2,1:2:0:0:
174,95,58663,6,0,P|137:94|105:112,1,75,2|2,0:0|0:0,0:0:0:0:
66,241,59419,1,2,0:0:0:0:
66,241,59671,2,0,L|59:308,1,50,2|0,0:0|0:0,0:0:0:0:
150,297,60176,2,0,L|155:247,1,50,2|0,0:0|0:0,0:0:0:0:
230,197,60680,6,0,P|280:209|294:232,1,75,2|2,0:0|0:0,0:0:0:0:
415,293,61436,1,2,0:0:0:0:
415,293,61688,2,0,L|410:206,1,75,2|2,0:0|0:0,0:0:0:0:
402,80,62445,1,2,0:0:0:0:
402,80,62697,6,0,P|352:75|318:47,1,75,2|2,0:0|0:0,0:0:0:0:
206,30,63453,1,2,0:0:0:0:
206,30,63705,2,0,L|213:79,1,50,2|0,0:0|0:0,0:0:0:0:
165,155,64209,2,0,L|172:204,1,50,2|0,0:0|0:0,0:0:0:0:
208,289,64714,6,0,P|154:307|133:322,1,75,2|2,0:0|0:0,0:0:0:0:
14,368,65470,1,2,0:0:0:0:
30,279,65722,2,0,L|20:197,1,75,2|2,0:0|0:0,0:0:0:0:
54,77,66478,1,2,0:0:0:0:
54,77,66730,6,0,L|144:62,1,75,2|2,0:0|0:0,0:0:0:0:
259,115,67487,1,2,0:0:0:0:
259,115,67739,2,0,P|290:91|364:69,1,100,2|0,0:0|0:0,0:0:0:0:
436,104,68495,1,2,0:0:0:0:
436,104,68747,6,0,L|427:198,1,75,2|2,0:0|0:0,0:0:0:0:
415,312,69503,1,2,0:0:0:0:
415,312,69756,2,0,P|337:316|251:335,1,150,2|2,0:0|0:0,0:0:0:0:
178,346,70764,6,0,L|189:261,1,75,2|2,0:0|0:0,0:0:0:0:
207,141,71520,1,2,0:0:0:0:
207,141,71772,2,0,P|238:117|312:95,1,100,2|2,0:0|0:0,0:0:0:0:
389,97,72529,1,2,0:0:0:0:
389,97,72781,6,0,B|405:140|405:140|378:254,1,150,2|2,0:0|0:0,0:0:0:0:
358,328,73789,1,2,0:0:0:0:
256,179,74293,1,2,0:0:0:0:
154,328,74798,5,10,0:0:0:0:
358,328,75806,1,10,0:0:0:0:
358,56,76814,1,10,0:0:0:0:
154,56,77823,1,10,0:0:0:0:
154,328,78831,5,10,0:0:0:0:
358,328,79840,1,10,0:0:0:0:
256,32,80848,6,0,L|256:288,1,250,10|0,0:0|0:0,0:0:0:0:
256,372,82361,1,2,0:0:0:0:
98,285,82865,6,0,L|88:205,1,75,14|2,0:0|1:2,0:0:0:0:
105,168,83369,2,0,L|97:99,1,50,2|2,1:2|1:2,0:0:0:0:
138,37,83873,1,10,0:0:0:0:
227,42,84125,1,10,0:0:0:0:
316,53,84377,2,0,L|381:42,1,50,2|2,1:2|1:2,0:0:0:0:
449,76,84882,5,10,0:0:0:0:
406,155,85134,1,2,0:0:0:0:
462,224,85386,1,2,1:2:0:0:
360,373,85890,2,0,L|307:370,1,50,10|2,0:0|1:2,0:0:0:0:
311,280,86394,2,0,L|314:230,1,50,2|2,1:2|0:0,0:0:0:0:
224,219,86898,6,0,L|216:293,1,75,10|2,0:0|1:2,0:0:0:0:
187,328,87403,2,0,L|120:320,1,50,2|2,1:2|1:2,0:0:0:0:
48,311,87907,1,10,0:0:0:0:
22,224,88159,1,10,0:0:0:0:
74,151,88411,2,0,L|64:82,1,50,2|2,1:2|1:2,0:0:0:0:
155,86,88915,6,0,L|162:135,1,50,10|2,0:0|0:0,0:0:0:0:
234,189,89419,1,2,1:2:0:0:
385,91,89924,1,10,0:0:0:0:
472,113,90176,1,2,1:2:0:0:
444,198,90428,2,0,L|455:257,1,50,6|2,1:2|1:2,0:0:0:0:
387,308,90932,6,0,L|291:305,1,75,14|2,0:0|1:2,0:0:0:0:
270,323,91436,2,0,L|244:268,1,50,2|2,1:2|1:2,0:0:0:0:
211,195,91940,1,10,0:0:0:0:
285,143,92193,1,10,0:0:0:0:
232,69,92445,2,0,L|162:56,1,50,2|2,1:2|1:2,0:0:0:0:
101,99,92949,6,0,L|91:149,1,50,10|2,0:0|0:0,0:0:0:0:
132,227,93453,1,2,1:2:0:0:
253,359,93957,1,10,0:0:0:0:
339,335,94209,1,2,1:2:0:0:
421,369,94461,2,0,L|480:359,1,50,2|2,1:2|0:0,0:0:0:0:
457,271,94966,6,0,L|446:192,1,75,10|2,0:0|1:2,0:0:0:0:
463,155,95470,1,2,1:2:0:0:
447,66,95722,1,2,1:2:0:0:
374,119,95974,2,0,L|321:126,1,50,10|10,0:0|0:0,0:0:0:0:
251,73,96478,2,0,L|201:79,1,50,2|2,1:2|1:2,0:0:0:0:
120,41,96982,5,10,0:0:0:0:
120,41,97235,1,2,0:0:0:0:
47,94,97487,1,2,1:2:0:0:
165,229,97991,2,0,L|154:283,1,50,10|2,0:0|1:2,0:0:0:0:
243,295,98495,2,0,L|252:246,1,50,6|2,1:2|1:2,0:0:0:0:
270,157,98999,6,0,L|350:147,1,75,14|2,0:0|1:2,0:0:0:0:
386,166,99503,2,0,L|379:229,1,50,2|2,1:2|1:2,0:0:0:0:
368,304,100008,1,10,0:0:0:0:
436,361,100260,1,10,0:0:0:0:
496,293,100512,2,0,L|489:236,1,50,2|2,1:2|1:2,0:0:0:0:
479,153,101016,5,10,0:0:0:0:
386,166,101268,1,2,0:0:0:0:
371,77,101520,1,2,1:2:0:0:
204,145,102024,2,0,L|146:137,1,50,10|2,0:0|1:2,0:0:0:0:
144,227,102529,2,0,L|202:235,1,50,2|2,1:2|0:0,0:0:0:0:
281,248,103033,6,0,L|289:322,1,75,10|2,0:0|1:2,0:0:0:0:
318,356,103537,2,0,L|383:327,1,50,2|2,1:2|1:2,0:0:0:0:
447,298,104041,1,10,0:0:0:0:
420,212,104293,1,10,0:0:0:0:
459,131,104545,2,0,L|449:62,1,50,2|2,1:2|1:2,0:0:0:0:
363,66,105050,6,0,L|370:115,1,50,10|2,0:0|0:0,0:0:0:0:
304,177,105554,1,2,1:2:0:0:
137,112,106058,1,10,0:0:0:0:
66,167,106310,1,2,1:2:0:0:
116,241,106562,2,0,L|111:304,1,50,6|2,1:2|0:0,0:0:0:0:
190,335,107066,6,0,L|285:323,1,75,14|2,0:0|1:2,0:0:0:0:
307,340,107571,2,0,L|321:276,1,50,2|2,1:2|1:2,0:0:0:0:
335,203,108075,1,10,0:0:0:0:
398,138,108327,1,10,0:0:0:0:
351,60,108579,2,0,L|281:47,1,50,2|2,1:2|1:2,0:0:0:0:
227,101,109083,6,0,L|157:114,1,50,10|2,0:0|0:0,0:0:0:0:
90,130,109587,1,2,1:2:0:0:
171,291,110092,5,10,0:0:0:0:
239,224,110344,1,2,1:2:0:0:
324,264,110596,2,0,L|383:254,1,50,2|2,1:2|0:0,0:0:0:0:
370,162,111100,6,0,L|291:151,1,75,10|2,0:0|1:2,0:0:0:0:
254,168,111604,1,2,1:2:0:0:
180,115,111856,1,2,1:2:0:0:
117,179,112108,2,0,L|64:186,1,50,10|10,0:0|0:0,0:0:0:0:
31,103,112613,2,0,L|81:97,1,50,2|2,1:2|1:2,0:0:0:0:
145,34,113117,5,10,0:0:0:0:
145,34,113369,1,2,0:0:0:0:
221,81,113621,1,2,1:2:0:0:
180,256,114125,2,0,L|191:310,1,50,10|2,0:0|1:2,0:0:0:0:
278,286,114629,2,0,L|269:237,1,50,6|2,1:2|1:2,0:0:0:0:
314,158,115134,6,0,P|356:160|384:201,1,75,14|2,0:0|1:2,0:0:0:0:
396,222,115638,1,10,0:0:0:0:
478,115,116016,2,0,L|463:37,1,75,2|2,0:0|1:2,0:0:0:0:
375,59,116646,1,10,0:0:0:0:
289,29,116898,1,2,1:2:0:0:
207,66,117150,6,0,L|121:83,1,75,10|2,0:0|1:2,0:0:0:0:
88,72,117655,1,10,0:0:0:0:
48,201,118033,1,2,0:0:0:0:
143,295,118411,1,2,1:2:0:0:
143,295,118663,2,0,L|131:360,1,50,10|2,0:0|1:2,0:0:0:0:
222,357,119167,6,0,L|238:283,1,75,10|2,0:0|1:2,0:0:0:0:
252,241,119671,1,10,0:0:0:0:
371,304,120050,2,0,L|460:289,1,75,2|2,0:0|1:2,0:0:0:0:
474,206,120680,2,0,L|457:158,1,50,10|2,0:0|1:2,0:0:0:0:
475,70,121184,6,0,L|388:49,1,75,10|2,0:0|1:2,0:0:0:0:
358,42,121688,1,10,0:0:0:0:
253,127,122066,2,0,L|267:210,1,75,2|2,0:0|1:2,0:0:0:0:
237,286,122697,1,14,0:0:0:0:
237,286,122949,1,2,1:2:0:0:
156,326,123201,6,0,P|120:314|92:290,1,75,14|2,0:0|0:0,0:0:0:0:
55,160,123957,1,2,0:0:0:0:
55,160,124209,2,0,L|66:98,1,50,10|2,0:0|0:0,0:0:0:0:
152,124,124714,2,0,L|143:173,1,50,10|2,0:0|0:0,0:0:0:0:
204,237,125218,6,0,P|242:240|275:225,1,75,10|2,0:0|0:0,0:0:0:0:
353,116,125974,1,2,0:0:0:0:
353,116,126226,2,0,L|415:120,1,50,10|0,0:0|0:0,0:0:0:0:
475,171,126730,1,10,0:0:0:0:
415,238,126982,1,10,0:0:0:0:
437,324,127235,6,0,P|401:337|364:341,1,75,10|2,0:0|0:0,0:0:0:0:
239,291,127991,1,2,0:0:0:0:
239,291,128243,2,0,L|245:224,1,50,10|2,0:0|0:0,0:0:0:0:
196,164,128747,2,0,L|202:97,1,50,10|2,0:0|0:0,0:0:0:0:
246,37,129251,6,0,P|212:21|175:26,1,75,10|2,0:0|0:0,0:0:0:0:
54,86,130008,1,2,0:0:0:0:
54,86,130260,2,0,L|71:157,1,50,10|2,0:0|0:0,0:0:0:0:
96,219,130764,1,10,0:0:0:0:
60,301,131016,1,2,0:0:0:0:
136,348,131268,6,0,P|197:335|247:312,1,100,10|2,0:0|1:2,0:0:0:0:
312,277,132024,1,2,0:0:0:0:
312,277,132277,2,0,L|295:163,1,100,10|2,0:0|1:2,0:0:0:0:
401,31,133285,6,0,L|418:145,1,100,10|2,0:0|1:2,0:0:0:0:
468,209,134041,1,2,0:0:0:0:
468,209,134293,2,0,P|443:241|417:307,1,100,10|2,0:0|1:2,0:0:0:0:
343,340,135050,1,10,0:0:0:0:
343,340,135302,6,0,P|276:318|224:314,1,100,10|2,0:0|1:2,0:0:0:0:
71,356,136310,2,0,P|48:322|38:242,1,100,10|2,0:0|1:2,0:0:0:0:
60,178,137066,1,2,0:0:0:0:
60,178,137319,6,0,L|36:64,1,100,10|2,0:0|1:2,0:0:0:0:
131,64,138075,1,2,0:0:0:0:
131,64,138327,2,0,L|146:135,1,50,10|2,0:0|1:2,0:0:0:0:
218,159,138831,2,0,L|233:230,1,50,10|2,0:0|1:2,0:0:0:0:
187,288,139335,6,0,P|136:269|100:263,2,75,14|10|10,0:0|0:0|0:0,0:0:0:0:
255,346,140344,1,2,1:2:0:0:
432,315,140848,1,2,1:2:0:0:
386,237,141100,1,2,0:0:0:0:
442,166,141352,6,0,L|451:82,2,75,10|10|8,0:0|0:0|0:0,0:0:0:0:
488,244,142361,1,2,0:0:0:0:
339,143,142865,1,2,1:2:0:0:
258,182,143117,1,2,0:0:0:0:
190,122,143369,6,0,L|185:32,2,75,10|10|10,0:0|0:0|0:0,0:0:0:0:
109,161,144377,1,2,0:0:0:0:
144,337,144882,2,0,L|210:352,1,50,2|2,1:2|0:0,0:0:0:0:
271,304,145386,5,10,0:0:0:0:
446,264,145890,1,2,1:2:0:0:
406,89,146394,1,10,0:0:0:0:
231,129,146898,1,2,1:2:0:0:
122,272,147403,6,0,L|143:356,1,75,14|2,0:0|1:2,0:0:0:0:
181,363,147907,2,0,L|241:351,1,50,2|2,1:2|1:2,0:0:0:0:
269,272,148411,1,10,0:0:0:0:
354,312,148663,1,10,0:0:0:0:
434,262,148915,2,0,L|442:194,1,50,2|2,1:2|1:2,0:0:0:0:
387,132,149419,6,0,L|395:64,1,50,10|2,0:0|0:0,0:0:0:0:
307,40,149924,1,2,1:2:0:0:
137,100,150428,1,10,0:0:0:0:
184,182,150680,1,2,1:2:0:0:
99,224,150932,2,0,L|40:212,1,50,2|2,1:2|0:0,0:0:0:0:
26,306,151436,6,0,L|104:324,1,75,10|2,0:0|1:2,0:0:0:0:
128,356,151940,2,0,L|189:342,1,50,2|2,1:2|1:2,0:0:0:0:
220,265,152445,1,10,0:0:0:0:
186,181,152697,1,10,0:0:0:0:
224,99,152949,2,0,L|284:93,1,50,2|2,1:2|1:2,0:0:0:0:
355,45,153453,5,10,0:0:0:0:
429,103,153705,1,2,0:0:0:0:
404,194,153957,1,2,1:2:0:0:
310,347,154461,2,0,L|245:358,1,50,10|2,0:0|1:2,0:0:0:0:
254,265,154966,2,0,L|249:205,1,50,6|2,1:2|1:2,0:0:0:0:
301,135,155470,6,0,P|270:113|233:111,1,75,14|2,0:0|1:2,0:0:0:0:
192,87,155974,1,2,1:2:0:0:
102,79,156226,1,2,1:2:0:0:
30,133,156478,2,0,L|38:190,1,50,10|10,0:0|0:0,0:0:0:0:
108,245,156982,2,0,L|101:294,1,50,2|2,1:2|1:2,0:0:0:0:
162,360,157487,5,10,0:0:0:0:
250,324,157739,1,2,0:0:0:0:
340,354,157991,1,2,1:2:0:0:
306,177,158495,2,0,L|316:121,1,50,10|2,0:0|1:2,0:0:0:0:
391,71,158999,2,0,L|447:81,1,50,2|2,1:2|0:0,0:0:0:0:
496,156,159503,6,0,L|485:238,1,75,10|2,0:0|1:2,0:0:0:0:
508,272,160008,1,2,1:2:0:0:
426,320,160260,1,2,1:2:0:0:
341,363,160512,2,0,L|286:355,1,50,10|10,0:0|0:0,0:0:0:0:
231,288,161016,2,0,L|181:295,1,50,2|2,1:2|1:2,0:0:0:0:
88,313,161520,5,10,0:0:0:0:
73,219,161772,1,2,0:0:0:0:
166,200,162024,1,2,1:2:0:0:
321,108,162529,2,0,L|314:58,1,50,10|2,0:0|1:2,0:0:0:0:
408,45,163033,2,0,L|415:94,1,50,6|2,1:2|1:2,0:0:0:0:
430,188,163537,6,0,L|350:198,1,75,14|2,0:0|1:2,0:0:0:0:
320,225,164041,2,0,L|260:213,1,50,2|2,1:2|1:2,0:0:0:0:
182,199,164545,1,10,0:0:0:0:
162,286,164798,1,10,0:0:0:0:
82,242,165050,2,0,L|75:185,1,50,2|2,1:2|1:2,0:0:0:0:
65,102,165554,5,10,0:0:0:0:
140,44,165806,1,2,0:0:0:0:
204,114,166058,1,2,1:2:0:0:
371,47,166562,2,0,L|429:55,1,50,10|2,0:0|1:2,0:0:0:0:
408,148,167066,2,0,L|358:141,1,50,2|2,1:2|0:0,0:0:0:0:
289,206,167571,6,0,L|297:280,1,75,10|2,0:0|1:2,0:0:0:0:
328,313,168075,2,0,L|317:377,1,50,2|2,1:2|1:2,0:0:0:0:
229,366,168579,1,10,0:0:0:0:
187,280,168831,1,10,0:0:0:0:
93,298,169083,2,0,L|83:229,1,50,2|2,1:2|1:2,0:0:0:0:
73,154,169587,6,0,L|136:162,1,50,10|2,0:0|0:0,0:0:0:0:
215,177,170092,1,2,1:2:0:0:
368,81,170596,1,10,0:0:0:0:
417,161,170848,1,2,1:2:0:0:
367,241,171100,2,0,L|372:304,1,50,6|2,1:2|1:2,0:0:0:0:
302,356,171604,6,0,L|207:344,1,75,14|2,0:0|1:2,0:0:0:0:
187,366,172108,2,0,L|171:311,1,50,2|2,1:2|1:2,0:0:0:0:
152,230,172613,1,10,0:0:0:0:
245,249,172865,1,10,0:0:0:0:
282,161,173117,2,0,L|352:148,1,50,2|2,1:2|1:2,0:0:0:0:
405,201,173621,6,0,L|475:214,1,50,10|2,0:0|0:0,0:0:0:0:
507,138,174125,1,2,1:2:0:0:
362,30,174629,5,10,0:0:0:0:
276,70,174882,1,2,1:2:0:0:
191,26,175134,2,0,L|120:37,1,50,2|2,1:2|0:0,0:0:0:0:
145,128,175638,6,0,L|224:117,1,75,10|2,0:0|1:2,0:0:0:0:
253,150,176142,1,2,1:2:0:0:
339,110,176394,1,2,1:2:0:0:
403,172,176646,2,0,L|396:225,1,50,10|10,0:0|0:0,0:0:0:0:
322,281,177150,2,0,L|329:334,1,50,2|2,1:2|1:2,0:0:0:0:
415,370,177655,5,10,0:0:0:0:
501,330,177907,1,2,0:0:0:0:
468,246,178159,1,2,1:2:0:0:
392,82,178663,2,0,L|403:28,1,50,10|2,0:0|1:2,0:0:0:0:
310,12,179167,2,0,L|299:66,1,50,6|2,1:2|1:2,0:0:0:0:
269,145,179671,6,0,P|233:158|198:169,1,75,14|2,0:0|1:2,0:0:0:0:
150,166,180176,1,10,0:0:0:0:
37,91,180554,2,0,L|52:17,1,75,2|2,0:0|1:2,0:0:0:0:
140,4,181184,1,10,0:0:0:0:
187,80,181436,1,2,1:2:0:0:
150,166,181688,6,0,L|137:249,1,75,10|2,0:0|1:2,0:0:0:0:
158,283,182193,1,10,0:0:0:0:
281,229,182571,1,2,0:0:0:0:
402,300,182949,1,2,1:2:0:0:
402,300,183201,2,0,L|412:244,1,50,10|2,0:0|1:2,0:0:0:0:
390,163,183705,6,0,L|406:78,1,75,10|2,0:0|1:2,0:0:0:0:
388,44,184209,1,10,0:0:0:0:
253,45,184587,2,0,P|208:48|188:86,1,75,2|2,0:0|1:2,0:0:0:0:
224,158,185218,1,10,0:0:0:0:
184,244,185470,1,2,1:2:0:0:
213,334,185722,6,0,L|116:342,1,75,10|2,0:0|1:2,0:0:0:0:
98,366,186226,1,10,0:0:0:0:
38,244,186604,1,2,0:0:0:0:
103,128,186982,1,2,1:2:0:0:
103,128,187235,2,0,L|100:78,1,50,14|2,0:0|1:2,0:0:0:0:
174,27,187739,6,0,P|223:42|235:63,1,75,14|2,0:0|1:2,0:0:0:0:
234,107,188243,1,10,0:0:0:0:
359,155,188621,2,0,L|446:137,1,75,2|2,0:0|1:2,0:0:0:0:
495,210,189251,1,10,0:0:0:0:
446,291,189503,1,2,1:2:0:0:
355,259,189756,6,0,P|331:288|318:323,1,75,10|2,0:0|1:2,0:0:0:0:
278,348,190260,1,10,0:0:0:0:
213,234,190638,2,0,L|223:159,1,75,2|2,0:0|1:2,0:0:0:0:
215,65,191268,1,10,0:0:0:0:
126,100,191520,1,2,1:2:0:0:
37,66,191772,6,0,B|24:105|24:105|33:140,1,75,10|2,0:0|1:2,0:0:0:0:
52,181,192277,1,10,0:0:0:0:
94,309,192655,2,0,L|181:293,1,75,2|2,0:0|1:2,0:0:0:0:
258,322,193285,1,10,0:0:0:0:
276,228,193537,1,2,1:2:0:0:
301,136,193789,6,0,L|286:46,1,75,10|2,0:0|1:2,0:0:0:0:
316,23,194293,1,10,0:0:0:0:
437,81,194671,1,2,0:0:0:0:
406,220,195050,1,2,1:2:0:0:
406,220,195302,2,0,L|412:288,1,50,14|2,0:0|1:2,0:0:0:0:
418,316,195680,5,6,1:2:0:0:
