osu file format v14

[General]
AudioFilename: audio.mp3
AudioLeadIn: 0
PreviewTime: 62422
Countdown: 0
SampleSet: Normal
StackLeniency: 0.7
Mode: 1
LetterboxInBreaks: 0
WidescreenStoryboard: 0

[Editor]
DistanceSpacing: 0.8
BeatDivisor: 4
GridSize: 32
TimelineZoom: 1.4

[Metadata]
Title:Moment (Cut Ver.)
TitleUnicode:モーメント (Cut Ver.)
Artist:MIMI
ArtistUnicode:MIMI
Creator:Charlotte
Version:Inner Oni
Source:osu!
Tags:featured artist fa mappers' guild mg mpg 佐藤主税 satou chikara vocaloid electronic japanese 初音ミク hatsune miku Hivie eiri- ayyri
BeatmapID:2492701
BeatmapSetID:1196563

[Difficulty]
HPDrainRate:6
CircleSize:5
OverallDifficulty:5.5
ApproachRate:5
SliderMultiplier:1.4
SliderTickRate:1

[Events]
//Background and Video events
0,0,"BG.jpg",0,-70
//Break Periods
//Storyboard Layer 0 (Background)
//Storyboard Layer 1 (Fail)
//Storyboard Layer 2 (Pass)
//Storyboard Layer 3 (Foreground)
//Storyboard Layer 4 (Overlay)
//Storyboard Sound Samples

[TimingPoints]
637,476.190476190476,4,1,0,30,1,0
16827,476.190476190476,4,1,0,55,1,0
31946,-100,4,1,0,40,0,0
62541,-83.3333333333333,4,1,0,65,0,1
76946,-90.9090909090909,4,1,0,65,0,1
77660,-100,4,1,0,55,0,1
77779,-100,4,1,0,55,0,0

[HitObjects]
260,200,637,5,0,0:0:0:0:
307,206,1113,1,8,0:0:0:0:
307,206,1589,1,0,0:0:0:0:
307,206,1827,1,0,0:0:0:0:
307,206,2065,1,8,0:0:0:0:
307,206,2541,1,0,0:0:0:0:
307,206,3017,1,8,0:0:0:0:
307,206,3494,1,8,0:0:0:0:
307,206,3732,1,8,0:0:0:0:
307,206,3970,1,8,0:0:0:0:
307,206,4208,1,8,0:0:0:0:
307,206,4446,1,0,0:0:0:0:
307,206,4922,1,8,0:0:0:0:
307,206,5398,1,0,0:0:0:0:
307,206,5636,1,0,0:0:0:0:
307,206,5875,1,8,0:0:0:0:
307,206,6351,1,0,0:0:0:0:
307,206,6827,1,8,0:0:0:0:
307,206,7303,1,8,0:0:0:0:
307,206,7541,1,0,0:0:0:0:
307,206,7779,1,8,0:0:0:0:
307,206,8017,1,8,0:0:0:0:
307,206,8256,1,0,0:0:0:0:
307,206,8732,1,8,0:0:0:0:
307,206,9208,1,0,0:0:0:0:
307,206,9446,1,0,0:0:0:0:
307,206,9684,1,8,0:0:0:0:
307,206,10160,1,0,0:0:0:0:
307,206,10636,1,8,0:0:0:0:
307,206,11113,1,8,0:0:0:0:
307,206,11351,1,8,0:0:0:0:
307,206,11589,1,8,0:0:0:0:
307,206,11827,1,8,0:0:0:0:
307,206,12065,1,0,0:0:0:0:
307,206,12541,1,8,0:0:0:0:
307,206,13017,1,0,0:0:0:0:
307,206,13256,1,0,0:0:0:0:
307,206,13494,1,8,0:0:0:0:
307,206,13732,1,0,0:0:0:0:
307,206,13970,1,0,0:0:0:0:
307,206,14208,1,0,0:0:0:0:
307,206,14446,1,8,0:0:0:0:
307,206,14922,1,0,0:0:0:0:
307,206,15160,1,0,0:0:0:0:
324,199,15240,1,0,0:0:0:0:
324,199,15319,1,0,0:0:0:0:
324,199,15398,1,8,0:0:0:0:
349,186,15636,1,0,0:0:0:0:
349,186,15756,1,0,0:0:0:0:
96,224,16827,1,4,0:0:0:0:
320,224,17065,1,0,0:0:0:0:
192,224,17184,1,8,0:0:0:0:
256,224,17422,1,0,0:0:0:0:
288,224,17541,1,0,0:0:0:0:
288,224,17660,1,8,0:0:0:0:
256,192,17779,1,0,0:0:0:0:
320,224,18017,1,0,0:0:0:0:
320,224,18136,1,8,0:0:0:0:
320,224,18374,1,0,0:0:0:0:
320,224,18493,1,0,0:0:0:0:
288,224,18612,1,8,0:0:0:0:
256,192,18731,1,0,0:0:0:0:
320,224,18969,1,0,0:0:0:0:
320,224,19088,1,8,0:0:0:0:
320,224,19327,1,0,0:0:0:0:
320,224,19446,1,0,0:0:0:0:
320,224,19565,1,8,0:0:0:0:
320,192,19803,1,8,0:0:0:0:
320,192,19922,1,8,0:0:0:0:
320,192,20041,1,8,0:0:0:0:
320,192,20160,1,0,0:0:0:0:
320,192,20279,1,8,0:0:0:0:
320,192,20517,1,8,0:0:0:0:
320,192,20636,1,0,0:0:0:0:
320,224,20874,1,0,0:0:0:0:
192,224,20993,1,8,0:0:0:0:
256,224,21231,1,0,0:0:0:0:
288,224,21350,1,0,0:0:0:0:
288,224,21469,1,8,0:0:0:0:
320,256,21588,1,0,0:0:0:0:
320,224,21827,1,0,0:0:0:0:
320,224,21946,1,8,0:0:0:0:
320,224,22184,1,0,0:0:0:0:
320,224,22303,1,8,0:0:0:0:
288,224,22422,1,8,0:0:0:0:
256,224,22541,1,0,0:0:0:0:
320,224,22779,1,0,0:0:0:0:
320,224,22898,1,8,0:0:0:0:
320,224,23136,1,0,0:0:0:0:
320,224,23255,1,0,0:0:0:0:
320,224,23374,1,8,0:0:0:0:
320,192,23612,1,0,0:0:0:0:
320,192,23731,1,0,0:0:0:0:
320,192,23850,1,0,0:0:0:0:
320,192,23969,1,8,0:0:0:0:
320,192,24088,1,0,0:0:0:0:
320,192,24207,1,8,0:0:0:0:
288,192,24326,1,8,0:0:0:0:
288,160,24446,1,0,0:0:0:0:
320,224,24684,1,0,0:0:0:0:
192,224,24803,1,8,0:0:0:0:
256,224,25041,1,0,0:0:0:0:
288,224,25160,1,0,0:0:0:0:
288,224,25279,1,8,0:0:0:0:
320,256,25398,1,0,0:0:0:0:
320,224,25636,1,0,0:0:0:0:
320,224,25755,1,8,0:0:0:0:
320,224,25993,1,0,0:0:0:0:
320,224,26112,1,0,0:0:0:0:
288,224,26231,1,8,0:0:0:0:
256,224,26350,1,0,0:0:0:0:
320,224,26588,1,0,0:0:0:0:
320,224,26707,1,8,0:0:0:0:
320,224,26946,1,0,0:0:0:0:
320,224,27065,1,0,0:0:0:0:
320,224,27184,1,8,0:0:0:0:
320,192,27422,1,8,0:0:0:0:
320,192,27541,1,8,0:0:0:0:
320,192,27660,1,8,0:0:0:0:
320,192,27779,1,0,0:0:0:0:
320,192,27898,1,8,0:0:0:0:
320,192,28136,1,8,0:0:0:0:
320,192,28255,1,0,0:0:0:0:
320,224,28493,1,0,0:0:0:0:
192,224,28612,1,8,0:0:0:0:
256,224,28850,1,0,0:0:0:0:
288,224,28969,1,0,0:0:0:0:
288,224,29088,1,8,0:0:0:0:
320,256,29207,1,0,0:0:0:0:
320,224,29446,1,0,0:0:0:0:
320,224,29565,1,8,0:0:0:0:
320,224,29803,1,0,0:0:0:0:
320,224,29922,1,8,0:0:0:0:
288,224,30041,1,8,0:0:0:0:
256,224,30160,1,0,0:0:0:0:
320,224,30398,1,0,0:0:0:0:
320,224,30517,1,8,0:0:0:0:
320,224,30755,1,0,0:0:0:0:
320,224,30874,1,0,0:0:0:0:
320,224,30993,1,8,0:0:0:0:
320,192,31231,1,8,0:0:0:0:
320,192,31350,1,0,0:0:0:0:
288,192,31469,1,0,0:0:0:0:
320,192,31588,1,8,0:0:0:0:
256,192,31707,1,0,0:0:0:0:
256,192,31826,1,8,0:0:0:0:
256,224,32065,5,4,0:0:0:0:
288,192,32779,1,0,0:0:0:0:
192,256,33255,1,0,0:0:0:0:
224,224,33493,1,8,0:0:0:0:
256,224,33969,1,0,0:0:0:0:
256,224,34446,1,8,0:0:0:0:
256,224,34684,1,0,0:0:0:0:
256,224,35160,1,0,0:0:0:0:
256,224,35398,1,8,0:0:0:0:
256,224,35874,1,0,0:0:0:0:
256,224,36350,1,8,0:0:0:0:
384,288,36588,1,0,0:0:0:0:
288,224,37065,1,0,0:0:0:0:
256,224,37303,1,8,0:0:0:0:
256,224,37541,1,8,0:0:0:0:
256,224,37779,1,0,0:0:0:0:
288,224,38017,1,8,0:0:0:0:
256,224,38493,1,8,0:0:0:0:
256,224,38731,1,0,0:0:0:0:
256,224,38969,1,0,0:0:0:0:
256,224,39207,1,8,0:0:0:0:
256,224,39446,1,8,0:0:0:0:
256,224,39684,1,0,0:0:0:0:
416,160,40398,1,0,0:0:0:0:
288,224,40874,1,0,0:0:0:0:
288,224,41112,1,8,0:0:0:0:
384,288,41588,1,0,0:0:0:0:
320,224,42065,1,8,0:0:0:0:
288,192,42303,1,0,0:0:0:0:
192,128,42779,1,0,0:0:0:0:
224,160,43017,1,8,0:0:0:0:
320,224,43493,1,0,0:0:0:0:
224,160,43969,1,8,0:0:0:0:
288,192,44207,1,0,0:0:0:0:
192,160,44684,1,0,0:0:0:0:
256,160,44922,1,8,0:0:0:0:
256,160,45160,1,8,0:0:0:0:
256,160,45398,1,0,0:0:0:0:
320,160,45636,1,8,0:0:0:0:
288,160,45755,1,0,0:0:0:0:
288,160,45874,1,0,0:0:0:0:
288,160,46112,1,8,0:0:0:0:
288,160,46350,1,0,0:0:0:0:
288,160,46588,1,0,0:0:0:0:
288,160,46826,1,8,0:0:0:0:
256,192,47065,1,0,0:0:0:0:
256,192,47184,1,0,0:0:0:0:
256,192,47303,1,0,0:0:0:0:
256,192,47779,1,0,0:0:0:0:
320,224,48017,1,0,0:0:0:0:
256,192,48255,1,8,0:0:0:0:
256,192,48731,1,0,0:0:0:0:
256,192,48969,1,0,0:0:0:0:
256,192,49207,1,8,0:0:0:0:
256,192,49446,1,0,0:0:0:0:
256,192,49684,1,8,0:0:0:0:
256,192,49922,1,8,0:0:0:0:
256,192,50160,1,0,0:0:0:0:
256,192,50636,1,8,0:0:0:0:
320,192,50874,1,8,0:0:0:0:
256,192,51112,1,0,0:0:0:0:
256,192,51588,1,8,0:0:0:0:
256,192,51826,1,0,0:0:0:0:
256,192,52065,1,8,0:0:0:0:
256,192,52541,1,0,0:0:0:0:
256,192,52779,1,8,0:0:0:0:
256,192,53017,1,8,0:0:0:0:
256,192,53255,1,0,0:0:0:0:
256,192,53493,1,8,0:0:0:0:
256,192,53731,1,0,0:0:0:0:
256,192,53969,1,8,0:0:0:0:
256,192,54446,1,0,0:0:0:0:
256,192,54684,1,0,0:0:0:0:
256,192,54922,1,8,0:0:0:0:
256,192,55398,1,0,0:0:0:0:
256,192,55636,1,0,0:0:0:0:
256,192,55874,1,8,0:0:0:0:
256,192,56112,1,0,0:0:0:0:
256,192,56350,1,8,0:0:0:0:
256,192,56588,1,8,0:0:0:0:
256,192,56826,1,0,0:0:0:0:
256,192,57303,1,8,0:0:0:0:
256,192,57541,1,8,0:0:0:0:
256,192,57779,1,0,0:0:0:0:
256,192,58255,1,8,0:0:0:0:
256,192,58493,1,0,0:0:0:0:
256,192,58731,1,8,0:0:0:0:
256,192,59207,1,0,0:0:0:0:
256,192,59446,1,0,0:0:0:0:
256,192,59684,1,8,0:0:0:0:
256,192,59922,1,0,0:0:0:0:
256,192,60160,1,0,0:0:0:0:
256,192,60398,1,0,0:0:0:0:
256,192,60636,1,8,0:0:0:0:
256,192,60874,1,0,0:0:0:0:
256,192,61112,1,8,0:0:0:0:
256,192,61350,1,8,0:0:0:0:
256,192,61588,1,8,0:0:0:0:
256,192,62541,1,4,0:0:0:0:
256,192,62779,1,0,0:0:0:0:
256,192,62898,1,0,0:0:0:0:
256,192,63017,1,8,0:0:0:0:
256,192,63255,1,0,0:0:0:0:
256,192,63374,1,8,0:0:0:0:
288,192,63493,1,0,0:0:0:0:
256,192,63731,1,0,0:0:0:0:
256,192,63850,1,0,0:0:0:0:
256,192,63969,1,8,0:0:0:0:
256,192,64207,1,0,0:0:0:0:
288,224,64446,1,8,0:0:0:0:
288,224,64684,1,0,0:0:0:0:
288,224,64803,1,0,0:0:0:0:
288,224,64922,1,8,0:0:0:0:
288,224,65160,1,8,0:0:0:0:
320,224,65279,1,8,0:0:0:0:
288,224,65398,1,0,0:0:0:0:
352,224,65636,1,0,0:0:0:0:
320,224,65755,1,0,0:0:0:0:
288,224,65874,1,8,0:0:0:0:
320,224,65993,1,0,0:0:0:0:
288,224,66112,1,8,0:0:0:0:
288,224,66350,1,0,0:0:0:0:
320,224,66588,1,0,0:0:0:0:
320,224,66707,1,0,0:0:0:0:
288,224,66826,1,8,0:0:0:0:
288,224,67065,1,0,0:0:0:0:
288,224,67184,1,8,0:0:0:0:
320,192,67303,1,0,0:0:0:0:
288,224,67541,1,0,0:0:0:0:
288,224,67660,1,0,0:0:0:0:
288,224,67779,1,8,0:0:0:0:
288,224,68017,1,0,0:0:0:0:
288,224,68255,1,8,0:0:0:0:
288,224,68493,1,0,0:0:0:0:
288,224,68612,1,0,0:0:0:0:
288,224,68731,1,8,0:0:0:0:
288,224,68969,1,8,0:0:0:0:
288,224,69088,1,8,0:0:0:0:
288,224,69207,1,0,0:0:0:0:
288,224,69446,1,8,0:0:0:0:
288,224,69684,1,0,0:0:0:0:
288,224,69803,1,8,0:0:0:0:
288,224,69922,1,8,0:0:0:0:
288,224,70041,1,8,0:0:0:0:
288,224,70160,1,0,0:0:0:0:
288,224,70398,1,0,0:0:0:0:
288,224,70517,1,0,0:0:0:0:
288,224,70636,1,8,0:0:0:0:
288,224,70874,1,8,0:0:0:0:
288,224,70993,1,8,0:0:0:0:
288,224,71112,1,0,0:0:0:0:
288,224,71350,1,0,0:0:0:0:
288,224,71469,1,8,0:0:0:0:
288,224,71588,1,8,0:0:0:0:
288,224,71826,1,0,0:0:0:0:
288,224,72065,1,8,0:0:0:0:
288,224,72303,1,0,0:0:0:0:
288,224,72422,1,8,0:0:0:0:
288,224,72541,1,8,0:0:0:0:
288,224,72779,1,0,0:0:0:0:
288,224,72898,1,8,0:0:0:0:
288,224,73017,1,0,0:0:0:0:
288,224,73255,1,0,0:0:0:0:
288,224,73374,1,8,0:0:0:0:
288,224,73493,1,8,0:0:0:0:
288,224,73612,1,0,0:0:0:0:
288,224,73731,1,8,0:0:0:0:
288,224,73969,1,0,0:0:0:0:
288,224,74207,1,0,0:0:0:0:
288,224,74326,1,8,0:0:0:0:
288,224,74446,1,8,0:0:0:0:
288,224,74684,1,8,0:0:0:0:
288,224,74803,1,8,0:0:0:0:
288,224,74922,1,0,0:0:0:0:
288,224,75160,1,8,0:0:0:0:
288,224,75279,1,0,0:0:0:0:
288,224,75398,1,8,0:0:0:0:
288,224,75636,1,0,0:0:0:0:
288,224,75874,1,8,0:0:0:0:
288,224,76112,1,8,0:0:0:0:
288,224,76231,1,0,0:0:0:0:
288,224,76350,1,8,0:0:0:0:
288,224,76469,1,8,0:0:0:0:
288,224,76588,1,0,0:0:0:0:
256,192,76707,1,8,0:0:0:0:
288,224,76826,1,0,0:0:0:0:
288,224,77065,1,0,0:0:0:0:
320,224,77144,1,0,0:0:0:0:
320,224,77223,1,0,0:0:0:0:
256,192,77303,1,8,0:0:0:0:
256,224,77422,1,0,0:0:0:0:
256,224,77541,1,8,0:0:0:0:
96,224,77779,1,4,0:0:0:0:
320,224,78017,1,0,0:0:0:0:
192,224,78136,1,8,0:0:0:0:
256,224,78374,1,0,0:0:0:0:
256,192,78493,1,0,0:0:0:0:
288,224,78612,1,8,0:0:0:0:
256,192,78731,1,0,0:0:0:0:
320,224,78969,1,0,0:0:0:0:
320,224,79088,1,8,0:0:0:0:
320,224,79326,1,0,0:0:0:0:
320,224,79446,1,8,0:0:0:0:
288,224,79565,1,8,0:0:0:0:
256,192,79684,1,0,0:0:0:0:
320,224,79922,1,0,0:0:0:0:
320,224,80041,1,8,0:0:0:0:
320,224,80279,1,0,0:0:0:0:
320,224,80398,1,0,0:0:0:0:
320,224,80517,1,8,0:0:0:0:
320,192,80755,1,8,0:0:0:0:
320,192,80874,1,0,0:0:0:0:
320,192,80993,1,8,0:0:0:0:
320,192,81112,1,0,0:0:0:0:
320,192,81231,1,8,0:0:0:0:
320,192,81469,1,8,0:0:0:0:
320,192,81588,1,0,0:0:0:0:
320,224,81826,1,0,0:0:0:0:
192,224,81946,1,8,0:0:0:0:
256,224,82184,1,0,0:0:0:0:
288,224,82303,1,0,0:0:0:0:
288,224,82422,1,8,0:0:0:0:
320,256,82541,1,0,0:0:0:0:
320,224,82779,1,0,0:0:0:0:
320,224,82898,1,8,0:0:0:0:
320,224,83136,1,8,0:0:0:0:
320,224,83255,1,8,0:0:0:0:
288,224,83374,1,8,0:0:0:0:
256,224,83493,1,0,0:0:0:0:
320,224,83731,1,0,0:0:0:0:
320,224,83850,1,8,0:0:0:0:
320,224,84088,1,0,0:0:0:0:
320,224,84207,1,0,0:0:0:0:
320,224,84326,1,8,0:0:0:0:
320,192,84565,1,0,0:0:0:0:
320,192,84684,1,8,0:0:0:0:
320,192,84803,1,0,0:0:0:0:
320,192,84922,1,8,0:0:0:0:
320,192,85041,1,8,0:0:0:0:
320,192,85160,1,0,0:0:0:0:
288,192,85279,1,8,0:0:0:0:
288,160,85398,1,0,0:0:0:0:
320,224,85636,1,0,0:0:0:0:
192,224,85755,1,8,0:0:0:0:
256,224,85993,1,0,0:0:0:0:
288,224,86112,1,0,0:0:0:0:
288,224,86231,1,8,0:0:0:0:
320,256,86350,1,0,0:0:0:0:
320,224,86588,1,0,0:0:0:0:
320,224,86707,1,8,0:0:0:0:
320,224,86946,1,0,0:0:0:0:
320,224,87065,1,8,0:0:0:0:
288,224,87184,1,8,0:0:0:0:
256,224,87303,1,0,0:0:0:0:
320,224,87541,1,0,0:0:0:0:
320,224,87660,1,8,0:0:0:0:
320,224,87898,1,0,0:0:0:0:
320,224,88017,1,0,0:0:0:0:
320,224,88136,1,8,0:0:0:0:
320,192,88374,1,8,0:0:0:0:
320,192,88493,1,0,0:0:0:0:
320,192,88612,1,8,0:0:0:0:
320,192,88731,1,0,0:0:0:0:
320,192,88850,1,8,0:0:0:0:
320,192,89088,1,8,0:0:0:0:
320,192,89207,1,0,0:0:0:0:
320,224,89446,1,0,0:0:0:0:
192,224,89565,1,8,0:0:0:0:
256,224,89803,1,0,0:0:0:0:
288,224,89922,1,0,0:0:0:0:
288,224,90041,1,8,0:0:0:0:
320,256,90160,1,0,0:0:0:0:
320,224,90398,1,0,0:0:0:0:
320,224,90517,1,8,0:0:0:0:
320,224,90755,1,8,0:0:0:0:
320,224,90874,1,8,0:0:0:0:
288,224,90993,1,8,0:0:0:0:
256,224,91112,1,0,0:0:0:0:
320,224,91350,1,0,0:0:0:0:
320,224,91469,1,8,0:0:0:0:
320,224,91707,1,0,0:0:0:0:
320,224,91826,1,0,0:0:0:0:
320,224,91946,1,8,0:0:0:0:
320,192,92184,1,8,0:0:0:0:
320,192,92303,1,0,0:0:0:0:
288,192,92422,1,0,0:0:0:0:
320,192,92541,1,8,0:0:0:0:
256,192,92660,1,0,0:0:0:0:
256,192,92779,1,8,0:0:0:0:
256,224,93017,5,4,0:0:0:0:
