osu file format v14

[General]
AudioFilename: audio.mp3
AudioLeadIn: 0
PreviewTime: 62422
Countdown: 0
SampleSet: Normal
StackLeniency: 0.7
Mode: 1
LetterboxInBreaks: 0
WidescreenStoryboard: 0

[Editor]
DistanceSpacing: 0.8
BeatDivisor: 4
GridSize: 32
TimelineZoom: 0.9

[Metadata]
Title:Moment (Cut Ver.)
TitleUnicode:モーメント (Cut Ver.)
Artist:MIMI
ArtistUnicode:MIMI
Creator:Charlotte
Version:Futsuu
Source:osu!
Tags:featured artist fa mappers' guild mg mpg 佐藤主税 satou chikara vocaloid electronic japanese 初音ミク hatsune miku Hivie eiri- ayyri
BeatmapID:2494973
BeatmapSetID:1196563

[Difficulty]
HPDrainRate:7
CircleSize:5
OverallDifficulty:4
ApproachRate:5
SliderMultiplier:1.4
SliderTickRate:1

[Events]
//Background and Video events
0,0,"BG.jpg",0,-70
//Break Periods
//Storyboard Layer 0 (Background)
//Storyboard Layer 1 (Fail)
//Storyboard Layer 2 (Pass)
//Storyboard Layer 3 (Foreground)
//Storyboard Layer 4 (Overlay)
//Storyboard Sound Samples

[TimingPoints]
637,476.190476190476,4,1,0,30,1,0
16827,476.190476190476,4,1,0,55,1,0
31946,-100,4,1,0,40,0,0
62541,-100,4,1,0,65,0,1
77660,-100,4,1,0,55,0,1
77779,-100,4,1,0,55,0,0

[HitObjects]
260,200,637,5,0,0:0:0:0:
307,206,1589,1,0,0:0:0:0:
307,206,2541,1,0,0:0:0:0:
307,206,3494,1,8,0:0:0:0:
307,206,3970,1,8,0:0:0:0:
307,206,4446,1,0,0:0:0:0:
307,206,5398,1,0,0:0:0:0:
307,206,6351,1,8,0:0:0:0:
307,206,7303,1,0,0:0:0:0:
307,206,7779,1,8,0:0:0:0:
307,206,8256,1,0,0:0:0:0:
307,206,9208,1,0,0:0:0:0:
307,206,10160,1,0,0:0:0:0:
307,206,11113,1,8,0:0:0:0:
307,206,11589,1,8,0:0:0:0:
307,206,12065,1,0,0:0:0:0:
307,206,13017,1,0,0:0:0:0:
307,206,13970,1,0,0:0:0:0:
307,206,14446,1,8,0:0:0:0:
307,206,14922,1,0,0:0:0:0:
324,199,15398,1,8,0:0:0:0:
320,192,15636,1,0,0:0:0:0:
96,224,16827,1,4,0:0:0:0:
288,224,17303,1,8,0:0:0:0:
256,192,17779,1,0,0:0:0:0:
320,224,18136,1,8,0:0:0:0:
320,224,18493,1,8,0:0:0:0:
256,192,18731,1,0,0:0:0:0:
320,224,19207,1,8,0:0:0:0:
288,192,19684,1,0,0:0:0:0:
320,192,20636,1,0,0:0:0:0:
192,224,21112,1,8,0:0:0:0:
320,256,21588,1,0,0:0:0:0:
320,224,21946,1,8,0:0:0:0:
320,224,22303,1,8,0:0:0:0:
256,224,22541,1,0,0:0:0:0:
320,224,23017,1,8,0:0:0:0:
288,192,23493,1,0,0:0:0:0:
320,192,23969,1,8,0:0:0:0:
320,192,24207,1,8,0:0:0:0:
288,160,24446,1,4,0:0:0:0:
288,224,24922,1,8,0:0:0:0:
320,256,25398,1,0,0:0:0:0:
320,224,25755,1,8,0:0:0:0:
320,224,26112,1,8,0:0:0:0:
256,224,26350,1,0,0:0:0:0:
320,192,26826,1,8,0:0:0:0:
256,192,27303,1,0,0:0:0:0:
320,192,28255,1,0,0:0:0:0:
192,224,28731,1,8,0:0:0:0:
320,256,29207,1,0,0:0:0:0:
320,224,29565,1,8,0:0:0:0:
320,224,29922,1,8,0:0:0:0:
256,224,30160,1,0,0:0:0:0:
320,224,30636,1,8,0:0:0:0:
320,192,31112,1,0,0:0:0:0:
256,192,31588,1,8,0:0:0:0:
256,192,31826,1,8,0:0:0:0:
256,224,32065,1,4,0:0:0:0:
288,192,32779,1,0,0:0:0:0:
256,224,33969,1,0,0:0:0:0:
256,224,34684,1,0,0:0:0:0:
256,224,35874,1,0,0:0:0:0:
384,288,36588,1,0,0:0:0:0:
256,224,37779,1,0,0:0:0:0:
256,224,38731,1,0,0:0:0:0:
256,224,39207,1,8,0:0:0:0:
256,224,39684,1,0,0:0:0:0:
416,160,40398,1,0,0:0:0:0:
384,288,41588,1,0,0:0:0:0:
288,192,42303,1,0,0:0:0:0:
320,224,43493,1,0,0:0:0:0:
288,192,44207,1,0,0:0:0:0:
256,160,45398,1,0,0:0:0:0:
256,160,46112,1,0,0:0:0:0:
256,192,46588,1,0,0:0:0:0:
288,160,46826,1,8,0:0:0:0:
256,192,47065,1,8,0:0:0:0:
256,192,47303,1,4,0:0:0:0:
256,192,48255,1,8,0:0:0:0:
256,192,49207,1,8,0:0:0:0:
256,192,49684,1,8,0:0:0:0:
256,192,50160,1,0,0:0:0:0:
256,192,51112,1,0,0:0:0:0:
256,192,52065,1,8,0:0:0:0:
256,192,53017,1,0,0:0:0:0:
256,192,53493,1,8,0:0:0:0:
256,192,53969,1,8,0:0:0:0:
256,192,54922,1,0,0:0:0:0:
256,192,55874,1,8,0:0:0:0:
256,192,56826,1,0,0:0:0:0:
256,192,57303,1,8,0:0:0:0:
256,192,57779,1,0,0:0:0:0:
256,192,58731,1,8,0:0:0:0:
256,192,59684,1,8,0:0:0:0:
256,192,60160,1,8,0:0:0:0:
256,192,60636,1,0,0:0:0:0:
256,192,61112,1,8,0:0:0:0:
256,192,61350,1,8,0:0:0:0:
256,192,61588,1,8,0:0:0:0:
256,192,62541,1,4,0:0:0:0:
256,192,63017,1,8,0:0:0:0:
288,192,63493,1,0,0:0:0:0:
256,192,63731,1,0,0:0:0:0:
256,192,63969,1,8,0:0:0:0:
288,192,64446,1,8,0:0:0:0:
288,224,64922,1,8,0:0:0:0:
288,224,65160,1,8,0:0:0:0:
288,224,65398,1,0,0:0:0:0:
192,128,65874,1,8,0:0:0:0:
288,224,66350,1,0,0:0:0:0:
288,224,66826,1,8,0:0:0:0:
320,192,67303,1,0,0:0:0:0:
288,224,67541,1,0,0:0:0:0:
288,224,67779,1,8,0:0:0:0:
288,224,68255,1,8,0:0:0:0:
288,224,68731,1,8,0:0:0:0:
288,224,68969,1,8,0:0:0:0:
256,192,69207,1,0,0:0:0:0:
288,224,70160,1,4,0:0:0:0:
288,224,70636,1,8,0:0:0:0:
288,224,71112,1,0,0:0:0:0:
288,224,71350,1,8,0:0:0:0:
288,224,71588,1,8,0:0:0:0:
288,224,72065,1,8,0:0:0:0:
288,224,72541,1,8,0:0:0:0:
288,224,72779,1,8,0:0:0:0:
288,224,73017,1,0,0:0:0:0:
352,288,73493,1,8,0:0:0:0:
288,224,73969,1,0,0:0:0:0:
288,224,74446,1,8,0:0:0:0:
288,224,74922,1,0,0:0:0:0:
288,224,75160,1,8,0:0:0:0:
288,224,75398,1,8,0:0:0:0:
288,224,75874,1,8,0:0:0:0:
288,224,76350,1,8,0:0:0:0:
288,224,76588,1,8,0:0:0:0:
288,224,76826,1,0,0:0:0:0:
96,224,77779,1,4,0:0:0:0:
288,224,78255,1,8,0:0:0:0:
256,192,78731,1,0,0:0:0:0:
320,224,79088,1,8,0:0:0:0:
320,224,79446,1,8,0:0:0:0:
256,192,79684,1,0,0:0:0:0:
320,224,80160,1,8,0:0:0:0:
288,192,80636,1,0,0:0:0:0:
320,192,81588,1,0,0:0:0:0:
192,224,82065,1,8,0:0:0:0:
320,256,82541,1,0,0:0:0:0:
320,224,82898,1,8,0:0:0:0:
320,224,83255,1,8,0:0:0:0:
256,224,83493,1,0,0:0:0:0:
320,224,83969,1,8,0:0:0:0:
288,192,84446,1,0,0:0:0:0:
320,192,84922,1,8,0:0:0:0:
320,192,85160,1,8,0:0:0:0:
288,160,85398,1,4,0:0:0:0:
288,224,85874,1,8,0:0:0:0:
320,256,86350,1,0,0:0:0:0:
320,224,86707,1,8,0:0:0:0:
320,224,87065,1,8,0:0:0:0:
256,224,87303,1,0,0:0:0:0:
320,192,87779,1,8,0:0:0:0:
256,192,88255,1,0,0:0:0:0:
320,192,89207,1,0,0:0:0:0:
192,224,89684,1,8,0:0:0:0:
320,256,90160,1,0,0:0:0:0:
320,224,90517,1,8,0:0:0:0:
320,224,90874,1,8,0:0:0:0:
256,224,91112,1,0,0:0:0:0:
320,224,91588,1,8,0:0:0:0:
320,192,92065,1,0,0:0:0:0:
256,192,92541,1,8,0:0:0:0:
256,192,92779,1,8,0:0:0:0:
256,224,93017,1,4,0:0:0:0:
