osu file format v14

[General]
AudioFilename: audio.mp3
AudioLeadIn: 0
PreviewTime: 31445
Countdown: 0
SampleSet: Normal
StackLeniency: 0.7
Mode: 1
LetterboxInBreaks: 0
WidescreenStoryboard: 0

[Editor]
Bookmarks: 1446,11768,22091,32413,53058,63381,73704,84026,94349,104671,114994,125316,125639,135639,145962,156284,165316,165962,168058
DistanceSpacing: 0.8
BeatDivisor: 4
GridSize: 32
TimelineZoom: 1.6

[Metadata]
Title:Mizuoto to Curtain
TitleUnicode:水音とカーテン
Artist:MIMI
ArtistUnicode:MIMI
Creator:eiri-
Version:Oni
Source:osu!
Tags:Ayyri Hatsune Miku feat. 初音ミク Featured Artist FA Japanese Pop Vocaloid
BeatmapID:2495328
BeatmapSetID:1198060

[Difficulty]
HPDrainRate:5
CircleSize:2
OverallDifficulty:5
ApproachRate:10
SliderMultiplier:1.4
SliderTickRate:1

[Events]
//Background and Video events
0,0,"Miku 487.jpg",0,-40
//Break Periods
//Storyboard Layer 0 (Background)
//Storyboard Layer 1 (Fail)
//Storyboard Layer 2 (Pass)
//Storyboard Layer 3 (Foreground)
//Storyboard Layer 4 (Overlay)
//Storyboard Sound Samples

[TimingPoints]
1446,322.58064516129,4,1,0,50,1,0
1446,-125,4,1,0,50,0,0
11728,-111.111111111111,4,1,0,60,0,0
21728,-117.647058823529,4,1,0,60,0,0
21889,-125,4,1,0,60,0,0
22050,-133.333333333333,4,1,0,60,0,0
23341,-133.333333333333,4,1,0,50,0,0
31405,-125,4,1,0,60,0,0
31728,-117.647058823529,4,1,0,70,0,0
32050,-111.111111111111,4,1,0,80,0,0
32413,-100,4,1,0,100,0,1
53058,-100,4,1,0,75,0,0
73018,-103.092783505155,4,1,0,75,0,0
73179,-105.263157894737,4,1,0,75,0,0
73341,-111.111111111111,4,1,0,75,0,0
73502,-117.647058823529,4,1,0,75,0,0
73663,-125,4,1,0,75,0,0
73986,-125,4,1,0,50,0,0
83986,-111.111111111111,4,1,0,60,0,0
94308,-100,4,1,0,70,0,0
104308,-105.263157894737,4,1,0,70,0,0
104470,-117.647058823529,4,1,0,70,0,0
104631,-125,4,1,0,70,0,0
105921,-125,4,1,0,50,0,0
113986,-117.647058823529,4,1,0,60,0,0
114308,-111.111111111111,4,1,0,70,0,0
114631,-105.263157894737,4,1,0,80,0,0
114994,-100,4,1,0,100,0,1
125316,-100,4,1,0,75,0,0
125639,-100,4,1,0,100,0,1
135639,-100,4,1,0,75,0,0
145437,-99.009900990099,4,1,0,75,0,0
145518,-98.0392156862745,4,1,0,75,0,0
145599,-97.0873786407767,4,1,0,75,0,0
145760,-95.2380952380952,4,1,0,75,0,0
145841,-93.4579439252336,4,1,0,75,0,0
145921,-90.9090909090909,4,1,0,90,0,0
155599,-95.2380952380952,4,1,0,80,0,0
155760,-100,4,1,0,70,0,0
155921,-105.263157894737,4,1,0,60,0,0
156083,-117.647058823529,4,1,0,55,0,0
156244,-125,4,1,0,50,0,0
165276,-121.951219512195,4,1,0,50,0,0
165437,-119.047619047619,4,1,0,50,0,0
165599,-116.279069767442,4,1,0,50,0,0
165760,-113.636363636364,4,1,0,50,0,0
165921,-111.111111111111,4,1,0,75,0,0
166083,-111.111111111111,4,1,0,25,0,0
166284,-111.111111111111,4,1,0,30,0,0
166566,-111.111111111111,4,1,0,35,0,0
166889,-111.111111111111,4,1,0,40,0,0
167212,-111.111111111111,4,1,0,45,0,0
167534,-111.111111111111,4,1,0,50,0,0
167857,-111.111111111111,4,1,0,55,0,0
168018,-111.111111111111,4,1,0,60,0,0

[HitObjects]
256,192,1446,5,8,0:0:0:0:
256,192,1607,1,0,0:0:0:0:
256,192,1768,1,0,0:0:0:0:
256,192,1929,1,8,0:0:0:0:
256,192,2252,1,8,0:0:0:0:
256,192,2413,1,0,0:0:0:0:
256,192,2736,1,0,0:0:0:0:
256,192,2897,1,0,0:0:0:0:
256,192,3058,1,8,0:0:0:0:
256,192,3220,1,0,0:0:0:0:
256,192,3542,1,8,0:0:0:0:
256,192,3704,1,0,0:0:0:0:
256,192,4026,1,0,0:0:0:0:
256,192,4187,1,8,0:0:0:0:
256,192,4349,1,0,0:0:0:0:
256,192,4510,1,8,0:0:0:0:
256,192,4833,1,8,0:0:0:0:
256,192,4994,1,0,0:0:0:0:
256,192,5316,1,0,0:0:0:0:
256,192,5478,1,0,0:0:0:0:
256,192,5639,1,8,0:0:0:0:
256,192,5800,1,8,0:0:0:0:
256,192,6123,1,0,0:0:0:0:
256,192,6284,1,8,0:0:0:0:
256,192,6607,1,8,0:0:0:0:
256,192,6768,1,8,0:0:0:0:
256,192,6929,1,0,0:0:0:0:
256,192,7091,1,8,0:0:0:0:
256,192,7413,1,8,0:0:0:0:
256,192,7575,1,0,0:0:0:0:
256,192,7897,1,0,0:0:0:0:
256,192,8058,1,0,0:0:0:0:
256,192,8220,1,8,0:0:0:0:
256,192,8381,1,0,0:0:0:0:
256,192,8704,1,0,0:0:0:0:
256,192,8865,1,8,0:0:0:0:
256,192,9187,1,0,0:0:0:0:
256,192,9349,1,8,0:0:0:0:
256,192,9510,1,0,0:0:0:0:
256,192,9671,1,8,0:0:0:0:
256,192,9994,1,8,0:0:0:0:
256,192,10155,1,0,0:0:0:0:
256,192,10478,1,0,0:0:0:0:
256,192,10639,1,0,0:0:0:0:
256,192,10800,1,8,0:0:0:0:
256,192,10962,1,8,0:0:0:0:
256,192,11284,1,0,0:0:0:0:
256,192,11445,1,8,0:0:0:0:
256,192,11768,1,0,0:0:0:0:
256,192,12252,1,0,0:0:0:0:
256,192,12413,1,8,0:0:0:0:
256,192,12736,1,0,0:0:0:0:
256,192,12897,1,8,0:0:0:0:
256,192,13058,1,0,0:0:0:0:
256,192,13542,1,0,0:0:0:0:
256,192,13704,1,8,0:0:0:0:
256,192,14026,1,8,0:0:0:0:
256,192,14187,1,8,0:0:0:0:
256,192,14349,1,0,0:0:0:0:
256,192,14833,1,0,0:0:0:0:
256,192,14994,1,8,0:0:0:0:
256,192,15316,1,0,0:0:0:0:
256,192,15478,1,8,0:0:0:0:
256,192,15639,1,0,0:0:0:0:
256,192,15800,1,0,0:0:0:0:
256,192,16123,1,0,0:0:0:0:
256,192,16284,1,8,0:0:0:0:
256,192,16607,1,8,0:0:0:0:
256,192,16687,1,8,0:0:0:0:
256,192,16768,1,8,0:0:0:0:
256,192,16929,1,0,0:0:0:0:
256,192,17413,1,0,0:0:0:0:
256,192,17575,1,8,0:0:0:0:
256,192,17897,1,0,0:0:0:0:
256,192,18058,1,8,0:0:0:0:
256,192,18220,1,0,0:0:0:0:
256,192,18704,1,0,0:0:0:0:
256,192,18865,1,8,0:0:0:0:
256,192,19187,1,8,0:0:0:0:
256,192,19349,1,8,0:0:0:0:
256,192,19510,1,0,0:0:0:0:
256,192,19994,1,0,0:0:0:0:
256,192,20155,1,8,0:0:0:0:
256,192,20478,1,0,0:0:0:0:
256,192,20800,1,8,0:0:0:0:
256,192,21284,1,0,0:0:0:0:
256,192,21445,1,8,0:0:0:0:
256,192,21768,1,0,0:0:0:0:
256,192,21929,1,0,0:0:0:0:
256,192,22091,1,12,0:0:0:0:
256,192,23381,1,0,0:0:0:0:
256,192,24671,1,0,0:0:0:0:
256,192,25962,1,0,0:0:0:0:
256,192,27252,1,0,0:0:0:0:
256,192,28542,1,0,0:0:0:0:
256,192,29833,1,0,0:0:0:0:
256,192,31123,1,0,0:0:0:0:
256,192,31445,1,8,0:0:0:0:
256,192,31768,1,8,0:0:0:0:
256,192,32091,1,0,0:0:0:0:
256,192,32413,1,12,0:0:0:0:
256,192,32736,1,8,0:0:0:0:
256,192,32897,1,0,0:0:0:0:
256,192,32978,1,0,0:0:0:0:
256,192,33058,1,0,0:0:0:0:
256,192,33220,1,8,0:0:0:0:
256,192,33381,1,0,0:0:0:0:
256,192,33542,1,8,0:0:0:0:
256,192,33623,1,8,0:0:0:0:
256,192,33704,1,0,0:0:0:0:
256,192,33865,1,0,0:0:0:0:
256,192,34026,1,8,0:0:0:0:
256,192,34187,1,8,0:0:0:0:
256,192,34510,1,0,0:0:0:0:
256,192,34671,1,8,0:0:0:0:
256,192,34833,1,0,0:0:0:0:
256,192,34994,1,8,0:0:0:0:
256,192,35075,1,8,0:0:0:0:
256,192,35155,1,8,0:0:0:0:
256,192,35316,1,0,0:0:0:0:
256,192,35478,1,8,0:0:0:0:
256,192,35639,1,0,0:0:0:0:
256,192,35800,1,8,0:0:0:0:
256,192,35962,1,0,0:0:0:0:
256,192,36123,1,8,0:0:0:0:
256,192,36204,1,8,0:0:0:0:
256,192,36284,1,0,0:0:0:0:
256,192,36445,1,0,0:0:0:0:
256,192,36607,1,8,0:0:0:0:
256,192,36768,1,0,0:0:0:0:
256,192,36929,1,8,0:0:0:0:
256,192,37091,1,8,0:0:0:0:
256,192,37252,1,0,0:0:0:0:
256,192,37413,1,0,0:0:0:0:
256,192,37494,1,0,0:0:0:0:
256,192,37575,1,8,0:0:0:0:
256,192,37897,1,8,0:0:0:0:
256,192,38058,1,0,0:0:0:0:
256,192,38381,1,0,0:0:0:0:
256,192,38542,1,8,0:0:0:0:
256,192,38704,1,0,0:0:0:0:
256,192,38784,1,0,0:0:0:0:
256,192,38865,1,0,0:0:0:0:
256,192,39026,1,8,0:0:0:0:
256,192,39187,1,0,0:0:0:0:
256,192,39349,1,8,0:0:0:0:
256,192,39429,1,8,0:0:0:0:
256,192,39510,1,0,0:0:0:0:
256,192,39671,1,0,0:0:0:0:
256,192,39833,1,8,0:0:0:0:
256,192,39994,1,8,0:0:0:0:
256,192,40155,1,0,0:0:0:0:
256,192,40478,1,8,0:0:0:0:
256,192,40639,1,0,0:0:0:0:
256,192,40962,1,8,0:0:0:0:
256,192,41284,1,0,0:0:0:0:
256,192,41365,1,0,0:0:0:0:
256,192,41445,1,8,0:0:0:0:
256,192,41607,1,0,0:0:0:0:
256,192,41768,1,8,0:0:0:0:
256,192,41929,1,8,0:0:0:0:
256,192,42091,1,0,0:0:0:0:
256,192,42252,1,8,0:0:0:0:
256,192,42333,1,8,0:0:0:0:
256,192,42413,1,8,0:0:0:0:
256,192,42575,1,0,0:0:0:0:
256,192,42655,1,0,0:0:0:0:
256,192,42736,1,12,0:0:0:0:
256,192,43058,1,8,0:0:0:0:
256,192,43220,1,0,0:0:0:0:
256,192,43300,1,0,0:0:0:0:
256,192,43381,1,0,0:0:0:0:
256,192,43542,1,8,0:0:0:0:
256,192,43704,1,0,0:0:0:0:
256,192,43865,1,8,0:0:0:0:
256,192,43945,1,8,0:0:0:0:
256,192,44026,1,0,0:0:0:0:
256,192,44187,1,0,0:0:0:0:
256,192,44349,1,8,0:0:0:0:
256,192,44510,1,8,0:0:0:0:
256,192,44591,1,8,0:0:0:0:
256,192,44671,1,8,0:0:0:0:
256,192,44833,1,0,0:0:0:0:
256,192,44994,1,8,0:0:0:0:
256,192,45155,1,0,0:0:0:0:
256,192,45316,1,8,0:0:0:0:
256,192,45478,1,8,0:0:0:0:
256,192,45639,1,0,0:0:0:0:
256,192,45800,1,8,0:0:0:0:
256,192,45962,1,0,0:0:0:0:
256,192,46123,1,8,0:0:0:0:
256,192,46284,1,0,0:0:0:0:
256,192,46445,1,8,0:0:0:0:
256,192,46526,1,8,0:0:0:0:
256,192,46607,1,0,0:0:0:0:
256,192,46768,1,0,0:0:0:0:
256,192,46929,1,8,0:0:0:0:
256,192,47091,1,0,0:0:0:0:
256,192,47252,1,8,0:0:0:0:
256,192,47413,1,8,0:0:0:0:
256,192,47575,1,0,0:0:0:0:
256,192,47736,1,0,0:0:0:0:
256,192,47816,1,0,0:0:0:0:
256,192,47897,1,8,0:0:0:0:
256,192,48220,1,8,0:0:0:0:
256,192,48381,1,0,0:0:0:0:
256,192,48704,1,0,0:0:0:0:
256,192,48865,1,8,0:0:0:0:
256,192,49026,1,8,0:0:0:0:
256,192,49107,1,8,0:0:0:0:
256,192,49187,1,0,0:0:0:0:
256,192,49349,1,8,0:0:0:0:
256,192,49510,1,0,0:0:0:0:
256,192,49671,1,8,0:0:0:0:
256,192,49752,1,8,0:0:0:0:
256,192,49833,1,8,0:0:0:0:
256,192,49994,1,0,0:0:0:0:
256,192,50155,1,8,0:0:0:0:
256,192,50316,1,8,0:0:0:0:
256,192,50478,1,0,0:0:0:0:
256,192,50800,1,8,0:0:0:0:
256,192,50962,1,0,0:0:0:0:
256,192,51284,1,8,0:0:0:0:
256,192,51607,1,0,0:0:0:0:
256,192,51687,1,0,0:0:0:0:
256,192,51768,1,0,0:0:0:0:
256,192,51929,1,0,0:0:0:0:
256,192,52091,1,8,0:0:0:0:
256,192,52252,1,8,0:0:0:0:
256,192,52413,1,0,0:0:0:0:
256,192,52575,1,8,0:0:0:0:
256,192,52655,1,8,0:0:0:0:
256,192,52736,1,8,0:0:0:0:
256,192,52897,1,0,0:0:0:0:
256,192,52978,1,0,0:0:0:0:
256,192,53058,1,12,0:0:0:0:
256,192,53381,1,0,0:0:0:0:
256,192,53542,1,8,0:0:0:0:
256,192,53865,1,8,0:0:0:0:
256,192,54026,1,0,0:0:0:0:
256,192,54187,1,8,0:0:0:0:
256,192,54268,1,8,0:0:0:0:
256,192,54349,1,0,0:0:0:0:
256,192,54510,1,0,0:0:0:0:
256,192,54671,1,8,0:0:0:0:
256,192,54833,1,0,0:0:0:0:
256,192,55155,1,0,0:0:0:0:
256,192,55316,1,8,0:0:0:0:
256,192,55478,1,8,0:0:0:0:
256,192,55558,1,8,0:0:0:0:
256,192,55639,1,8,0:0:0:0:
256,192,55800,1,0,0:0:0:0:
256,192,55962,1,8,0:0:0:0:
256,192,56123,1,0,0:0:0:0:
256,192,56284,1,8,0:0:0:0:
256,192,56445,1,8,0:0:0:0:
256,192,56607,1,0,0:0:0:0:
256,192,56768,1,8,0:0:0:0:
256,192,57091,1,0,0:0:0:0:
256,192,57252,1,8,0:0:0:0:
256,192,57413,1,0,0:0:0:0:
256,192,57575,1,8,0:0:0:0:
256,192,57736,1,8,0:0:0:0:
256,192,57897,1,8,0:0:0:0:
256,192,58058,1,8,0:0:0:0:
256,192,58220,1,0,0:0:0:0:
256,192,58381,1,0,0:0:0:0:
256,192,58542,1,8,0:0:0:0:
256,192,58704,1,0,0:0:0:0:
256,192,59026,1,0,0:0:0:0:
256,192,59187,1,8,0:0:0:0:
256,192,59349,1,8,0:0:0:0:
256,192,59429,1,8,0:0:0:0:
256,192,59510,1,0,0:0:0:0:
256,192,59671,1,0,0:0:0:0:
256,192,59833,1,8,0:0:0:0:
256,192,59994,1,0,0:0:0:0:
256,192,60316,1,0,0:0:0:0:
256,192,60478,1,8,0:0:0:0:
256,192,60639,1,8,0:0:0:0:
256,192,60720,1,8,0:0:0:0:
256,192,60800,1,8,0:0:0:0:
256,192,60962,1,0,0:0:0:0:
256,192,61123,1,8,0:0:0:0:
256,192,61284,1,0,0:0:0:0:
256,192,61445,1,8,0:0:0:0:
256,192,61607,1,8,0:0:0:0:
256,192,61768,1,0,0:0:0:0:
256,192,61929,1,8,0:0:0:0:
256,192,62252,1,0,0:0:0:0:
256,192,62413,1,8,0:0:0:0:
256,192,62575,1,0,0:0:0:0:
256,192,62736,1,8,0:0:0:0:
256,192,62897,1,8,0:0:0:0:
256,192,62978,1,8,0:0:0:0:
256,192,63058,1,8,0:0:0:0:
256,192,63220,1,0,0:0:0:0:
256,192,63300,1,0,0:0:0:0:
256,192,63381,1,12,0:0:0:0:
256,192,63542,1,0,0:0:0:0:
256,192,63704,1,8,0:0:0:0:
256,192,63865,1,8,0:0:0:0:
256,192,64026,1,0,0:0:0:0:
256,192,64107,1,0,0:0:0:0:
256,192,64187,1,0,0:0:0:0:
256,192,64349,1,8,0:0:0:0:
256,192,64510,1,0,0:0:0:0:
256,192,64671,1,8,0:0:0:0:
256,192,64994,1,8,0:0:0:0:
256,192,65155,1,0,0:0:0:0:
256,192,65316,1,8,0:0:0:0:
256,192,65397,1,8,0:0:0:0:
256,192,65478,1,8,0:0:0:0:
256,192,65639,1,8,0:0:0:0:
256,192,65800,1,0,0:0:0:0:
256,192,65962,1,8,0:0:0:0:
256,192,66123,1,0,0:0:0:0:
256,192,66284,1,8,0:0:0:0:
256,192,66445,1,8,0:0:0:0:
256,192,66607,1,0,0:0:0:0:
256,192,66687,1,0,0:0:0:0:
256,192,66768,1,0,0:0:0:0:
256,192,66929,1,8,0:0:0:0:
256,192,67091,1,0,0:0:0:0:
256,192,67252,1,8,0:0:0:0:
256,192,67575,1,8,0:0:0:0:
256,192,67736,1,0,0:0:0:0:
256,192,67897,1,8,0:0:0:0:
256,192,67978,1,8,0:0:0:0:
256,192,68058,1,8,0:0:0:0:
256,192,68220,1,8,0:0:0:0:
256,192,68381,1,0,0:0:0:0:
256,192,68542,1,8,0:0:0:0:
256,192,68704,1,0,0:0:0:0:
256,192,68865,1,8,0:0:0:0:
256,192,69026,1,8,0:0:0:0:
256,192,69187,1,0,0:0:0:0:
256,192,69268,1,0,0:0:0:0:
256,192,69349,1,0,0:0:0:0:
256,192,69510,1,8,0:0:0:0:
256,192,69671,1,0,0:0:0:0:
256,192,69833,1,8,0:0:0:0:
256,192,70155,1,8,0:0:0:0:
256,192,70316,1,0,0:0:0:0:
256,192,70478,1,8,0:0:0:0:
256,192,70558,1,8,0:0:0:0:
256,192,70639,1,8,0:0:0:0:
256,192,70800,1,8,0:0:0:0:
256,192,70962,1,0,0:0:0:0:
256,192,71123,1,8,0:0:0:0:
256,192,71284,1,0,0:0:0:0:
256,192,71445,1,8,0:0:0:0:
256,192,71607,1,8,0:0:0:0:
256,192,71768,1,0,0:0:0:0:
256,192,71849,1,0,0:0:0:0:
256,192,71929,1,0,0:0:0:0:
256,192,72091,1,8,0:0:0:0:
256,192,72252,1,0,0:0:0:0:
256,192,72413,1,8,0:0:0:0:
256,192,72575,1,0,0:0:0:0:
256,192,72736,1,8,0:0:0:0:
256,192,72816,1,8,0:0:0:0:
256,192,72897,1,8,0:0:0:0:
256,192,73058,1,8,0:0:0:0:
256,192,73220,1,0,0:0:0:0:
256,192,73381,1,8,0:0:0:0:
256,192,73542,1,0,0:0:0:0:
256,192,73704,1,12,0:0:0:0:
256,192,74026,1,8,0:0:0:0:
256,192,74187,1,0,0:0:0:0:
256,192,74349,1,0,0:0:0:0:
256,192,74510,1,8,0:0:0:0:
256,192,74671,1,8,0:0:0:0:
256,192,74994,1,0,0:0:0:0:
256,192,75316,1,8,0:0:0:0:
256,192,75478,1,0,0:0:0:0:
256,192,75639,1,8,0:0:0:0:
256,192,75800,1,0,0:0:0:0:
256,192,75962,1,0,0:0:0:0:
256,192,76284,1,0,0:0:0:0:
256,192,76607,1,8,0:0:0:0:
256,192,76768,1,0,0:0:0:0:
256,192,76929,1,0,0:0:0:0:
256,192,77091,1,8,0:0:0:0:
256,192,77252,1,8,0:0:0:0:
256,192,77575,1,8,0:0:0:0:
256,192,77736,1,0,0:0:0:0:
256,192,77897,1,8,0:0:0:0:
256,192,78058,1,8,0:0:0:0:
256,192,78220,1,0,0:0:0:0:
256,192,78381,1,0,0:0:0:0:
256,192,78542,1,8,0:0:0:0:
256,192,78865,1,0,0:0:0:0:
256,192,79187,1,8,0:0:0:0:
256,192,79349,1,0,0:0:0:0:
256,192,79510,1,0,0:0:0:0:
256,192,79671,1,8,0:0:0:0:
256,192,79833,1,8,0:0:0:0:
256,192,80155,1,0,0:0:0:0:
256,192,80478,1,8,0:0:0:0:
256,192,80639,1,0,0:0:0:0:
256,192,80800,1,8,0:0:0:0:
256,192,80962,1,0,0:0:0:0:
256,192,81123,1,0,0:0:0:0:
256,192,81445,1,0,0:0:0:0:
256,192,81768,1,8,0:0:0:0:
256,192,81929,1,0,0:0:0:0:
256,192,82091,1,0,0:0:0:0:
256,192,82252,1,8,0:0:0:0:
256,192,82413,1,8,0:0:0:0:
256,192,82575,1,0,0:0:0:0:
256,192,82736,1,8,0:0:0:0:
256,192,83058,1,0,0:0:0:0:
256,192,83220,1,8,0:0:0:0:
256,192,83381,1,0,0:0:0:0:
256,192,84026,1,0,0:0:0:0:
256,192,84349,1,0,0:0:0:0:
256,192,84510,1,0,0:0:0:0:
256,192,84671,1,8,0:0:0:0:
256,192,84994,1,0,0:0:0:0:
256,192,85155,1,8,0:0:0:0:
256,192,85316,1,0,0:0:0:0:
256,192,85639,1,8,0:0:0:0:
256,192,85800,1,0,0:0:0:0:
256,192,85962,1,8,0:0:0:0:
256,192,86284,1,8,0:0:0:0:
256,192,86445,1,8,0:0:0:0:
256,192,86607,1,0,0:0:0:0:
256,192,86929,1,0,0:0:0:0:
256,192,87091,1,0,0:0:0:0:
256,192,87252,1,8,0:0:0:0:
256,192,87575,1,0,0:0:0:0:
256,192,87736,1,8,0:0:0:0:
256,192,87897,1,0,0:0:0:0:
256,192,88058,1,0,0:0:0:0:
256,192,88381,1,0,0:0:0:0:
256,192,88542,1,8,0:0:0:0:
256,192,88865,1,8,0:0:0:0:
256,192,88945,1,8,0:0:0:0:
256,192,89026,1,8,0:0:0:0:
256,192,89187,1,0,0:0:0:0:
256,192,89510,1,0,0:0:0:0:
256,192,89671,1,0,0:0:0:0:
256,192,89833,1,8,0:0:0:0:
256,192,90155,1,0,0:0:0:0:
256,192,90316,1,8,0:0:0:0:
256,192,90478,1,0,0:0:0:0:
256,192,90800,1,8,0:0:0:0:
256,192,90962,1,0,0:0:0:0:
256,192,91123,1,8,0:0:0:0:
256,192,91445,1,8,0:0:0:0:
256,192,91607,1,8,0:0:0:0:
256,192,91768,1,0,0:0:0:0:
256,192,92091,1,0,0:0:0:0:
256,192,92252,1,0,0:0:0:0:
256,192,92413,1,8,0:0:0:0:
256,192,92736,1,0,0:0:0:0:
256,192,92897,1,8,0:0:0:0:
256,192,93058,1,0,0:0:0:0:
256,192,93542,1,0,0:0:0:0:
256,192,93704,1,8,0:0:0:0:
256,192,94026,1,0,0:0:0:0:
256,192,94349,1,8,0:0:0:0:
256,192,94510,1,0,0:0:0:0:
256,192,94671,1,8,0:0:0:0:
256,192,94833,1,8,0:0:0:0:
256,192,94994,1,0,0:0:0:0:
256,192,95316,1,0,0:0:0:0:
256,192,95478,1,8,0:0:0:0:
256,192,95639,1,0,0:0:0:0:
256,192,95962,1,0,0:0:0:0:
256,192,96284,1,0,0:0:0:0:
256,192,96607,1,8,0:0:0:0:
256,192,96768,1,0,0:0:0:0:
256,192,96929,1,8,0:0:0:0:
256,192,97091,1,8,0:0:0:0:
256,192,97252,1,0,0:0:0:0:
256,192,97413,1,0,0:0:0:0:
256,192,97575,1,8,0:0:0:0:
256,192,97897,1,8,0:0:0:0:
256,192,98058,1,8,0:0:0:0:
256,192,98220,1,0,0:0:0:0:
256,192,98542,1,0,0:0:0:0:
256,192,98704,1,8,0:0:0:0:
256,192,98865,1,0,0:0:0:0:
256,192,99026,1,8,0:0:0:0:
256,192,99187,1,8,0:0:0:0:
256,192,99349,1,0,0:0:0:0:
256,192,99510,1,8,0:0:0:0:
256,192,99671,1,0,0:0:0:0:
256,192,99833,1,8,0:0:0:0:
256,192,99994,1,8,0:0:0:0:
256,192,100155,1,0,0:0:0:0:
256,192,100478,1,0,0:0:0:0:
256,192,100639,1,8,0:0:0:0:
256,192,100800,1,0,0:0:0:0:
256,192,101123,1,0,0:0:0:0:
256,192,101445,1,0,0:0:0:0:
256,192,101607,1,8,0:0:0:0:
256,192,101768,1,8,0:0:0:0:
256,192,101929,1,0,0:0:0:0:
256,192,102091,1,8,0:0:0:0:
256,192,102252,1,0,0:0:0:0:
256,192,102413,1,8,0:0:0:0:
256,192,102575,1,8,0:0:0:0:
256,192,102736,1,0,0:0:0:0:
256,192,103058,1,0,0:0:0:0:
256,192,103220,1,8,0:0:0:0:
256,192,103381,1,0,0:0:0:0:
256,192,103542,1,0,0:0:0:0:
256,192,103704,1,0,0:0:0:0:
256,192,103865,1,8,0:0:0:0:
256,192,104026,1,0,0:0:0:0:
256,192,104349,1,0,0:0:0:0:
256,192,104510,1,0,0:0:0:0:
256,192,104671,1,12,0:0:0:0:
256,192,105962,1,0,0:0:0:0:
256,192,107252,1,0,0:0:0:0:
256,192,108542,1,0,0:0:0:0:
256,192,109833,1,0,0:0:0:0:
256,192,111123,1,0,0:0:0:0:
256,192,112413,1,0,0:0:0:0:
256,192,113704,1,0,0:0:0:0:
256,192,114026,1,8,0:0:0:0:
256,192,114349,1,8,0:0:0:0:
256,192,114671,1,0,0:0:0:0:
256,192,114994,1,12,0:0:0:0:
256,192,115316,1,8,0:0:0:0:
256,192,115478,1,0,0:0:0:0:
256,192,115558,1,0,0:0:0:0:
256,192,115639,1,0,0:0:0:0:
256,192,115800,1,0,0:0:0:0:
256,192,115962,1,8,0:0:0:0:
256,192,116123,1,8,0:0:0:0:
256,192,116204,1,8,0:0:0:0:
256,192,116284,1,8,0:0:0:0:
256,192,116445,1,0,0:0:0:0:
256,192,116607,1,8,0:0:0:0:
256,192,116768,1,8,0:0:0:0:
256,192,116849,1,8,0:0:0:0:
256,192,116929,1,0,0:0:0:0:
256,192,117091,1,0,0:0:0:0:
256,192,117252,1,8,0:0:0:0:
256,192,117413,1,0,0:0:0:0:
256,192,117575,1,8,0:0:0:0:
256,192,117655,1,8,0:0:0:0:
256,192,117736,1,8,0:0:0:0:
256,192,117897,1,0,0:0:0:0:
256,192,118058,1,8,0:0:0:0:
256,192,118220,1,0,0:0:0:0:
256,192,118381,1,0,0:0:0:0:
256,192,118542,1,8,0:0:0:0:
256,192,118704,1,8,0:0:0:0:
256,192,118784,1,8,0:0:0:0:
256,192,118865,1,0,0:0:0:0:
256,192,119026,1,0,0:0:0:0:
256,192,119187,1,8,0:0:0:0:
256,192,119349,1,0,0:0:0:0:
256,192,119510,1,8,0:0:0:0:
256,192,119671,1,8,0:0:0:0:
256,192,119833,1,0,0:0:0:0:
256,192,119994,1,0,0:0:0:0:
256,192,120075,1,0,0:0:0:0:
256,192,120155,1,8,0:0:0:0:
256,192,120478,1,0,0:0:0:0:
256,192,120639,1,8,0:0:0:0:
256,192,120800,1,0,0:0:0:0:
256,192,120962,1,0,0:0:0:0:
256,192,121123,1,8,0:0:0:0:
256,192,121284,1,0,0:0:0:0:
256,192,121365,1,0,0:0:0:0:
256,192,121445,1,0,0:0:0:0:
256,192,121607,1,8,0:0:0:0:
256,192,121768,1,0,0:0:0:0:
256,192,121929,1,8,0:0:0:0:
256,192,122010,1,8,0:0:0:0:
256,192,122091,1,0,0:0:0:0:
256,192,122252,1,0,0:0:0:0:
256,192,122413,1,8,0:0:0:0:
256,192,122575,1,8,0:0:0:0:
256,192,122736,1,0,0:0:0:0:
256,192,123058,1,0,0:0:0:0:
256,192,123220,1,8,0:0:0:0:
256,192,123300,1,8,0:0:0:0:
256,192,123381,1,0,0:0:0:0:
256,192,123542,1,0,0:0:0:0:
256,192,123704,1,8,0:0:0:0:
256,192,123865,1,8,0:0:0:0:
256,192,123945,1,8,0:0:0:0:
256,192,124026,1,8,0:0:0:0:
256,192,124187,1,0,0:0:0:0:
256,192,124349,1,8,0:0:0:0:
256,192,124510,1,8,0:0:0:0:
256,192,124671,1,0,0:0:0:0:
256,192,124833,1,8,0:0:0:0:
256,192,124913,1,8,0:0:0:0:
256,192,124994,1,8,0:0:0:0:
256,192,125155,1,0,0:0:0:0:
256,192,125236,1,0,0:0:0:0:
256,192,125316,1,0,0:0:0:0:
256,192,125639,1,12,0:0:0:0:
256,192,125800,1,0,0:0:0:0:
256,192,126123,1,0,0:0:0:0:
256,192,126284,1,8,0:0:0:0:
256,192,126445,1,8,0:0:0:0:
256,192,126526,1,8,0:0:0:0:
256,192,126607,1,0,0:0:0:0:
256,192,126768,1,0,0:0:0:0:
256,192,126929,1,8,0:0:0:0:
256,192,127091,1,8,0:0:0:0:
256,192,127171,1,8,0:0:0:0:
256,192,127252,1,8,0:0:0:0:
256,192,127413,1,0,0:0:0:0:
256,192,127575,1,8,0:0:0:0:
256,192,127736,1,0,0:0:0:0:
256,192,127897,1,8,0:0:0:0:
256,192,128058,1,8,0:0:0:0:
256,192,128220,1,0,0:0:0:0:
256,192,128381,1,8,0:0:0:0:
256,192,128542,1,0,0:0:0:0:
256,192,128704,1,0,0:0:0:0:
256,192,128865,1,8,0:0:0:0:
256,192,129026,1,8,0:0:0:0:
256,192,129107,1,8,0:0:0:0:
256,192,129187,1,0,0:0:0:0:
256,192,129349,1,0,0:0:0:0:
256,192,129510,1,8,0:0:0:0:
256,192,129671,1,0,0:0:0:0:
256,192,129833,1,8,0:0:0:0:
256,192,129994,1,8,0:0:0:0:
256,192,130155,1,0,0:0:0:0:
256,192,130316,1,0,0:0:0:0:
256,192,130397,1,0,0:0:0:0:
256,192,130478,1,8,0:0:0:0:
256,192,130800,1,8,0:0:0:0:
256,192,130962,1,8,0:0:0:0:
256,192,131042,1,8,0:0:0:0:
256,192,131123,1,0,0:0:0:0:
256,192,131284,1,0,0:0:0:0:
256,192,131445,1,8,0:0:0:0:
256,192,131607,1,8,0:0:0:0:
256,192,131687,1,8,0:0:0:0:
256,192,131768,1,8,0:0:0:0:
256,192,131929,1,0,0:0:0:0:
256,192,132091,1,8,0:0:0:0:
256,192,132252,1,8,0:0:0:0:
256,192,132333,1,8,0:0:0:0:
256,192,132413,1,0,0:0:0:0:
256,192,132575,1,0,0:0:0:0:
256,192,132736,1,8,0:0:0:0:
256,192,132897,1,8,0:0:0:0:
256,192,133058,1,0,0:0:0:0:
256,192,133381,1,0,0:0:0:0:
256,192,133542,1,8,0:0:0:0:
256,192,133623,1,8,0:0:0:0:
256,192,133704,1,0,0:0:0:0:
256,192,133865,1,8,0:0:0:0:
256,192,134026,1,0,0:0:0:0:
256,192,134187,1,8,0:0:0:0:
256,192,134268,1,8,0:0:0:0:
256,192,134349,1,8,0:0:0:0:
256,192,134510,1,0,0:0:0:0:
256,192,134671,1,8,0:0:0:0:
256,192,134833,1,8,0:0:0:0:
256,192,134994,1,0,0:0:0:0:
256,192,135155,1,8,0:0:0:0:
256,192,135236,1,8,0:0:0:0:
256,192,135316,1,8,0:0:0:0:
256,192,135478,1,0,0:0:0:0:
256,192,135558,1,0,0:0:0:0:
256,192,135639,1,12,0:0:0:0:
256,192,135962,1,0,0:0:0:0:
256,192,136123,1,8,0:0:0:0:
256,192,136445,1,8,0:0:0:0:
256,192,136607,1,0,0:0:0:0:
256,192,136768,1,8,0:0:0:0:
256,192,136849,1,8,0:0:0:0:
256,192,136929,1,0,0:0:0:0:
256,192,137091,1,0,0:0:0:0:
256,192,137252,1,8,0:0:0:0:
256,192,137413,1,0,0:0:0:0:
256,192,137736,1,0,0:0:0:0:
256,192,137897,1,8,0:0:0:0:
256,192,138058,1,8,0:0:0:0:
256,192,138139,1,8,0:0:0:0:
256,192,138220,1,8,0:0:0:0:
256,192,138381,1,0,0:0:0:0:
256,192,138542,1,8,0:0:0:0:
256,192,138704,1,0,0:0:0:0:
256,192,138865,1,8,0:0:0:0:
256,192,139026,1,8,0:0:0:0:
256,192,139187,1,0,0:0:0:0:
256,192,139349,1,8,0:0:0:0:
256,192,139671,1,0,0:0:0:0:
256,192,139833,1,8,0:0:0:0:
256,192,139994,1,0,0:0:0:0:
256,192,140155,1,8,0:0:0:0:
256,192,140316,1,8,0:0:0:0:
256,192,140478,1,8,0:0:0:0:
256,192,140639,1,8,0:0:0:0:
256,192,140800,1,0,0:0:0:0:
256,192,140962,1,0,0:0:0:0:
256,192,141123,1,8,0:0:0:0:
256,192,141284,1,0,0:0:0:0:
256,192,141607,1,0,0:0:0:0:
256,192,141768,1,8,0:0:0:0:
256,192,141929,1,8,0:0:0:0:
256,192,142010,1,8,0:0:0:0:
256,192,142091,1,0,0:0:0:0:
256,192,142252,1,0,0:0:0:0:
256,192,142413,1,8,0:0:0:0:
256,192,142575,1,0,0:0:0:0:
256,192,142897,1,0,0:0:0:0:
256,192,143058,1,8,0:0:0:0:
256,192,143220,1,8,0:0:0:0:
256,192,143300,1,8,0:0:0:0:
256,192,143381,1,8,0:0:0:0:
256,192,143542,1,0,0:0:0:0:
256,192,143704,1,8,0:0:0:0:
256,192,143865,1,0,0:0:0:0:
256,192,144026,1,8,0:0:0:0:
256,192,144187,1,8,0:0:0:0:
256,192,144349,1,0,0:0:0:0:
256,192,144510,1,8,0:0:0:0:
256,192,144833,1,0,0:0:0:0:
256,192,144994,1,8,0:0:0:0:
256,192,145155,1,0,0:0:0:0:
256,192,145316,1,8,0:0:0:0:
256,192,145478,1,8,0:0:0:0:
256,192,145558,1,8,0:0:0:0:
256,192,145639,1,8,0:0:0:0:
256,192,145800,1,0,0:0:0:0:
256,192,145881,1,0,0:0:0:0:
256,192,145962,1,12,0:0:0:0:
256,192,146123,1,0,0:0:0:0:
256,192,146284,1,8,0:0:0:0:
256,192,146445,1,8,0:0:0:0:
256,192,146607,1,0,0:0:0:0:
256,192,146687,1,0,0:0:0:0:
256,192,146768,1,0,0:0:0:0:
256,192,146929,1,8,0:0:0:0:
256,192,147091,1,0,0:0:0:0:
256,192,147252,1,8,0:0:0:0:
256,192,147333,1,8,0:0:0:0:
256,192,147413,1,0,0:0:0:0:
256,192,147575,1,8,0:0:0:0:
256,192,147736,1,0,0:0:0:0:
256,192,147897,1,8,0:0:0:0:
256,192,148058,1,8,0:0:0:0:
256,192,148220,1,8,0:0:0:0:
256,192,148381,1,0,0:0:0:0:
256,192,148542,1,8,0:0:0:0:
256,192,148704,1,0,0:0:0:0:
256,192,148865,1,8,0:0:0:0:
256,192,149026,1,8,0:0:0:0:
256,192,149187,1,0,0:0:0:0:
256,192,149268,1,0,0:0:0:0:
256,192,149349,1,0,0:0:0:0:
256,192,149510,1,8,0:0:0:0:
256,192,149671,1,0,0:0:0:0:
256,192,149833,1,8,0:0:0:0:
256,192,149913,1,8,0:0:0:0:
256,192,149994,1,0,0:0:0:0:
256,192,150155,1,8,0:0:0:0:
256,192,150316,1,0,0:0:0:0:
256,192,150478,1,8,0:0:0:0:
256,192,150800,1,8,0:0:0:0:
256,192,150962,1,0,0:0:0:0:
256,192,151123,1,8,0:0:0:0:
256,192,151284,1,0,0:0:0:0:
256,192,151445,1,8,0:0:0:0:
256,192,151607,1,8,0:0:0:0:
256,192,151768,1,0,0:0:0:0:
256,192,151849,1,0,0:0:0:0:
256,192,151929,1,0,0:0:0:0:
256,192,152091,1,8,0:0:0:0:
256,192,152252,1,0,0:0:0:0:
256,192,152413,1,8,0:0:0:0:
256,192,152494,1,8,0:0:0:0:
256,192,152575,1,0,0:0:0:0:
256,192,152736,1,8,0:0:0:0:
256,192,152897,1,0,0:0:0:0:
256,192,153058,1,8,0:0:0:0:
256,192,153220,1,8,0:0:0:0:
256,192,153381,1,8,0:0:0:0:
256,192,153542,1,0,0:0:0:0:
256,192,153704,1,8,0:0:0:0:
256,192,153865,1,0,0:0:0:0:
256,192,154026,1,8,0:0:0:0:
256,192,154187,1,8,0:0:0:0:
256,192,154349,1,0,0:0:0:0:
256,192,154429,1,0,0:0:0:0:
256,192,154510,1,0,0:0:0:0:
256,192,154671,1,8,0:0:0:0:
256,192,154833,1,0,0:0:0:0:
256,192,154994,1,8,0:0:0:0:
256,192,155075,1,8,0:0:0:0:
256,192,155155,1,0,0:0:0:0:
256,192,155316,1,8,0:0:0:0:
256,192,155478,1,8,0:0:0:0:
256,192,155639,1,8,0:0:0:0:
256,192,155800,1,0,0:0:0:0:
256,192,155962,1,8,0:0:0:0:
256,192,156123,1,0,0:0:0:0:
256,192,156284,1,12,0:0:0:0:
256,192,156607,1,8,0:0:0:0:
256,192,156768,1,0,0:0:0:0:
256,192,156929,1,0,0:0:0:0:
256,192,157091,1,8,0:0:0:0:
256,192,157252,1,8,0:0:0:0:
256,192,157575,1,0,0:0:0:0:
256,192,157897,1,8,0:0:0:0:
256,192,158058,1,0,0:0:0:0:
256,192,158220,1,8,0:0:0:0:
256,192,158381,1,0,0:0:0:0:
256,192,158542,1,0,0:0:0:0:
256,192,158865,1,0,0:0:0:0:
256,192,159187,1,8,0:0:0:0:
256,192,159349,1,0,0:0:0:0:
256,192,159510,1,0,0:0:0:0:
256,192,159671,1,8,0:0:0:0:
256,192,159833,1,8,0:0:0:0:
256,192,160155,1,8,0:0:0:0:
256,192,160316,1,0,0:0:0:0:
256,192,160478,1,8,0:0:0:0:
256,192,160639,1,8,0:0:0:0:
256,192,160800,1,0,0:0:0:0:
256,192,160962,1,0,0:0:0:0:
256,192,161123,1,8,0:0:0:0:
256,192,161445,1,0,0:0:0:0:
256,192,161768,1,8,0:0:0:0:
256,192,161929,1,0,0:0:0:0:
256,192,162091,1,0,0:0:0:0:
256,192,162252,1,8,0:0:0:0:
256,192,162413,1,8,0:0:0:0:
256,192,162575,1,8,0:0:0:0:
256,192,162736,1,0,0:0:0:0:
256,192,163058,1,8,0:0:0:0:
256,192,163220,1,0,0:0:0:0:
256,192,163381,1,8,0:0:0:0:
256,192,163542,1,0,0:0:0:0:
256,192,163704,1,0,0:0:0:0:
256,192,163865,1,8,0:0:0:0:
256,192,164026,1,0,0:0:0:0:
256,192,164349,1,8,0:0:0:0:
256,192,164510,1,0,0:0:0:0:
256,192,164671,1,0,0:0:0:0:
256,192,164833,1,8,0:0:0:0:
256,192,164994,1,8,0:0:0:0:
256,192,165155,1,0,0:0:0:0:
256,192,165316,1,8,0:0:0:0:
256,192,165478,1,0,0:0:0:0:
256,192,165639,1,0,0:0:0:0:
256,192,165800,1,8,0:0:0:0:
256,192,165962,1,0,0:0:0:0:
256,192,166123,8,0,168058,0:0:0:0:
