osu file format v14

[General]
AudioFilename: audio.mp3
AudioLeadIn: 0
PreviewTime: 31445
Countdown: 0
SampleSet: Normal
StackLeniency: 0.7
Mode: 1
LetterboxInBreaks: 0
WidescreenStoryboard: 1

[Editor]
Bookmarks: 1446,11768,22091,32413,53058,63381,73704,84026,94349,104671,114994,125316,125639,135639,145962,156284,165316,165962,168058
DistanceSpacing: 0.8
BeatDivisor: 4
GridSize: 32
TimelineZoom: 1.6

[Metadata]
Title:Mizuoto to Curtain
TitleUnicode:水音とカーテン
Artist:MIMI
ArtistUnicode:MIMI
Creator:eiri-
Version:Beginner
Source:osu!
Tags:Ayyri Hatsune Miku feat. 初音ミク Featured Artist FA Japanese Pop Vocaloid
BeatmapID:2515159
BeatmapSetID:1198060

[Difficulty]
HPDrainRate:9
CircleSize:2
OverallDifficulty:2
ApproachRate:10
SliderMultiplier:1.4
SliderTickRate:1

[Events]
//Background and Video events
0,0,"Miku 487.jpg",0,-40
//Break Periods
//Storyboard Layer 0 (Background)
//Storyboard Layer 1 (Fail)
//Storyboard Layer 2 (Pass)
//Storyboard Layer 3 (Foreground)
//Storyboard Layer 4 (Overlay)
//Storyboard Sound Samples

[TimingPoints]
1446,322.58064516129,4,1,0,50,1,0
1446,-100,4,1,0,50,0,0
11728,-100,4,1,0,75,0,0
22050,-100,4,1,0,60,0,0
23341,-100,4,1,0,50,0,0
32413,-100,4,1,0,100,0,1
53058,-100,4,1,0,75,0,0
73018,-100,4,1,0,75,0,0
73663,-100,4,1,0,75,0,0
74954,-100,4,1,0,50,0,0
83986,-100,4,1,0,60,0,0
94308,-100,4,1,0,70,0,0
104631,-100,4,1,0,70,0,0
105921,-100,4,1,0,50,0,0
114994,-100,4,1,0,100,0,1
125316,-100,4,1,0,75,0,0
125639,-100,4,1,0,100,0,1
135639,-100,4,1,0,75,0,0
145921,-100,4,1,0,90,0,0
155599,-100,4,1,0,80,0,0
156244,-100,4,1,0,50,0,0
165921,-100,4,1,0,75,0,0
166083,-100,4,1,0,25,0,0
166284,-100,4,1,0,30,0,0
166566,-100,4,1,0,35,0,0
166889,-100,4,1,0,40,0,0
167212,-100,4,1,0,45,0,0
167534,-100,4,1,0,50,0,0
167857,-100,4,1,0,55,0,0
168018,-100,4,1,0,60,0,0

[HitObjects]
256,192,1446,5,8,0:0:0:0:
256,192,2736,1,0,0:0:0:0:
256,192,4026,1,8,0:0:0:0:
256,192,5316,1,0,0:0:0:0:
256,192,6607,1,8,0:0:0:0:
256,192,7897,1,0,0:0:0:0:
256,192,9187,1,8,0:0:0:0:
256,192,10478,1,0,0:0:0:0:
256,192,11768,1,0,0:0:0:0:
256,192,12413,1,8,0:0:0:0:
256,192,13058,1,0,0:0:0:0:
256,192,14349,1,0,0:0:0:0:
256,192,14994,1,8,0:0:0:0:
256,192,15639,1,0,0:0:0:0:
256,192,16929,1,0,0:0:0:0:
256,192,17575,1,8,0:0:0:0:
256,192,18220,1,0,0:0:0:0:
256,192,19510,1,0,0:0:0:0:
256,192,20155,1,8,0:0:0:0:
256,192,20800,1,0,0:0:0:0:
256,192,22091,1,12,0:0:0:0:
256,192,23381,1,0,0:0:0:0:
256,192,24671,1,0,0:0:0:0:
256,192,25962,1,0,0:0:0:0:
256,192,27252,1,0,0:0:0:0:
256,192,28542,1,0,0:0:0:0:
256,192,29833,1,0,0:0:0:0:
256,192,31123,1,0,0:0:0:0:
256,192,32413,1,12,0:0:0:0:
256,192,33704,1,0,0:0:0:0:
256,192,34349,1,0,0:0:0:0:
256,192,34994,1,8,0:0:0:0:
256,192,36284,1,0,0:0:0:0:
256,192,36929,1,8,0:0:0:0:
256,192,37575,1,0,0:0:0:0:
256,192,38865,1,8,0:0:0:0:
256,192,40155,1,0,0:0:0:0:
256,192,40800,1,8,0:0:0:0:
256,192,41445,1,0,0:0:0:0:
256,192,42736,1,12,0:0:0:0:
256,192,44026,1,0,0:0:0:0:
256,192,44671,1,0,0:0:0:0:
256,192,45316,1,8,0:0:0:0:
256,192,46607,1,0,0:0:0:0:
256,192,47252,1,8,0:0:0:0:
256,192,47897,1,0,0:0:0:0:
256,192,49187,1,8,0:0:0:0:
256,192,50478,1,0,0:0:0:0:
256,192,51123,1,8,0:0:0:0:
256,192,51768,1,0,0:0:0:0:
256,192,53058,1,12,0:0:0:0:
256,192,54349,1,8,0:0:0:0:
256,192,54994,1,0,0:0:0:0:
256,192,55639,1,8,0:0:0:0:
256,192,56929,1,0,0:0:0:0:
256,192,57575,1,8,0:0:0:0:
256,192,58220,1,0,0:0:0:0:
256,192,59510,1,0,0:0:0:0:
256,192,60800,1,0,0:0:0:0:
256,192,61445,1,8,0:0:0:0:
256,192,62091,1,0,0:0:0:0:
256,192,62736,1,0,0:0:0:0:
256,192,63381,1,12,0:0:0:0:
256,192,64671,1,0,0:0:0:0:
256,192,65316,1,0,0:0:0:0:
256,192,65962,1,8,0:0:0:0:
256,192,67252,1,8,0:0:0:0:
256,192,67897,1,0,0:0:0:0:
256,192,68542,1,8,0:0:0:0:
256,192,69833,1,0,0:0:0:0:
256,192,70478,1,8,0:0:0:0:
256,192,71123,1,0,0:0:0:0:
256,192,72413,1,0,0:0:0:0:
256,192,73058,1,0,0:0:0:0:
256,192,73704,1,12,0:0:0:0:
256,192,74994,1,0,0:0:0:0:
256,192,76284,1,8,0:0:0:0:
256,192,77575,1,0,0:0:0:0:
256,192,78220,1,0,0:0:0:0:
256,192,78865,1,8,0:0:0:0:
256,192,80155,1,0,0:0:0:0:
256,192,81445,1,8,0:0:0:0:
256,192,82736,1,0,0:0:0:0:
256,192,83381,1,8,0:0:0:0:
256,192,84026,1,0,0:0:0:0:
256,192,85316,1,0,0:0:0:0:
256,192,85962,1,8,0:0:0:0:
256,192,86607,1,0,0:0:0:0:
256,192,87897,1,8,0:0:0:0:
256,192,89187,1,0,0:0:0:0:
256,192,90478,1,0,0:0:0:0:
256,192,91123,1,8,0:0:0:0:
256,192,91768,1,0,0:0:0:0:
256,192,93058,1,0,0:0:0:0:
256,192,94349,1,8,0:0:0:0:
256,192,94994,1,0,0:0:0:0:
256,192,95639,1,8,0:0:0:0:
256,192,96929,1,0,0:0:0:0:
256,192,98220,1,8,0:0:0:0:
256,192,98865,1,0,0:0:0:0:
256,192,99510,1,8,0:0:0:0:
256,192,100800,1,0,0:0:0:0:
256,192,102091,1,8,0:0:0:0:
256,192,102736,1,0,0:0:0:0:
256,192,103381,1,8,0:0:0:0:
256,192,104671,1,12,0:0:0:0:
256,192,105962,1,0,0:0:0:0:
256,192,107252,1,0,0:0:0:0:
256,192,108542,1,0,0:0:0:0:
256,192,109833,1,0,0:0:0:0:
256,192,111123,1,0,0:0:0:0:
256,192,112413,1,0,0:0:0:0:
256,192,113704,1,0,0:0:0:0:
256,192,114994,1,12,0:0:0:0:
256,192,115639,1,0,0:0:0:0:
256,192,116284,1,8,0:0:0:0:
256,192,117575,1,0,0:0:0:0:
256,192,118220,1,0,0:0:0:0:
256,192,118865,1,8,0:0:0:0:
256,192,119510,1,8,0:0:0:0:
256,192,120155,1,0,0:0:0:0:
256,192,121445,1,8,0:0:0:0:
256,192,122091,1,0,0:0:0:0:
256,192,122736,1,8,0:0:0:0:
256,192,124026,1,0,0:0:0:0:
256,192,125639,1,12,0:0:0:0:
256,192,126607,1,0,0:0:0:0:
256,192,127897,1,8,0:0:0:0:
256,192,128542,1,0,0:0:0:0:
256,192,129187,1,8,0:0:0:0:
256,192,129833,1,0,0:0:0:0:
256,192,130478,1,8,0:0:0:0:
256,192,131768,1,0,0:0:0:0:
256,192,132413,1,0,0:0:0:0:
256,192,133058,1,8,0:0:0:0:
256,192,134349,1,8,0:0:0:0:
256,192,134994,1,0,0:0:0:0:
256,192,135639,1,12,0:0:0:0:
256,192,136929,1,0,0:0:0:0:
256,192,137575,1,8,0:0:0:0:
256,192,138220,1,0,0:0:0:0:
256,192,139510,1,8,0:0:0:0:
256,192,140155,1,0,0:0:0:0:
256,192,140800,1,8,0:0:0:0:
256,192,142091,1,0,0:0:0:0:
256,192,143381,1,0,0:0:0:0:
256,192,144026,1,8,0:0:0:0:
256,192,144671,1,0,0:0:0:0:
256,192,145316,1,0,0:0:0:0:
256,192,145962,1,12,0:0:0:0:
256,192,147252,1,0,0:0:0:0:
256,192,147897,1,0,0:0:0:0:
256,192,148542,1,8,0:0:0:0:
256,192,149833,1,8,0:0:0:0:
256,192,150478,1,0,0:0:0:0:
256,192,151123,1,8,0:0:0:0:
256,192,152413,1,0,0:0:0:0:
256,192,153058,1,8,0:0:0:0:
256,192,153704,1,0,0:0:0:0:
256,192,154994,1,0,0:0:0:0:
256,192,155639,1,0,0:0:0:0:
256,192,156284,1,12,0:0:0:0:
256,192,157575,1,0,0:0:0:0:
256,192,158865,1,8,0:0:0:0:
256,192,160155,1,0,0:0:0:0:
256,192,160800,1,0,0:0:0:0:
256,192,161445,1,8,0:0:0:0:
256,192,162736,1,0,0:0:0:0:
256,192,164026,1,8,0:0:0:0:
256,192,165316,1,8,0:0:0:0:
256,192,165962,1,8,0:0:0:0:
256,192,166123,8,0,168058,0:0:0:0:
