osu file format v14

[General]
AudioFilename: audio.mp3
AudioLeadIn: 0
PreviewTime: 83323
Countdown: 0
SampleSet: Soft
StackLeniency: 0.3
Mode: 0
LetterboxInBreaks: 0
EpilepsyWarning: 1
WidescreenStoryboard: 1

[Editor]
Bookmarks: 83807
DistanceSpacing: 0.9
BeatDivisor: 2
GridSize: 32
TimelineZoom: 1.6

[Metadata]
Title:Mizuoto to Curtain
TitleUnicode:水音とカーテン
Artist:MIMI
ArtistUnicode:MIMI
Creator:Share
Version:Zawajiro's Normal
Source:
Tags:featured artist mappers' guild japanese fa electronic hatsune miku 初音ミク pop japanese vocaloid ZAWAJIRO Iamwayneking I am wayneking Tristan Magor0 leominexd leomine pado [Hatsune Miku] sinsekai studio city project 深脊界 thinkr
BeatmapID:3626025
BeatmapSetID:1529722

[Difficulty]
HPDrainRate:3.5
CircleSize:3
OverallDifficulty:4
ApproachRate:5
SliderMultiplier:1.5
SliderTickRate:1

[Events]
//Background and Video events
0,0,"thumb-1920-1180776.png",0,0
//Break Periods
2,22071,29704
2,53039,61478
2,73742,82123
2,104652,112285
2,139168,144059
//Storyboard Layer 0 (Background)
//Storyboard Layer 1 (Fail)
//Storyboard Layer 2 (Pass)
//Storyboard Layer 3 (Foreground)
//Storyboard Layer 4 (Overlay)
//Storyboard Sound Samples

[TimingPoints]
1227,322.58064516129,4,2,1,60,1,0
1227,-166.666666666667,4,2,1,60,0,0
11549,-142.857142857143,4,2,1,65,0,0
21549,-166.666666666667,4,2,1,65,0,0
21872,-142.857142857143,4,2,1,55,0,0
31226,-142.857142857143,4,2,10,55,0,0
31549,-142.857142857143,4,2,22,55,0,0
31872,-142.857142857143,4,2,19,55,0,0
32033,-142.857142857143,4,2,1,55,0,0
32194,-125,4,2,17,70,0,1
32678,-125,4,2,15,70,0,1
33162,-125,4,2,22,70,0,1
33323,-125,4,2,24,70,0,1
33646,-125,4,2,15,70,0,1
33807,-125,4,2,14,70,0,1
33968,-125,4,2,15,70,0,1
34291,-125,4,2,12,70,0,1
34452,-125,4,2,14,70,0,1
34614,-125,4,2,15,70,0,1
34775,-125,4,2,17,70,0,1
34936,-125,4,2,14,70,0,1
35098,-125,4,2,15,70,0,1
35259,-125,4,2,17,70,0,1
35420,-125,4,2,10,70,0,1
35581,-125,4,2,22,70,0,1
35743,-125,4,2,17,70,0,1
35904,-125,4,2,19,70,0,1
36710,-125,4,2,17,70,0,1
36872,-125,4,2,22,70,0,1
37033,-125,4,2,15,70,0,1
37194,-125,4,2,14,70,0,1
37275,-125,4,2,15,70,0,1
37356,-125,4,2,17,70,0,1
37839,-125,4,2,15,70,0,1
38323,-125,4,2,22,70,0,1
38485,-125,4,2,24,70,0,1
38807,-125,4,2,15,70,0,1
38968,-125,4,2,14,70,0,1
39130,-125,4,2,15,70,0,1
39452,-125,4,2,12,70,0,1
39614,-125,4,2,14,70,0,1
39775,-125,4,2,15,70,0,1
39936,-125,4,2,17,70,0,1
40259,-125,4,2,19,70,0,1
40420,-125,4,2,17,70,0,1
40743,-125,4,2,15,70,0,1
41549,-125,4,2,10,55,0,1
41872,-125,4,2,22,55,0,1
42033,-125,4,2,1,55,0,1
42195,-125,4,2,19,55,0,1
42356,-125,4,2,1,55,0,1
42517,-125,4,2,17,70,0,1
43001,-125,4,2,15,70,0,1
43485,-125,4,2,22,70,0,1
43646,-125,4,2,24,70,0,1
43969,-125,4,2,15,70,0,1
44130,-125,4,2,14,70,0,1
44291,-125,4,2,15,70,0,1
44614,-125,4,2,12,70,0,1
44775,-125,4,2,14,70,0,1
44937,-125,4,2,15,70,0,1
45098,-125,4,2,17,70,0,1
45259,-125,4,2,14,70,0,1
45421,-125,4,2,15,70,0,1
45582,-125,4,2,17,70,0,1
45743,-125,4,2,10,70,0,1
45904,-125,4,2,22,70,0,1
46066,-125,4,2,17,70,0,1
46227,-125,4,2,19,70,0,1
47033,-125,4,2,17,70,0,1
47195,-125,4,2,22,70,0,1
47275,-125,4,2,1,70,0,1
47356,-125,4,2,15,70,0,1
47517,-125,4,2,14,70,0,1
47679,-125,4,2,17,70,0,1
48162,-125,4,2,15,70,0,1
48646,-125,4,2,22,70,0,1
48808,-125,4,2,24,70,0,1
49130,-125,4,2,15,70,0,1
49291,-125,4,2,14,70,0,1
49453,-125,4,2,15,70,0,1
49775,-125,4,2,12,70,0,1
49937,-125,4,2,14,70,0,1
50098,-125,4,2,15,70,0,1
50259,-125,4,2,17,70,0,1
50582,-125,4,2,19,70,0,1
50743,-125,4,2,17,70,0,1
51066,-125,4,2,15,70,0,1
52194,-125,4,2,17,70,0,1
52839,-142.857142857143,4,2,37,65,0,0
53162,-142.857142857143,4,2,35,65,0,0
53323,-142.857142857143,4,2,30,65,0,0
53485,-142.857142857143,4,2,35,65,0,0
53807,-142.857142857143,4,2,1,65,0,0
53968,-142.857142857143,4,2,25,65,0,0
54291,-142.857142857143,4,2,37,65,0,0
54452,-142.857142857143,4,2,35,65,0,0
54614,-142.857142857143,4,2,30,65,0,0
55097,-142.857142857143,4,2,35,65,0,0
55259,-142.857142857143,4,2,25,65,0,0
55743,-142.857142857143,4,2,35,65,0,0
55904,-142.857142857143,4,2,30,65,0,0
56065,-142.857142857143,4,2,37,65,0,0
56226,-142.857142857143,4,2,35,65,0,0
56388,-142.857142857143,4,2,30,65,0,0
56549,-142.857142857143,4,2,25,65,0,0
56872,-142.857142857143,4,2,35,65,0,0
57033,-142.857142857143,4,2,37,65,0,0
57194,-142.857142857143,4,2,49,65,0,0
57356,-142.857142857143,4,2,47,65,0,0
57517,-142.857142857143,4,2,46,65,0,0
57839,-142.857142857143,4,2,47,65,0,0
58162,-142.857142857143,4,2,32,65,0,0
58323,-142.857142857143,4,2,35,65,0,0
58485,-142.857142857143,4,2,51,65,0,0
58807,-142.857142857143,4,2,32,65,0,0
58968,-142.857142857143,4,2,35,65,0,0
59130,-142.857142857143,4,2,51,65,0,0
59452,-142.857142857143,4,2,28,65,0,0
59614,-142.857142857143,4,2,32,65,0,0
59775,-142.857142857143,4,2,25,65,0,0
60097,-142.857142857143,4,2,42,65,0,0
60259,-142.857142857143,4,2,44,65,0,0
60420,-142.857142857143,4,2,42,65,0,0
60743,-142.857142857143,4,2,28,65,0,0
60905,-142.857142857143,4,2,32,65,0,0
61066,-142.857142857143,4,2,25,65,0,0
61388,-142.857142857143,4,2,35,65,0,0
61549,-142.857142857143,4,2,37,65,0,0
61710,-142.857142857143,4,2,35,65,0,0
62033,-142.857142857143,4,2,30,65,0,0
62194,-142.857142857143,4,2,35,65,0,0
62356,-142.857142857143,4,2,26,65,0,0
62517,-142.857142857143,4,2,52,65,0,0
62678,-142.857142857143,4,2,39,65,0,0
62759,-142.857142857143,4,2,1,65,0,0
62839,-142.857142857143,4,2,37,65,0,0
63001,-142.857142857143,4,2,35,65,0,0
63081,-142.857142857143,4,2,1,65,0,0
63162,-142.857142857143,4,2,35,65,0,0
63323,-142.857142857143,4,2,30,65,0,0
63485,-142.857142857143,4,2,35,65,0,0
63646,-142.857142857143,4,2,42,65,0,0
63807,-142.857142857143,4,2,40,65,0,0
63968,-142.857142857143,4,2,39,65,0,0
64130,-142.857142857143,4,2,37,65,0,0
64291,-142.857142857143,4,2,35,65,0,0
64614,-142.857142857143,4,2,30,65,0,0
64776,-142.857142857143,4,2,35,65,0,0
64937,-142.857142857143,4,2,42,65,0,0
65098,-142.857142857143,4,2,40,65,0,0
65259,-142.857142857143,4,2,39,65,0,0
65421,-142.857142857143,4,2,37,65,0,0
65582,-142.857142857143,4,2,35,65,0,0
65904,-142.857142857143,4,2,30,65,0,0
66066,-142.857142857143,4,2,35,65,0,0
66227,-142.857142857143,4,2,42,65,0,0
66388,-142.857142857143,4,2,40,65,0,0
66549,-142.857142857143,4,2,39,65,0,0
66711,-142.857142857143,4,2,37,65,0,0
66872,-142.857142857143,4,2,35,65,0,0
67194,-142.857142857143,4,2,30,65,0,0
67356,-142.857142857143,4,2,35,65,0,0
67517,-142.857142857143,4,2,42,65,0,0
67678,-142.857142857143,4,2,40,65,0,0
67839,-142.857142857143,4,2,39,65,0,0
68001,-142.857142857143,4,2,37,65,0,0
68162,-142.857142857143,4,2,35,65,0,0
68485,-142.857142857143,4,2,30,65,0,0
68647,-142.857142857143,4,2,35,65,0,0
68808,-142.857142857143,4,2,42,65,0,0
68969,-142.857142857143,4,2,40,65,0,0
69130,-142.857142857143,4,2,39,65,0,0
69292,-142.857142857143,4,2,37,65,0,0
69453,-142.857142857143,4,2,35,65,0,0
69775,-142.857142857143,4,2,30,65,0,0
69937,-142.857142857143,4,2,35,65,0,0
70098,-142.857142857143,4,2,42,65,0,0
70259,-142.857142857143,4,2,40,65,0,0
70420,-142.857142857143,4,2,39,65,0,0
70582,-142.857142857143,4,2,37,65,0,0
70743,-142.857142857143,4,2,35,65,0,0
71065,-142.857142857143,4,2,30,65,0,0
71227,-142.857142857143,4,2,35,65,0,0
71388,-142.857142857143,4,2,42,65,0,0
71549,-142.857142857143,4,2,40,65,0,0
71710,-142.857142857143,4,2,39,65,0,0
71872,-142.857142857143,4,2,37,65,0,0
72033,-142.857142857143,4,2,35,65,0,0
72356,-142.857142857143,4,2,30,65,0,0
72518,-142.857142857143,4,2,35,65,0,0
72679,-142.857142857143,4,2,42,65,0,0
72840,-142.857142857143,4,2,40,65,0,0
73001,-142.857142857143,4,2,39,65,0,0
73163,-142.857142857143,4,2,37,65,0,0
73324,-142.857142857143,4,2,35,65,0,0
73485,-142.857142857143,4,2,1,70,0,0
73646,-142.857142857143,4,2,1,60,0,0
83807,-166.666666666667,4,2,1,65,0,0
94130,-142.857142857143,4,2,1,70,0,0
104452,-142.857142857143,4,2,1,60,0,0
113807,-142.857142857143,4,2,10,60,0,0
114130,-142.857142857143,4,2,22,60,0,0
114453,-142.857142857143,4,2,19,60,0,0
114614,-142.857142857143,4,2,1,60,0,0
114775,-125,4,2,17,70,0,1
115259,-125,4,2,15,70,0,1
115743,-125,4,2,22,70,0,1
115904,-125,4,2,24,70,0,1
116227,-125,4,2,15,70,0,1
116388,-125,4,2,14,70,0,1
116549,-125,4,2,15,70,0,1
116872,-125,4,2,12,70,0,1
117033,-125,4,2,14,70,0,1
117195,-125,4,2,15,70,0,1
117356,-125,4,2,17,70,0,1
117517,-125,4,2,14,70,0,1
117679,-125,4,2,15,70,0,1
117840,-125,4,2,17,70,0,1
118001,-125,4,2,10,70,0,1
118162,-125,4,2,22,70,0,1
118324,-125,4,2,17,70,0,1
118485,-125,4,2,19,70,0,1
119291,-125,4,2,17,70,0,1
119453,-125,4,2,22,70,0,1
119614,-125,4,2,15,70,0,1
119775,-125,4,2,14,70,0,1
119856,-125,4,2,15,70,0,1
119937,-125,4,2,17,70,0,1
120420,-125,4,2,15,70,0,1
120904,-125,4,2,22,70,0,1
121066,-125,4,2,24,70,0,1
121388,-125,4,2,15,70,0,1
121549,-125,4,2,14,70,0,1
121711,-125,4,2,15,70,0,1
122033,-125,4,2,12,70,0,1
122195,-125,4,2,14,70,0,1
122356,-125,4,2,15,70,0,1
122517,-125,4,2,17,70,0,1
122840,-125,4,2,19,70,0,1
123001,-125,4,2,17,70,0,1
123324,-125,4,2,15,70,0,1
124130,-125,4,2,10,60,0,1
124453,-125,4,2,22,60,0,1
124614,-125,4,2,1,60,0,1
124776,-125,4,2,19,60,0,1
124937,-125,4,2,1,60,0,1
125098,-125,4,2,17,70,0,1
125582,-125,4,2,15,70,0,1
125904,-125,4,2,15,70,0,1
126066,-125,4,2,22,70,0,1
126227,-125,4,2,24,70,0,1
126550,-125,4,2,15,70,0,1
126711,-125,4,2,14,70,0,1
126872,-125,4,2,15,70,0,1
127195,-125,4,2,12,70,0,1
127356,-125,4,2,14,70,0,1
127518,-125,4,2,15,70,0,1
127679,-125,4,2,17,70,0,1
127840,-125,4,2,14,70,0,1
128002,-125,4,2,15,70,0,1
128163,-125,4,2,17,70,0,1
128324,-125,4,2,10,70,0,1
128485,-125,4,2,22,70,0,1
128647,-125,4,2,17,70,0,1
128808,-125,4,2,19,70,0,1
129614,-125,4,2,17,70,0,1
129776,-125,4,2,22,70,0,1
129856,-125,4,2,1,70,0,1
129937,-125,4,2,15,70,0,1
130098,-125,4,2,14,70,0,1
130260,-125,4,2,17,70,0,1
130743,-125,4,2,15,70,0,1
131227,-125,4,2,22,70,0,1
131389,-125,4,2,24,70,0,1
131711,-125,4,2,15,70,0,1
131872,-125,4,2,14,70,0,1
132034,-125,4,2,15,70,0,1
132356,-125,4,2,12,70,0,1
132518,-125,4,2,14,70,0,1
132679,-125,4,2,15,70,0,1
132840,-125,4,2,17,70,0,1
133163,-125,4,2,19,70,0,1
133324,-125,4,2,17,70,0,1
133647,-125,4,2,15,70,0,1
134775,-125,4,2,1,70,0,1
135420,-142.857142857143,4,2,37,65,0,0
135743,-142.857142857143,4,2,35,65,0,0
135904,-142.857142857143,4,2,30,65,0,0
136066,-142.857142857143,4,2,35,65,0,0
136388,-142.857142857143,4,2,1,65,0,0
136549,-142.857142857143,4,2,25,65,0,0
136872,-142.857142857143,4,2,37,65,0,0
137033,-142.857142857143,4,2,35,65,0,0
137195,-142.857142857143,4,2,30,65,0,0
137678,-142.857142857143,4,2,35,65,0,0
137840,-142.857142857143,4,2,25,65,0,0
138324,-142.857142857143,4,2,35,65,0,0
138485,-142.857142857143,4,2,30,65,0,0
138646,-142.857142857143,4,2,37,65,0,0
138807,-142.857142857143,4,2,35,65,0,0
138969,-142.857142857143,4,2,30,65,0,0
139130,-142.857142857143,4,2,25,65,0,0
139453,-142.857142857143,4,2,35,65,0,0
139614,-142.857142857143,4,2,37,65,0,0
139775,-142.857142857143,4,2,49,65,0,0
139937,-142.857142857143,4,2,47,65,0,0
140098,-142.857142857143,4,2,46,65,0,0
140420,-142.857142857143,4,2,47,65,0,0
140743,-142.857142857143,4,2,32,65,0,0
140904,-142.857142857143,4,2,35,65,0,0
141066,-142.857142857143,4,2,51,65,0,0
141226,-142.857142857143,4,2,1,65,0,0
141388,-142.857142857143,4,2,32,65,0,0
141549,-142.857142857143,4,2,35,65,0,0
141711,-142.857142857143,4,2,51,65,0,0
141872,-142.857142857143,4,2,1,65,0,0
142033,-142.857142857143,4,2,28,65,0,0
142195,-142.857142857143,4,2,32,65,0,0
142356,-142.857142857143,4,2,25,65,0,0
142678,-142.857142857143,4,2,42,65,0,0
142840,-142.857142857143,4,2,44,65,0,0
143001,-142.857142857143,4,2,42,65,0,0
143324,-142.857142857143,4,2,28,65,0,0
143486,-142.857142857143,4,2,32,65,0,0
143647,-142.857142857143,4,2,25,65,0,0
143969,-142.857142857143,4,2,35,65,0,0
144130,-142.857142857143,4,2,37,65,0,0
144291,-142.857142857143,4,2,35,65,0,0
144614,-142.857142857143,4,2,30,65,0,0
144775,-142.857142857143,4,2,35,65,0,0
144937,-142.857142857143,4,2,26,65,0,0
145098,-142.857142857143,4,2,52,65,0,0
145259,-142.857142857143,4,2,39,65,0,0
145421,-142.857142857143,4,2,37,65,0,0
145582,-142.857142857143,4,2,35,67,0,0
145743,-125,4,2,66,67,0,0
145904,-125,4,2,31,67,0,0
146065,-125,4,2,36,67,0,0
146226,-125,4,2,43,67,0,0
146388,-125,4,2,41,67,0,0
146549,-125,4,2,40,67,0,0
146710,-125,4,2,38,67,0,0
146872,-125,4,2,36,67,0,0
147194,-125,4,2,31,67,0,0
147355,-125,4,2,36,67,0,0
147516,-125,4,2,43,67,0,0
147678,-125,4,2,41,67,0,0
147839,-125,4,2,40,67,0,0
148000,-125,4,2,38,67,0,0
148162,-125,4,2,36,67,0,0
148485,-125,4,2,31,67,0,0
148646,-125,4,2,36,67,0,0
148807,-125,4,2,43,67,0,0
148969,-125,4,2,41,67,0,0
149130,-125,4,2,40,67,0,0
149291,-125,4,2,38,67,0,0
149453,-125,4,2,36,67,0,0
149775,-125,4,2,31,67,0,0
149936,-125,4,2,36,67,0,0
150097,-125,4,2,43,67,0,0
150259,-125,4,2,41,67,0,0
150420,-125,4,2,40,67,0,0
150581,-125,4,2,38,67,0,0
150743,-125,4,2,36,67,0,0
151065,-125,4,2,31,67,0,0
151226,-125,4,2,36,67,0,0
151387,-125,4,2,43,67,0,0
151549,-125,4,2,41,67,0,0
151710,-125,4,2,40,67,0,0
151871,-125,4,2,38,67,0,0
152033,-125,4,2,36,67,0,0
152356,-125,4,2,31,67,0,0
152517,-125,4,2,36,67,0,0
152678,-125,4,2,43,67,0,0
152840,-125,4,2,41,67,0,0
153001,-125,4,2,40,67,0,0
153162,-125,4,2,38,67,0,0
153324,-125,4,2,36,67,0,0
153646,-125,4,2,31,67,0,0
153807,-125,4,2,36,67,0,0
153968,-125,4,2,43,67,0,0
154130,-125,4,2,41,67,0,0
154291,-125,4,2,40,67,0,0
154452,-125,4,2,38,67,0,0
154614,-125,4,2,36,67,0,0
154936,-125,4,2,60,67,0,0
155097,-125,4,2,61,67,0,0
155258,-125,4,2,62,67,0,0
155420,-125,4,2,63,67,0,0
155581,-125,4,2,64,67,0,0
155742,-125,4,2,65,67,0,0
155904,-125,4,2,66,67,0,0
156065,-125,4,2,90,60,0,0
156226,-125,4,2,28,60,0,0
156388,-125,4,2,33,60,0,0
156549,-125,4,2,35,60,0,0
156710,-125,4,2,36,60,0,0
156872,-125,4,2,43,60,0,0
157033,-125,4,2,48,60,0,0
157194,-125,4,2,50,60,0,0
157356,-125,4,2,91,60,0,0
157517,-125,4,2,56,60,0,0
157678,-125,4,2,29,60,0,0
157839,-125,4,2,33,60,0,0
158001,-125,4,2,36,60,0,0
158162,-125,4,2,43,60,0,0
158323,-125,4,2,48,60,0,0
158485,-125,4,2,50,60,0,0
158646,-125,4,2,92,60,0,0
158807,-125,4,2,57,60,0,0
158968,-125,4,2,31,60,0,0
159130,-125,4,2,35,60,0,0
159291,-125,4,2,36,60,0,0
159452,-125,4,2,43,60,0,0
159614,-125,4,2,48,60,0,0
159775,-125,4,2,50,60,0,0
159936,-125,4,2,93,60,0,0
160097,-125,4,2,31,60,0,0
160259,-125,4,2,36,60,0,0
160420,-125,4,2,40,60,0,0
160581,-125,4,2,36,60,0,0
160743,-125,4,2,43,60,0,0
160904,-125,4,2,48,60,0,0
161065,-125,4,2,50,60,0,0
161226,-125,4,2,94,60,0,0
161388,-125,4,2,28,60,0,0
161550,-125,4,2,33,60,0,0
161711,-125,4,2,35,60,0,0
161872,-125,4,2,36,60,0,0
162034,-125,4,2,43,60,0,0
162195,-125,4,2,48,60,0,0
162356,-125,4,2,55,60,0,0
162517,-125,4,2,91,60,0,0
162678,-125,4,2,56,60,0,0
162839,-125,4,2,28,60,0,0
163000,-125,4,2,33,60,0,0
163162,-125,4,2,36,60,0,0
163323,-125,4,2,43,60,0,0
163484,-125,4,2,48,60,0,0
163646,-125,4,2,50,60,0,0
163807,-125,4,2,92,60,0,0
163968,-125,4,2,57,60,0,0
164129,-125,4,2,31,60,0,0
164291,-125,4,2,35,60,0,0
164452,-125,4,2,36,60,0,0
164613,-125,4,2,43,60,0,0
164775,-125,4,2,48,60,0,0
164936,-125,4,2,50,60,0,0
165097,-125,4,2,93,60,0,0
165259,-125,4,2,31,60,0,0
165420,-125,4,2,36,60,0,0
165581,-125,4,2,40,60,0,0
165743,-125,4,2,50,60,0,0
167839,-125,4,2,1,5,0,0

[Colours]
Combo1 : 185,230,244
Combo2 : 27,214,228
Combo3 : 128,255,255
Combo4 : 255,179,217

[HitObjects]
59,65,1227,6,0,P|109:77|165:86,1,89.999997253418,2|2,2:2|2:2,0:0:0:0:
190,69,1710,1,2,2:2:0:0:
190,69,1872,2,0,P|223:81|230:148,1,89.999997253418,2|0,2:2|2:2,0:0:0:0:
169,188,2517,2,0,P|157:231|141:290,1,89.999997253418,2|2,2:2|2:2,0:0:0:0:
166,314,3001,1,2,2:2:0:0:
249,280,3323,6,0,P|280:269|301:259,1,44.999998626709,2|2,2:2|2:2,0:0:0:0:
335,253,3646,2,0,B|375:263|375:263|387:277|387:277|432:289,1,89.999997253418,2|2,2:2|0:0,0:0:0:0:
481,354,4291,1,2,2:2:0:0:
481,354,4452,2,0,P|500:300|512:269,1,89.999997253418,2|2,2:2|2:2,0:0:0:0:
506,224,4936,2,0,P|466:212|433:159,1,89.9999972534181,2|2,2:2|2:2,0:0:0:0:
425,131,5420,2,0,P|436:99|444:75,1,44.999998626709,0|0,2:2|2:2,0:0:0:0:
219,41,6388,6,0,P|170:45|139:93,1,89.999997253418,2|2,2:2|2:2,0:0:0:0:
124,116,6872,1,2,2:2:0:0:
124,116,7033,2,0,P|137:167|143:205,1,89.999997253418,2|2,2:2|2:2,0:0:0:0:
138,252,7517,1,2,2:2:0:0:
138,252,7678,2,0,P|110:282|46:285,1,89.999997253418,2|0,2:2|2:2,0:0:0:0:
18,285,8162,1,0,2:2:0:0:
221,381,8968,6,0,P|259:369|310:359,1,89.999997253418,2|2,2:2|2:2,0:0:0:0:
336,325,9452,1,2,2:2:0:0:
336,325,9614,2,0,P|385:336|424:349,1,89.999997253418,2|2,2:2|2:2,0:0:0:0:
463,327,10097,1,2,2:2:0:0:
463,327,10259,2,0,P|483:286|452:233,1,89.9999972534181,2|0,2:2|2:2,0:0:0:0:
448,206,10743,1,0,2:2:0:0:
282,2,11549,6,0,P|238:21|179:37,1,104.999996795654,0|2,1:1|2:2,0:0:0:0:
140,14,12033,1,2,1:2:0:0:
140,14,12194,2,0,P|90:25|60:71,1,104.999996795654,8|2,0:1|2:2,0:0:0:0:
32,113,12678,1,2,2:2:0:0:
32,113,12839,2,0,P|51:180|58:235,1,104.999996795654,0|2,1:1|2:2,0:0:0:0:
45,266,13323,2,0,P|22:277|-8:296,1,52.4999983978272,2|8,1:2|0:1,0:0:0:0:
208,302,14130,6,0,B|274:320|205:336|296:359,1,104.999996795654,0|2,1:1|2:2,0:0:0:0:
335,384,14614,1,2,1:2:0:0:
335,384,14775,2,0,P|382:368|441:354,1,104.999996795654,8|2,0:1|2:2,0:0:0:0:
477,322,15259,1,2,2:2:0:0:
477,322,15420,2,0,P|506:287|486:227,1,104.999996795654,0|2,1:1|2:2,0:0:0:0:
458,192,15904,2,0,P|462:147|467:129,1,52.4999983978272,2|8,1:2|0:1,0:0:0:0:
409,50,16388,5,2,2:2:0:0:
314,95,16710,2,0,P|261:106|206:125,1,104.999996795654,2|2,1:2|2:2,0:0:0:0:
163,104,17194,1,2,1:2:0:0:
163,104,17356,2,0,P|128:139|130:196,1,104.999996795654,8|2,0:1|2:2,0:0:0:0:
38,246,18001,2,0,P|68:286|123:305,1,104.999996795654,0|2,1:1|2:2,0:0:0:0:
160,336,18485,2,0,P|205:319|222:317,1,52.4999983978272,2|8,1:2|0:1,0:0:0:0:
368,228,19291,6,0,P|414:193|475:216,1,104.999996795654,2|2,1:2|2:2,0:0:0:0:
493,246,19775,2,0,P|478:289|462:353,1,104.999996795654,2|0,1:2|0:0,0:0:0:0:
422,380,20259,1,2,2:2:0:0:
334,321,20581,2,0,B|317:309|303:304|303:304|292:262|272:216,1,104.999996795654,0|2,1:1|2:2,0:0:0:0:
249,195,21065,2,0,P|259:160|268:133,1,52.4999983978272,2|8,1:2|0:1,0:0:0:0:
373,82,21549,6,0,P|345:42|287:30,1,89.9999972534181,2|4,2:2|2:2,0:0:0:0:
0,298,30904,5,2,2:2:0:0:
84,359,31226,2,0,P|153:374|188:385,2,104.999996795654,2|2|2,2:2|2:2|2:2,0:0:0:0:
100,237,32194,6,0,P|159:221|224:199,1,120,6|8,1:2|2:2,0:0:0:0:
259,161,32678,2,0,P|296:122|270:58,1,120,2|2,2:2|2:2,0:0:0:0:
227,43,33162,1,10,2:2:0:0:
227,43,33323,1,2,2:2:0:0:
340,3,33646,2,0,P|385:10|408:12,1,60,2|10,2:2|2:2,0:0:0:0:
448,46,33968,1,2,2:2:0:0:
494,156,34291,6,0,P|481:197|465:300,1,120,2|2,2:2|2:2,0:0:0:0:
487,329,34775,2,0,P|463:352|436:356,1,60,2|2,1:2|2:2,0:0:0:0:
379,372,35097,2,0,P|342:354|319:362,1,60,10|2,2:2|2:2,0:0:0:0:
288,312,35420,2,0,P|251:297|219:290,2,60,2|2|10,1:2|2:2|2:2,0:0:0:0:
328,267,35904,2,0,P|341:209|349:145,1,120,2|0,2:2|0:0,0:0:0:0:
330,91,36388,5,10,2:2:0:0:
245,5,36710,2,0,P|212:18|178:27,1,60,2|2,1:2|2:2,0:0:0:0:
130,9,37033,1,10,2:2:0:0:
32,78,37356,6,0,P|55:127|7:178,1,120,2|10,1:2|2:2,0:0:0:0:
2,232,37839,2,0,P|14:281|23:351,1,120,2|2,2:2|2:2,0:0:0:0:
79,384,38323,1,10,2:2:0:0:
79,384,38485,2,0,P|123:346|182:354,1,120,2|2,2:2|2:2,0:0:0:0:
283,290,39130,2,0,P|341:309|410:325,1,120,2|2,2:2|2:2,0:0:0:0:
450,293,39614,1,10,2:2:0:0:
400,183,39936,6,0,P|370:129|398:84,1,120,2|10,1:2|2:2,0:0:0:0:
398,23,40420,2,0,P|454:45|517:63,2,120,2|2|2,2:2|2:2|2:2,0:0:0:0:
339,8,41226,1,0,1:1:0:0:
246,84,41549,5,10,2:2:0:0:
154,6,41872,1,2,1:2:0:0:
42,43,42194,1,10,2:2:0:0:
34,162,42517,6,0,P|51:214|70:285,1,120,6|8,1:2|2:2,0:0:0:0:
38,329,43001,2,0,P|93:333|131:386,1,120,2|2,2:2|2:2,0:0:0:0:
228,312,43646,2,0,P|285:295|354:277,1,120,2|2,2:2|2:2,0:0:0:0:
396,307,44130,1,10,2:2:0:0:
396,307,44291,2,0,P|436:295|453:213,1,120,2|2,2:2|2:2,0:0:0:0:
424,176,44775,1,10,2:2:0:0:
507,89,45097,6,0,P|470:77|437:63,1,60,2|2,1:2|2:2,0:0:0:0:
406,28,45420,2,0,P|361:44|327:54,1,60,10|2,2:2|2:2,0:0:0:0:
311,94,45743,2,0,P|283:71|255:64,2,60,2|2|10,1:2|2:2|2:2,0:0:0:0:
334,149,46226,2,0,P|319:190|298:266,1,120,2|0,2:2|0:0,0:0:0:0:
267,315,46710,5,10,2:2:0:0:
165,379,47033,2,0,P|117:369|95:367,1,60,2|2,1:2|2:2,0:0:0:0:
54,336,47356,1,10,2:2:0:0:
6,226,47678,6,0,P|46:181|23:119,1,120,2|10,1:2|2:2,0:0:0:0:
8,72,48162,2,0,P|60:55|124:26,1,120,2|2,2:2|2:2,0:0:0:0:
171,58,48646,1,10,2:2:0:0:
171,58,48807,2,0,P|232:73|297:93,1,120,2|2,2:2|2:2,0:0:0:0:
381,15,49452,2,0,P|426:45|430:118,1,120,2|2,2:2|2:2,0:0:0:0:
400,156,49936,1,10,2:2:0:0:
493,230,50259,6,0,P|473:281|455:354,1,120,2|10,1:2|2:2,0:0:0:0:
415,383,50743,1,2,2:2:0:0:
338,290,51065,1,2,2:2:0:0:
240,360,51388,5,2,2:2:0:0:
240,360,51549,2,0,P|197:345|168:340,1,60,0|0,1:1|0:0,0:0:0:0:
150,291,51872,2,0,P|113:303|89:308,1,60,8|2,2:2|2:2,0:0:0:0:
42,340,52194,2,0,P|72:284|43:230,1,120,2|8,1:2|2:2,0:0:0:0:
8,202,52678,1,10,2:2:0:0:
8,202,52839,1,4,1:2:0:0:
45,99,62678,5,10,2:2:0:0:
45,99,62839,2,0,P|18:69|21:43,1,52.4999983978272,10|10,2:2|2:2,0:0:0:0:
0,8,63162,6,0,P|49:22|107:36,1,104.999996795654,6|10,1:2|2:2,0:0:0:0:
141,77,63646,1,2,2:2:0:0:
141,77,63807,2,0,P|188:58|214:52,1,52.4999983978272,2|2,1:2|2:2,0:0:0:0:
225,18,64130,2,0,P|252:35|267:119,1,104.999996795654,10|0,2:2|1:1,0:0:0:0:
210,188,64775,1,10,2:2:0:0:
309,220,65097,6,0,P|301:266|299:282,1,52.4999983978272,2|2,1:2|2:2,0:0:0:0:
268,313,65420,2,0,P|296:344|317:344,1,52.4999983978272,10|2,2:2|2:2,0:0:0:0:
351,369,65743,2,0,P|404:359|460:355,1,104.999996795654,0|10,1:1|2:2,0:0:0:0:
500,260,66388,6,0,P|508:216|514:189,1,52.4999983978272,2|2,1:2|2:2,0:0:0:0:
490,159,66710,2,0,P|481:126|469:92,1,52.4999983978272,10|2,2:2|2:2,0:0:0:0:
506,66,67033,1,0,1:1:0:0:
422,1,67356,6,0,P|373:21|305:41,1,104.999996795654,10|2,2:2|1:2,0:0:0:0:
273,19,67839,1,2,2:2:0:0:
273,19,68001,2,0,P|251:53|252:84,1,52.4999983978272,10|2,2:2|2:2,0:0:0:0:
268,112,68323,2,0,P|283:159|292:220,1,104.999996795654,0|10,1:1|2:2,0:0:0:0:
253,312,68968,6,0,P|218:322|195:330,1,52.4999983978272,2|2,1:2|0:0,0:0:0:0:
170,368,69291,2,0,P|142:358|111:350,1,52.4999983978272,10|2,2:2|2:2,0:0:0:0:
77,383,69614,2,0,P|43:361|43:287,1,104.999996795654,0|10,1:1|2:2,0:0:0:0:
91,212,70259,6,0,P|108:166|113:141,1,52.4999983978272,2|2,1:2|2:2,0:0:0:0:
92,112,70581,2,0,P|76:83|47:75,1,52.4999983978272,10|2,2:2|2:2,0:0:0:0:
24,36,70904,2,0,P|92:17|137:2,1,104.999996795654,0|10,1:1|2:2,0:0:0:0:
217,55,71549,6,0,P|262:68|277:75,1,52.4999983978272,2|2,1:2|2:2,0:0:0:0:
300,110,71872,2,0,P|348:98|373:93,1,52.4999983978272,10|2,2:2|2:2,0:0:0:0:
383,56,72194,2,0,P|437:49|468:12,1,104.999996795654,0|10,1:1|2:2,0:0:0:0:
506,109,72839,6,0,P|495:140|489:166,1,52.4999983978272,2|2,1:2|0:0,0:0:0:0:
463,204,73162,1,10,0:0:0:0:
463,204,73323,2,0,P|476:245|483:270,1,52.4999983978272,2|4,0:0|2:2,0:0:0:0:
0,86,83807,6,0,P|55:101|102:123,1,89.9999972534181,0|2,1:1|2:2,0:0:0:0:
112,150,84291,1,2,1:2:0:0:
112,150,84452,2,0,P|170:126|177:89,1,89.9999972534181,8|2,0:1|2:2,0:0:0:0:
235,35,85097,6,0,P|281:25|341:7,1,89.9999972534181,0|2,1:1|2:2,0:0:0:0:
358,39,85581,1,2,1:2:0:0:
358,39,85743,2,0,P|426:64|448:77,1,89.9999972534181,8|2,0:1|2:2,0:0:0:0:
511,129,86388,6,0,P|472:173|473:218,1,89.9999972534181,0|2,1:1|2:2,0:0:0:0:
500,234,86872,1,2,1:2:0:0:
500,234,87033,2,0,P|489:283|482:343,1,89.9999972534181,8|2,0:1|2:2,0:0:0:0:
395,304,87678,6,0,B|356:321|356:321|352:328|352:328|313:344,1,89.9999972534181,0|2,1:1|2:2,0:0:0:0:
283,374,88162,1,2,1:2:0:0:
283,374,88323,2,0,P|243:357|224:353,1,44.999998626709,8|0,0:1|0:0,0:0:0:0:
200,337,88646,1,2,2:2:0:0:
116,371,88968,6,0,P|99:327|74:279,1,89.9999972534181,0|2,1:1|2:2,0:0:0:0:
21,219,89614,2,0,P|41:162|50:117,1,89.9999972534181,8|2,0:1|2:2,0:0:0:0:
18,98,90097,1,2,2:2:0:0:
18,98,90259,2,0,P|50:62|96:61,1,89.9999972534181,0|2,1:1|2:2,0:0:0:0:
126,32,90743,2,0,P|157:45|183:54,1,44.999998626709,2|8,1:2|0:1,0:0:0:0:
222,120,91226,1,2,2:2:0:0:
256,203,91549,6,0,P|310:225|350:238,1,89.9999972534181,0|2,1:1|2:2,0:0:0:0:
363,273,92033,1,2,1:2:0:0:
363,273,92194,2,0,P|379:234|425:221,1,89.9999972534181,8|2,0:1|2:2,0:0:0:0:
505,187,92839,6,0,P|488:138|476:84,1,89.9999972534181,0|2,1:1|2:2,0:0:0:0:
452,71,93323,1,2,1:2:0:0:
452,71,93485,2,0,P|412:81|394:86,1,44.999998626709,8|2,0:1|2:2,0:0:0:0:
376,113,93807,1,2,2:2:0:0:
294,164,94130,6,0,P|251:151|191:131,1,104.999996795654,0|2,1:1|1:2,0:0:0:0:
142,122,94614,1,2,2:2:0:0:
142,122,94775,1,2,1:2:0:0:
95,216,95097,2,0,P|83:253|72:269,1,52.4999983978272,2|2,1:2|2:2,0:0:0:0:
31,294,95420,6,0,P|51:339|108:356,1,104.999996795654,0|2,1:1|1:2,0:0:0:0:
199,320,96065,2,0,P|266:301|309:291,1,104.999996795654,0|2,1:1|1:2,0:0:0:0:
344,322,96549,1,2,2:2:0:0:
344,322,96710,2,0,B|360:307|374:298|374:298|378:266|388:215,1,104.999996795654,2|2,1:2|1:2,0:0:0:0:
308,159,97356,2,0,P|255:140|190:124,1,104.999996795654,2|2,1:2|1:2,0:0:0:0:
180,83,97839,1,2,2:2:0:0:
180,83,98001,6,0,P|239:60|249:6,1,104.999996795654,0|2,1:1|1:2,0:0:0:0:
353,54,98646,2,0,P|407:55|468:69,1,104.999996795654,0|2,1:1|1:2,0:0:0:0:
428,166,99291,6,0,P|490:195|493:234,1,104.999996795654,2|2,1:2|1:2,0:0:0:0:
490,281,99775,1,2,2:2:0:0:
490,281,99936,2,0,P|471:342|462:385,1,104.999996795654,2|2,1:2|1:2,0:0:0:0:
379,317,100581,6,0,B|294:329|354:349|281:364,1,104.999996795654,0|2,1:1|1:2,0:0:0:0:
177,352,101226,2,0,P|124:336|61:316,1,104.999996795654,0|2,1:1|1:2,0:0:0:0:
42,361,101710,1,2,2:2:0:0:
42,361,101872,2,0,P|7:329|8:268,1,104.999996795654,2|2,1:2|1:2,0:0:0:0:
59,184,102517,2,0,P|99:171|164:145,1,104.999996795654,2|2,1:2|1:2,0:0:0:0:
207,175,103001,1,2,2:2:0:0:
207,175,103162,6,0,P|256:195|271:196,1,52.4999983978272,0|2,1:1|2:2,0:0:0:0:
301,223,103485,1,2,2:2:0:0:
406,234,103807,2,0,P|382:179|382:119,1,104.999996795654,2|2,2:2|2:2,0:0:0:0:
441,50,104452,5,4,2:2:0:0:
368,384,113485,5,2,2:2:0:0:
415,290,113807,2,0,P|474:301|502:349,2,104.999996795654,2|2|2,2:2|2:2|2:2,0:0:0:0:
332,203,114775,6,0,P|280:220|212:235,1,120,6|8,1:2|2:2,0:0:0:0:
168,270,115259,2,0,P|124:273|95:203,1,120,2|2,2:2|1:2,0:0:0:0:
60,161,115743,1,10,2:2:0:0:
60,161,115904,2,0,P|86:111|108:46,1,120,2|2,2:2|1:2,0:0:0:0:
224,25,116549,2,0,P|282:58|345:49,1,120,2|2,1:2|1:2,0:0:0:0:
384,22,117033,1,10,2:2:0:0:
489,79,117356,6,0,P|508:121|493:141,1,60,2|2,1:2|2:2,0:0:0:0:
458,169,117678,2,0,P|434:213|441:233,1,60,10|2,2:2|2:2,0:0:0:0:
467,270,118001,2,0,P|483:318|488:340,1,60,2|2,1:2|1:2,0:0:0:0:
439,365,118323,1,10,2:2:0:0:
439,365,118485,2,0,P|385:374|326:325,1,120,2|0,2:2|1:1,0:0:0:0:
314,282,118968,5,10,2:2:0:0:
222,204,119291,2,0,P|190:213|154:220,1,60,2|2,1:2|1:2,0:0:0:0:
111,249,119614,1,10,2:2:0:0:
11,182,119936,6,0,P|50:123|114:121,1,120,2|10,1:2|2:2,0:0:0:0:
135,70,120420,2,0,P|188:84|260:94,1,120,2|2,2:2|1:2,0:0:0:0:
302,60,120904,1,10,2:2:0:0:
302,60,121065,1,2,2:2:0:0:
398,131,121388,2,0,P|389:171|384:197,1,60,2|10,1:2|2:2,0:0:0:0:
346,234,121710,1,2,1:2:0:0:
441,296,122033,5,2,1:2:0:0:
441,296,122194,2,0,P|483:308|493:336,1,60,10|2,2:2|2:2,0:0:0:0:
492,374,122517,2,0,P|448:362|373:354,1,120,2|10,1:2|2:2,0:0:0:0:
321,341,123001,2,0,P|250:363|197:373,1,120,2|2,2:2|1:2,0:0:0:0:
109,334,123646,1,2,2:2:0:0:
109,334,123807,6,0,P|139:293|105:231,1,120,0|10,1:1|2:2,0:0:0:0:
26,169,124452,1,2,1:2:0:0:
30,60,124775,1,10,2:2:0:0:
136,44,125097,1,2,2:2:0:0:
251,157,125581,6,0,P|307:132|373:113,1,120,14|2,2:2|2:2,0:0:0:0:
394,70,126065,1,0,0:0:0:0:
439,38,126226,2,0,P|481:59|477:131,1,120,2|2,2:2|1:2,0:0:0:0:
450,170,126710,1,10,2:2:0:0:
450,170,126872,2,0,P|435:235|428:293,1,120,2|2,1:2|1:2,0:0:0:0:
325,363,127517,1,2,2:2:0:0:
325,363,127678,6,0,P|287:338|279:309,1,60,2|2,1:2|2:2,0:0:0:0:
244,281,128001,2,0,P|254:231|260:203,1,60,10|2,2:2|2:2,0:0:0:0:
307,191,128323,2,0,P|317:144|322:118,1,60,2|2,1:2|1:2,0:0:0:0:
289,80,128646,2,0,P|238:101|217:106,1,60,10|2,2:2|2:2,0:0:0:0:
176,84,128968,5,0,1:1:0:0:
74,19,129291,2,0,P|90:56|46:126,1,120,10|2,2:2|1:2,0:0:0:0:
6,155,129775,1,2,1:2:0:0:
6,155,129936,2,0,P|24:201|27:225,1,60,10|2,2:2|2:2,0:0:0:0:
55,263,130259,5,2,1:2:0:0:
25,380,130581,1,10,2:2:0:0:
25,380,130743,2,0,P|93:340|165:381,1,120,2|2,2:2|1:2,0:0:0:0:
173,371,131226,1,10,2:2:0:0:
223,377,131388,6,0,P|264:348|265:278,1,120,2|2,2:2|1:2,0:0:0:0:
292,241,131872,1,10,2:2:0:0:
292,241,132033,2,0,P|275:180|265:116,1,120,2|2,1:2|1:2,0:0:0:0:
302,74,132517,1,10,2:2:0:0:
393,16,132839,6,0,P|460:26|500:88,1,120,2|10,1:2|2:2,0:0:0:0:
502,117,133323,2,0,P|489:164|481:198,1,60,2|0,2:2|1:1,0:0:0:0:
451,216,133646,1,2,1:2:0:0:
469,321,133968,6,0,P|414:302|344:295,1,120,2|0,1:2|1:1,0:0:0:0:
317,336,134452,1,8,2:2:0:0:
231,269,134775,2,0,P|198:285|170:295,1,60,2|8,1:2|2:2,0:0:0:0:
132,324,135097,2,0,P|89:305|76:268,1,60,10|10,2:2|2:2,0:0:0:0:
69,249,135420,5,4,1:2:0:0:
256,192,135743,12,10,138968,2:2:0:0:
397,59,145259,5,10,2:2:0:0:
397,59,145420,2,0,P|355:74|335:81,1,52.4999983978272,10|10,2:2|2:2,0:0:0:0:
321,131,145743,6,0,P|263:105|201:89,1,120,6|10,1:2|2:2,0:0:0:0:
171,43,146226,1,2,2:2:0:0:
171,43,146388,2,0,P|139:60|126:89,1,60,2|2,1:2|2:2,0:0:0:0:
69,93,146710,2,0,P|87:139|94:170,1,60,10|2,2:2|2:2,0:0:0:0:
71,206,147033,1,0,1:1:0:0:
9,309,147356,6,0,P|54:316|67:324,1,60,10|2,2:2|2:2,0:0:0:0:
110,362,147678,1,2,1:2:0:0:
110,362,147839,2,0,P|154:340|175:334,1,60,2|10,2:2|2:2,0:0:0:0:
195,285,148162,1,2,2:2:0:0:
195,285,148323,2,0,P|252:303|319:323,1,120,0|10,1:1|2:2,0:0:0:0:
416,375,148968,6,0,P|452:340|452:318,1,60,2|2,1:2|2:2,0:0:0:0:
432,276,149291,2,0,P|418:226|412:198,1,60,10|2,2:2|2:2,0:0:0:0:
445,165,149614,2,0,P|417:117|338:108,1,120,0|10,1:1|2:2,0:0:0:0:
269,183,150259,6,0,P|231:168|223:149,1,60,2|2,1:2|2:2,0:0:0:0:
182,109,150581,2,0,P|198:54|205:33,1,60,10|2,2:2|2:2,0:0:0:0:
164,2,150904,1,0,1:1:0:0:
61,63,151226,6,0,P|69:120|73:145,1,60,10|2,2:2|2:2,0:0:0:0:
30,168,151549,1,2,1:2:0:0:
30,168,151710,2,0,P|26:213|53:238,1,60,2|10,0:0|2:2,0:0:0:0:
89,244,152033,1,2,2:2:0:0:
89,244,152194,2,0,P|143:265|196:298,1,120,0|10,1:1|2:2,0:0:0:0:
298,359,152839,6,0,P|343:344|369:339,1,60,2|2,1:2|2:2,0:0:0:0:
411,362,153162,2,0,P|437:335|437:309,1,60,10|2,2:2|2:2,0:0:0:0:
409,260,153485,2,0,P|386:189|368:122,1,120,0|10,1:1|2:2,0:0:0:0:
447,50,154130,6,0,P|412:42|385:30,1,60,2|2,1:2|2:2,0:0:0:0:
336,5,154452,2,0,P|296:29|288:48,1,60,10|2,2:2|2:2,0:0:0:0:
242,75,154775,1,0,1:1:0:0:
242,75,154936,2,0,P|205:64|176:52,2,60,2|10|2,2:2|2:2|2:2,0:0:0:0:
289,111,155420,2,0,P|306:157|303:175,1,60,2|2,1:2|0:0,0:0:0:0:
271,217,155743,2,0,P|276:273|288:297,1,60,10|6,0:0|2:2,0:0:0:0:
309,319,156065,1,2,2:2:0:0:
