osu file format v14

[General]
AudioFilename: audio.mp3
AudioLeadIn: 0
PreviewTime: 83323
Countdown: 0
SampleSet: Soft
StackLeniency: 0.7
Mode: 0
LetterboxInBreaks: 0
EpilepsyWarning: 1
WidescreenStoryboard: 1

[Editor]
Bookmarks: 11065,72194,104452,114775,156065
DistanceSpacing: 1.8
BeatDivisor: 4
GridSize: 4
TimelineZoom: 1.6

[Metadata]
Title:Mizuoto to Curtain
TitleUnicode:水音とカーテン
Artist:MIMI
ArtistUnicode:MIMI
Creator:Share
Version:Tristan's Hard feat. Share
Source:
Tags:featured artist mappers' guild japanese fa electronic hatsune miku 初音ミク pop japanese vocaloid ZAWAJIRO Iamwayneking I am wayneking Tristan Magor0 leominexd leomine pado [Hatsune Miku] sinsekai studio city project 深脊界 thinkr
BeatmapID:3581361
BeatmapSetID:1529722

[Difficulty]
HPDrainRate:4.5
CircleSize:3.6
OverallDifficulty:7
ApproachRate:7.2
SliderMultiplier:1.3
SliderTickRate:1

[Events]
//Background and Video events
0,0,"thumb-1920-1180776.png",0,0
//Break Periods
2,55620,57131
2,73685,77776
2,156265,160356
//Storyboard Layer 0 (Background)
//Storyboard Layer 1 (Fail)
//Storyboard Layer 2 (Pass)
//Storyboard Layer 3 (Foreground)
//Storyboard Layer 4 (Overlay)
//Storyboard Sound Samples

[TimingPoints]
1227,322.58064516129,4,2,1,60,1,0
1227,-181.818181818182,4,2,1,60,0,0
11549,-142.857142857143,4,2,1,65,0,0
16388,-142.857142857143,4,2,1,65,0,0
21791,-142.857142857143,4,2,1,65,0,0
21872,-142.857142857143,4,2,1,55,0,0
31226,-142.857142857143,4,2,10,55,0,0
31549,-142.857142857143,4,2,22,55,0,0
31872,-142.857142857143,4,2,19,55,0,0
32033,-142.857142857143,4,2,1,55,0,0
32194,-86.9565217391304,4,2,17,70,0,1
32678,-86.9565217391304,4,2,15,70,0,1
33162,-86.9565217391304,4,2,22,70,0,1
33323,-86.9565217391304,4,2,24,70,0,1
33646,-86.9565217391304,4,2,15,70,0,1
33807,-86.9565217391304,4,2,14,70,0,1
33968,-86.9565217391304,4,2,15,70,0,1
34291,-86.9565217391304,4,2,12,70,0,1
34452,-86.9565217391304,4,2,14,70,0,1
34614,-86.9565217391304,4,2,15,70,0,1
34775,-86.9565217391304,4,2,17,70,0,1
34936,-86.9565217391304,4,2,14,70,0,1
35098,-86.9565217391304,4,2,15,70,0,1
35259,-86.9565217391304,4,2,17,70,0,1
35420,-86.9565217391304,4,2,10,70,0,1
35581,-86.9565217391304,4,2,22,70,0,1
35743,-86.9565217391304,4,2,17,70,0,1
35904,-86.9565217391304,4,2,19,70,0,1
36710,-86.9565217391304,4,2,17,70,0,1
36872,-86.9565217391304,4,2,22,70,0,1
37033,-86.9565217391304,4,2,15,70,0,1
37194,-86.9565217391304,4,2,14,70,0,1
37275,-86.9565217391304,4,2,15,70,0,1
37356,-86.9565217391304,4,2,17,70,0,1
37839,-86.9565217391304,4,2,15,70,0,1
38323,-86.9565217391304,4,2,22,70,0,1
38485,-86.9565217391304,4,2,24,70,0,1
38807,-86.9565217391304,4,2,15,70,0,1
38968,-86.9565217391304,4,2,14,70,0,1
39130,-86.9565217391304,4,2,15,70,0,1
39452,-86.9565217391304,4,2,12,70,0,1
39614,-86.9565217391304,4,2,14,70,0,1
39775,-86.9565217391304,4,2,15,70,0,1
39936,-86.9565217391304,4,2,17,70,0,1
40259,-86.9565217391304,4,2,19,70,0,1
40420,-86.9565217391304,4,2,17,70,0,1
40743,-86.9565217391304,4,2,15,70,0,1
41549,-86.9565217391304,4,2,10,60,0,1
41872,-86.9565217391304,4,2,22,60,0,1
42033,-86.9565217391304,4,2,1,60,0,1
42195,-86.9565217391304,4,2,19,60,0,1
42356,-86.9565217391304,4,2,1,60,0,1
42517,-86.9565217391304,4,2,17,70,0,1
43001,-86.9565217391304,4,2,15,70,0,1
43485,-86.9565217391304,4,2,22,70,0,1
43646,-86.9565217391304,4,2,24,70,0,1
43969,-86.9565217391304,4,2,15,70,0,1
44130,-86.9565217391304,4,2,14,70,0,1
44291,-86.9565217391304,4,2,15,70,0,1
44614,-86.9565217391304,4,2,12,70,0,1
44775,-86.9565217391304,4,2,14,70,0,1
44937,-86.9565217391304,4,2,15,70,0,1
45098,-86.9565217391304,4,2,17,70,0,1
45259,-86.9565217391304,4,2,14,70,0,1
45421,-86.9565217391304,4,2,15,70,0,1
45582,-86.9565217391304,4,2,17,70,0,1
45743,-86.9565217391304,4,2,10,70,0,1
45904,-86.9565217391304,4,2,22,70,0,1
46066,-86.9565217391304,4,2,17,70,0,1
46227,-86.9565217391304,4,2,19,70,0,1
47033,-86.9565217391304,4,2,17,70,0,1
47195,-86.9565217391304,4,2,22,70,0,1
47275,-86.9565217391304,4,2,1,70,0,1
47356,-86.9565217391304,4,2,15,70,0,1
47517,-86.9565217391304,4,2,14,70,0,1
47679,-86.9565217391304,4,2,17,70,0,1
48162,-86.9565217391304,4,2,15,70,0,1
48646,-86.9565217391304,4,2,22,70,0,1
48808,-86.9565217391304,4,2,24,70,0,1
49130,-86.9565217391304,4,2,15,70,0,1
49291,-86.9565217391304,4,2,14,70,0,1
49453,-86.9565217391304,4,2,15,70,0,1
49775,-86.9565217391304,4,2,12,70,0,1
49937,-86.9565217391304,4,2,14,70,0,1
50098,-86.9565217391304,4,2,15,70,0,1
50259,-86.9565217391304,4,2,17,70,0,1
50582,-86.9565217391304,4,2,19,70,0,1
50743,-86.9565217391304,4,2,17,70,0,1
51066,-86.9565217391304,4,2,15,70,0,1
52194,-86.9565217391304,4,2,17,70,0,1
52839,-100,4,2,37,65,0,0
53162,-100,4,2,35,65,0,0
53323,-100,4,2,30,65,0,0
53485,-100,4,2,35,65,0,0
53807,-100,4,2,1,65,0,0
53968,-100,4,2,25,65,0,0
54291,-100,4,2,37,65,0,0
54452,-100,4,2,35,65,0,0
54614,-100,4,2,30,65,0,0
55097,-100,4,2,35,65,0,0
55259,-100,4,2,25,65,0,0
55743,-100,4,2,35,65,0,0
55904,-100,4,2,30,65,0,0
56065,-100,4,2,37,65,0,0
56226,-100,4,2,35,65,0,0
56388,-100,4,2,30,65,0,0
56549,-100,4,2,25,65,0,0
56872,-100,4,2,35,65,0,0
57033,-100,4,2,37,65,0,0
57194,-100,4,2,49,65,0,0
57356,-100,4,2,47,65,0,0
57517,-100,4,2,46,65,0,0
57839,-100,4,2,47,65,0,0
58001,-125,4,2,47,65,0,0
58162,-125,4,2,32,65,0,0
58323,-125,4,2,35,65,0,0
58485,-125,4,2,51,65,0,0
58646,-125,4,2,51,65,0,0
58807,-125,4,2,32,65,0,0
58968,-125,4,2,35,65,0,0
59130,-125,4,2,51,65,0,0
59452,-125,4,2,28,65,0,0
59614,-125,4,2,32,65,0,0
59775,-125,4,2,25,65,0,0
60097,-125,4,2,42,65,0,0
60259,-125,4,2,44,65,0,0
60420,-125,4,2,42,65,0,0
60743,-125,4,2,28,65,0,0
60905,-125,4,2,32,65,0,0
61066,-125,4,2,25,65,0,0
61388,-125,4,2,35,65,0,0
61549,-125,4,2,37,65,0,0
61710,-125,4,2,35,65,0,0
62033,-125,4,2,30,65,0,0
62194,-125,4,2,35,65,0,0
62356,-125,4,2,26,65,0,0
62517,-125,4,2,52,65,0,0
62678,-125,4,2,39,65,0,0
62759,-125,4,2,1,65,0,0
62839,-125,4,2,37,65,0,0
63001,-100,4,2,35,65,0,0
63081,-100,4,2,1,65,0,0
63162,-100,4,2,35,65,0,0
63323,-100,4,2,30,65,0,0
63485,-100,4,2,35,65,0,0
63646,-100,4,2,42,65,0,0
63807,-100,4,2,40,65,0,0
63968,-100,4,2,39,65,0,0
64130,-100,4,2,37,65,0,0
64291,-100,4,2,35,65,0,0
64614,-100,4,2,30,65,0,0
64776,-100,4,2,35,65,0,0
64937,-100,4,2,42,65,0,0
65098,-100,4,2,40,65,0,0
65259,-100,4,2,39,65,0,0
65421,-100,4,2,37,65,0,0
65582,-100,4,2,35,65,0,0
65904,-100,4,2,30,65,0,0
66066,-100,4,2,35,65,0,0
66227,-100,4,2,42,65,0,0
66388,-100,4,2,40,65,0,0
66549,-100,4,2,39,65,0,0
66711,-100,4,2,37,65,0,0
66872,-100,4,2,35,65,0,0
67194,-100,4,2,30,65,0,0
67356,-100,4,2,35,65,0,0
67517,-100,4,2,42,65,0,0
67678,-100,4,2,40,65,0,0
67839,-100,4,2,39,65,0,0
68001,-100,4,2,37,65,0,0
68162,-100,4,2,35,65,0,0
68485,-100,4,2,30,65,0,0
68647,-100,4,2,35,65,0,0
68808,-100,4,2,42,65,0,0
68969,-100,4,2,40,65,0,0
69130,-100,4,2,39,65,0,0
69292,-100,4,2,37,65,0,0
69453,-100,4,2,35,65,0,0
69775,-100,4,2,30,65,0,0
69937,-100,4,2,35,65,0,0
70098,-100,4,2,42,65,0,0
70259,-100,4,2,40,65,0,0
70420,-100,4,2,39,65,0,0
70582,-100,4,2,37,65,0,0
70743,-100,4,2,35,65,0,0
71065,-100,4,2,30,65,0,0
71227,-100,4,2,35,65,0,0
71388,-100,4,2,42,65,0,0
71549,-100,4,2,40,65,0,0
71710,-100,4,2,39,65,0,0
71872,-100,4,2,37,65,0,0
72033,-100,4,2,35,65,0,0
72356,-100,4,2,30,65,0,0
72518,-100,4,2,35,65,0,0
72679,-100,4,2,42,65,0,0
72840,-100,4,2,40,65,0,0
73001,-100,4,2,39,65,0,0
73163,-100,4,2,37,65,0,0
73324,-100,4,2,35,65,0,0
73485,-100,4,2,1,70,0,0
73646,-100,4,2,1,60,0,0
78646,-250,4,2,1,60,0,0
83323,-100,4,2,1,60,0,0
83807,-125,4,2,1,65,0,0
94130,-100,4,2,1,70,0,0
104130,-133.333333333333,4,2,1,70,0,0
104452,-142.857142857143,4,2,1,55,0,0
113807,-142.857142857143,4,2,10,55,0,0
114130,-142.857142857143,4,2,22,55,0,0
114453,-142.857142857143,4,2,19,55,0,0
114614,-142.857142857143,4,2,1,55,0,0
114775,-86.9565217391304,4,2,17,70,0,1
115259,-86.9565217391304,4,2,15,70,0,1
115743,-86.9565217391304,4,2,22,70,0,1
115904,-86.9565217391304,4,2,24,70,0,1
116227,-86.9565217391304,4,2,15,70,0,1
116388,-86.9565217391304,4,2,14,70,0,1
116549,-86.9565217391304,4,2,15,70,0,1
116872,-86.9565217391304,4,2,12,70,0,1
117033,-86.9565217391304,4,2,14,70,0,1
117195,-86.9565217391304,4,2,15,70,0,1
117356,-86.9565217391304,4,2,17,70,0,1
117517,-86.9565217391304,4,2,14,70,0,1
117679,-86.9565217391304,4,2,15,70,0,1
117840,-86.9565217391304,4,2,17,70,0,1
118001,-86.9565217391304,4,2,10,70,0,1
118162,-86.9565217391304,4,2,22,70,0,1
118324,-86.9565217391304,4,2,17,70,0,1
118485,-86.9565217391304,4,2,19,70,0,1
119291,-86.9565217391304,4,2,17,70,0,1
119453,-86.9565217391304,4,2,22,70,0,1
119614,-86.9565217391304,4,2,15,70,0,1
119775,-86.9565217391304,4,2,14,70,0,1
119856,-86.9565217391304,4,2,15,70,0,1
119937,-86.9565217391304,4,2,17,70,0,1
120420,-86.9565217391304,4,2,15,70,0,1
120904,-86.9565217391304,4,2,22,70,0,1
121066,-86.9565217391304,4,2,24,70,0,1
121388,-86.9565217391304,4,2,15,70,0,1
121549,-86.9565217391304,4,2,14,70,0,1
121711,-86.9565217391304,4,2,15,70,0,1
122033,-86.9565217391304,4,2,12,70,0,1
122195,-86.9565217391304,4,2,14,70,0,1
122356,-86.9565217391304,4,2,15,70,0,1
122517,-86.9565217391304,4,2,17,70,0,1
122840,-86.9565217391304,4,2,19,70,0,1
123001,-86.9565217391304,4,2,17,70,0,1
123324,-86.9565217391304,4,2,15,70,0,1
124130,-86.9565217391304,4,2,10,65,0,1
124453,-86.9565217391304,4,2,22,65,0,1
124614,-86.9565217391304,4,2,1,65,0,1
124776,-86.9565217391304,4,2,19,65,0,1
124937,-86.9565217391304,4,2,1,65,0,1
125097,-200,4,2,1,65,0,0
125098,-200,4,2,17,80,0,0
125420,-86.9565217391304,4,2,17,70,0,1
125582,-86.9565217391304,4,2,15,70,0,1
126066,-86.9565217391304,4,2,22,70,0,1
126227,-86.9565217391304,4,2,24,70,0,1
126550,-86.9565217391304,4,2,15,70,0,1
126711,-86.9565217391304,4,2,14,70,0,1
126872,-86.9565217391304,4,2,15,70,0,1
127195,-86.9565217391304,4,2,12,70,0,1
127356,-86.9565217391304,4,2,14,70,0,1
127518,-86.9565217391304,4,2,15,70,0,1
127679,-86.9565217391304,4,2,17,70,0,1
127840,-86.9565217391304,4,2,14,70,0,1
128002,-86.9565217391304,4,2,15,70,0,1
128163,-86.9565217391304,4,2,17,70,0,1
128324,-86.9565217391304,4,2,10,70,0,1
128485,-86.9565217391304,4,2,22,70,0,1
128647,-86.9565217391304,4,2,17,70,0,1
128808,-86.9565217391304,4,2,19,70,0,1
129614,-86.9565217391304,4,2,17,70,0,1
129776,-86.9565217391304,4,2,22,70,0,1
129856,-86.9565217391304,4,2,1,70,0,1
129937,-86.9565217391304,4,2,15,70,0,1
130098,-86.9565217391304,4,2,14,70,0,1
130260,-86.9565217391304,4,2,17,70,0,1
130743,-86.9565217391304,4,2,15,70,0,1
131227,-86.9565217391304,4,2,22,70,0,1
131389,-86.9565217391304,4,2,24,70,0,1
131711,-86.9565217391304,4,2,15,70,0,1
131872,-86.9565217391304,4,2,14,70,0,1
132034,-86.9565217391304,4,2,15,70,0,1
132356,-86.9565217391304,4,2,12,70,0,1
132518,-86.9565217391304,4,2,14,70,0,1
132679,-86.9565217391304,4,2,15,70,0,1
132840,-86.9565217391304,4,2,17,70,0,1
133163,-86.9565217391304,4,2,19,70,0,1
133324,-86.9565217391304,4,2,17,70,0,1
133647,-86.9565217391304,4,2,15,70,0,1
134775,-86.9565217391304,4,2,1,70,0,1
135420,-90.9090909090909,4,2,37,65,0,0
135743,-90.9090909090909,4,2,35,65,0,0
135904,-90.9090909090909,4,2,30,65,0,0
136066,-90.9090909090909,4,2,35,65,0,0
136388,-90.9090909090909,4,2,1,65,0,0
136549,-90.9090909090909,4,2,25,65,0,0
136872,-90.9090909090909,4,2,37,65,0,0
137033,-90.9090909090909,4,2,35,65,0,0
137195,-90.9090909090909,4,2,30,65,0,0
137678,-90.9090909090909,4,2,35,65,0,0
137840,-90.9090909090909,4,2,25,65,0,0
138324,-90.9090909090909,4,2,35,65,0,0
138485,-90.9090909090909,4,2,30,65,0,0
138646,-90.9090909090909,4,2,37,65,0,0
138807,-90.9090909090909,4,2,35,65,0,0
138969,-90.9090909090909,4,2,30,65,0,0
139130,-90.9090909090909,4,2,25,65,0,0
139453,-90.9090909090909,4,2,35,65,0,0
139614,-90.9090909090909,4,2,37,65,0,0
139775,-90.9090909090909,4,2,49,65,0,0
139937,-90.9090909090909,4,2,47,65,0,0
140098,-90.9090909090909,4,2,46,65,0,0
140420,-90.9090909090909,4,2,47,65,0,0
140581,-125,4,2,47,65,0,0
140743,-125,4,2,32,65,0,0
140904,-125,4,2,35,65,0,0
141066,-125,4,2,51,65,0,0
141226,-125,4,2,1,65,0,0
141388,-125,4,2,32,65,0,0
141549,-125,4,2,35,65,0,0
141711,-125,4,2,51,65,0,0
141872,-125,4,2,1,65,0,0
142033,-125,4,2,28,65,0,0
142195,-125,4,2,32,65,0,0
142356,-125,4,2,25,65,0,0
142678,-125,4,2,42,65,0,0
142840,-125,4,2,44,65,0,0
143001,-125,4,2,42,65,0,0
143324,-125,4,2,28,65,0,0
143486,-125,4,2,32,65,0,0
143647,-125,4,2,25,65,0,0
143969,-125,4,2,35,65,0,0
144130,-125,4,2,37,65,0,0
144291,-125,4,2,35,65,0,0
144614,-125,4,2,30,65,0,0
144775,-125,4,2,35,65,0,0
144937,-125,4,2,26,65,0,0
145098,-125,4,2,52,65,0,0
145259,-125,4,2,39,65,0,0
145421,-125,4,2,37,65,0,0
145582,-125,4,2,35,65,0,0
145743,-100,4,2,66,65,0,0
145904,-100,4,2,31,67,0,0
146065,-100,4,2,36,67,0,0
146226,-100,4,2,43,67,0,0
146388,-100,4,2,41,67,0,0
146549,-100,4,2,40,67,0,0
146710,-100,4,2,38,67,0,0
146872,-100,4,2,36,67,0,0
147194,-100,4,2,31,67,0,0
147355,-100,4,2,36,67,0,0
147516,-100,4,2,43,67,0,0
147678,-100,4,2,41,67,0,0
147839,-100,4,2,40,67,0,0
148000,-100,4,2,38,67,0,0
148162,-100,4,2,36,67,0,0
148485,-100,4,2,31,67,0,0
148646,-100,4,2,36,67,0,0
148807,-100,4,2,43,67,0,0
148969,-100,4,2,41,67,0,0
149130,-100,4,2,40,67,0,0
149291,-100,4,2,38,67,0,0
149453,-100,4,2,36,67,0,0
149775,-100,4,2,31,67,0,0
149936,-100,4,2,36,67,0,0
150097,-100,4,2,43,67,0,0
150259,-100,4,2,41,67,0,0
150420,-100,4,2,40,67,0,0
150581,-100,4,2,38,67,0,0
150743,-100,4,2,36,67,0,0
151065,-100,4,2,31,67,0,0
151226,-100,4,2,36,67,0,0
151387,-100,4,2,43,67,0,0
151549,-100,4,2,41,67,0,0
151710,-100,4,2,40,67,0,0
151871,-100,4,2,38,67,0,0
152033,-100,4,2,36,67,0,0
152356,-100,4,2,31,67,0,0
152517,-100,4,2,36,67,0,0
152678,-100,4,2,43,67,0,0
152840,-100,4,2,41,67,0,0
153001,-100,4,2,40,67,0,0
153162,-100,4,2,38,67,0,0
153324,-100,4,2,36,67,0,0
153646,-100,4,2,31,67,0,0
153807,-100,4,2,36,67,0,0
153968,-100,4,2,43,67,0,0
154130,-100,4,2,41,67,0,0
154291,-100,4,2,40,67,0,0
154452,-100,4,2,38,67,0,0
154614,-100,4,2,36,67,0,0
154936,-100,4,2,60,67,0,0
155097,-100,4,2,61,67,0,0
155258,-100,4,2,62,67,0,0
155420,-100,4,2,63,67,0,0
155581,-100,4,2,64,67,0,0
155742,-100,4,2,65,67,0,0
155904,-100,4,2,66,67,0,0
156065,-100,4,2,90,60,0,0
156226,-100,4,2,28,60,0,0
156388,-100,4,2,33,60,0,0
156549,-100,4,2,35,60,0,0
156710,-100,4,2,36,60,0,0
156872,-100,4,2,43,60,0,0
157033,-100,4,2,48,60,0,0
157194,-100,4,2,50,60,0,0
157356,-100,4,2,91,60,0,0
157517,-100,4,2,56,60,0,0
157678,-100,4,2,29,60,0,0
157839,-100,4,2,33,60,0,0
158001,-100,4,2,36,60,0,0
158162,-100,4,2,43,60,0,0
158323,-100,4,2,48,60,0,0
158485,-100,4,2,50,60,0,0
158646,-100,4,2,92,60,0,0
158807,-100,4,2,57,60,0,0
158968,-100,4,2,31,60,0,0
159130,-100,4,2,35,60,0,0
159291,-100,4,2,36,60,0,0
159452,-100,4,2,43,60,0,0
159614,-100,4,2,48,60,0,0
159775,-100,4,2,50,60,0,0
159936,-100,4,2,93,60,0,0
160097,-100,4,2,31,60,0,0
160259,-100,4,2,36,60,0,0
160420,-100,4,2,40,60,0,0
160581,-100,4,2,36,60,0,0
160743,-100,4,2,43,60,0,0
160904,-100,4,2,48,60,0,0
161065,-100,4,2,50,60,0,0
161226,-250,4,2,94,60,0,0
161388,-250,4,2,28,60,0,0
161550,-250,4,2,33,60,0,0
161711,-250,4,2,35,60,0,0
161872,-250,4,2,36,60,0,0
162034,-250,4,2,43,60,0,0
162195,-250,4,2,48,60,0,0
162356,-250,4,2,55,60,0,0
162517,-250,4,2,91,60,0,0
162678,-250,4,2,56,60,0,0
162839,-250,4,2,28,60,0,0
163000,-250,4,2,33,60,0,0
163162,-250,4,2,36,60,0,0
163323,-250,4,2,43,60,0,0
163484,-250,4,2,48,60,0,0
163646,-250,4,2,50,60,0,0
163807,-250,4,2,92,60,0,0
163968,-250,4,2,57,60,0,0
164129,-250,4,2,31,60,0,0
164291,-250,4,2,35,60,0,0
164452,-250,4,2,36,60,0,0
164613,-250,4,2,43,60,0,0
164775,-250,4,2,48,60,0,0
164936,-250,4,2,50,60,0,0
165097,-250,4,2,93,60,0,0
165259,-250,4,2,31,60,0,0
165420,-250,4,2,36,60,0,0
165581,-250,4,2,40,60,0,0
165743,-1000,4,2,50,60,0,0
167839,-1000,4,2,1,5,0,0

[Colours]
Combo1 : 185,230,244
Combo2 : 27,214,228
Combo3 : 128,255,255
Combo4 : 255,179,217

[HitObjects]
104,284,1227,6,0,P|97:313|92:331,2,35.7500010910034,2|0|2,2:2|0:0|2:2,0:0:0:0:
153,242,1710,2,0,L|230:255,1,71.5000021820069,2|0,2:2|0:0,0:0:0:0:
286,267,2194,1,2,2:2:0:0:
399,327,2517,6,0,P|415:321|436:318,2,35.7500010910034,2|2|2,2:2|2:2|2:2,0:0:0:0:
367,270,3001,2,0,L|371:189,1,71.5000021820069,2|2,2:2|2:2,0:0:0:0:
347,138,3485,1,2,2:2:0:0:
473,118,3807,6,0,P|489:111|517:107,2,35.7500010910034,2|0|2,2:2|0:0|2:2,0:0:0:0:
437,64,4291,2,0,P|412:55|357:49,1,71.5000021820069,2|0,2:2|0:0,0:0:0:0:
303,47,4775,1,2,2:2:0:0:
174,43,5097,6,0,P|158:54|131:61,2,35.7500010910034,2|2|2,2:2|2:2|2:2,0:0:0:0:
213,94,5581,2,0,L|222:176,1,71.5000021820069,2|2,2:2|2:2,0:0:0:0:
254,226,6065,1,2,2:2:0:0:
254,226,6226,1,0,2:2:0:0:
190,214,6388,6,0,P|163:225|141:230,1,35.7500010910034,0|0,2:2|2:2,0:0:0:0:
113,274,6710,2,0,P|138:279|150:288,1,35.7500010910034,0|2,2:2|2:2,0:0:0:0:
184,336,7033,2,0,P|236:326|265:322,1,71.5000021820069,2|2,2:2|2:2,0:0:0:0:
308,359,7517,1,2,2:2:0:0:
366,332,7678,6,0,P|395:323|408:323,2,35.7500010910034,2|2|2,2:2|2:2|2:2,0:0:0:0:
329,278,8162,2,0,P|323:232|317:199,1,71.5000021820069,2|2,2:2|2:2,0:0:0:0:
278,156,8646,2,0,P|265:154|232:166,1,35.7500010910034,0|0,2:2|2:2,0:0:0:0:
172,223,8968,6,0,P|161:201|141:186,1,35.7500010910034,0|0,2:2|2:2,0:0:0:0:
64,194,9291,2,0,P|78:166|83:149,1,35.7500010910034,0|0,2:2|2:2,0:0:0:0:
59,75,9614,2,0,P|110:81|146:85,1,71.5000021820069,2|2,2:2|2:2,0:0:0:0:
176,76,10097,1,2,2:2:0:0:
176,76,10259,2,0,P|183:43|181:30,2,35.7500010910034,2|2|2,2:2|2:2|2:2,0:0:0:0:
209,131,10743,2,0,P|216:169|222:210,1,71.5000021820069,2|2,2:2|2:2,0:0:0:0:
208,264,11226,2,0,P|184:269|157:269,1,35.7500010910034,0|0,2:2|2:2,0:0:0:0:
249,298,11549,6,0,L|360:315,1,90.9999972229005,0|2,1:1|2:2,0:0:0:0:
382,343,12033,1,2,1:2:0:0:
382,343,12194,1,8,0:1:0:0:
472,288,12517,1,2,2:2:0:0:
428,182,12839,6,0,L|436:79,1,90.9999972229005,0|2,1:1|2:2,0:0:0:0:
414,54,13323,1,2,1:2:0:0:
414,54,13484,1,8,0:1:0:0:
317,73,13807,1,2,2:2:0:0:
324,171,14130,6,0,L|234:177,1,90.9999972229005,0|2,1:1|2:2,0:0:0:0:
185,165,14614,1,2,1:2:0:0:
185,165,14775,1,8,0:1:0:0:
134,260,15098,1,2,2:2:0:0:
247,317,15420,5,0,1:1:0:0:
247,317,15581,2,0,P|280:324|341:340,1,90.9999972229005,2|2,1:2|1:2,0:0:0:0:
416,328,16065,2,0,P|424:303|409:271,1,45.4999986114502,8|2,0:1|2:2,0:0:0:0:
481,228,16388,1,2,2:2:0:0:
481,228,16549,1,0,0:0:0:0:
410,185,16710,6,0,P|378:189|345:193,1,45.4999986114502,2|2,1:2|2:2,0:0:0:0:
309,246,17033,2,0,P|277:242|244:238,1,45.4999986114502,2|2,2:2|1:2,0:0:0:0:
191,275,17356,2,0,P|184:237|212:183,1,90.9999972229005,8|2,0:1|2:2,0:0:0:0:
293,160,17839,1,2,2:2:0:0:
293,160,18001,6,0,B|335:164|335:164|341:169|341:169|387:176,1,90.9999972229005,0|2,1:1|2:2,0:0:0:0:
462,144,18485,1,2,1:2:0:0:
462,144,18646,2,0,P|469:106|473:87,1,45.4999986114502,8|2,0:1|2:2,0:0:0:0:
422,32,18968,2,0,L|371:27,1,45.4999986114502,2|2,2:2|2:2,0:0:0:0:
290,53,19291,6,0,P|252:71|199:63,1,90.9999972229005,2|2,1:2|2:2,0:0:0:0:
107,48,19775,1,2,1:2:0:0:
107,48,19936,2,0,B|112:68|115:92,1,45.4999986114502,8|0,0:1|0:0,0:0:0:0:
181,155,20259,2,0,P|166:180|164:205,1,45.4999986114502,2|0,2:2|0:0,0:0:0:0:
210,266,20581,6,0,B|255:272|255:272|267:282|267:282|312:288,1,90.9999972229005,0|2,1:1|2:2,0:0:0:0:
363,341,21065,1,2,1:2:0:0:
363,341,21226,2,0,P|395:328|414:327,1,45.4999986114502,8|0,0:1|0:0,0:0:0:0:
484,281,21549,2,0,P|458:281|419:240,1,68.2499979171754,2|0,2:2|0:0,0:0:0:0:
427,232,21872,5,4,2:2:0:0:
307,268,22517,2,0,P|288:271|206:290,1,90.9999972229005,2|2,2:2|2:2,0:0:0:0:
175,311,23001,2,0,P|156:308|78:290,1,90.9999972229005,2|2,2:2|2:2,0:0:0:0:
48,285,23485,6,0,P|27:311|29:384,2,90.9999972229005,2|2|2,2:2|2:2|2:2,0:0:0:0:
59,169,24452,2,0,P|50:129|26:81,1,90.9999972229005,2|2,2:2|2:2,0:0:0:0:
108,26,25097,2,0,P|146:40|214:49,1,90.9999972229005,2|2,2:2|2:2,0:0:0:0:
235,93,25581,1,2,2:2:0:0:
235,93,26549,6,0,P|211:97|175:111,2,45.4999986114502,2|2|2,2:2|2:2|2:2,0:0:0:0:
298,46,27033,2,0,P|321:51|390:68,1,90.9999972229005,2|2,2:2|2:2,0:0:0:0:
474,158,27678,2,0,P|451:163|382:180,1,90.9999972229005,2|2,2:2|2:2,0:0:0:0:
307,152,28162,2,0,P|301:194|338:245,1,90.9999972229005,2|0,2:2|0:0,0:0:0:0:
394,282,28646,6,0,P|419:286|494:306,2,90.9999972229005,2|2|2,2:2|2:2|2:2,0:0:0:0:
250,332,29614,2,0,P|243:301|224:241,1,90.9999972229005,2|2,2:2|2:2,0:0:0:0:
284,181,30097,2,0,P|291:150|310:90,1,90.9999972229005,2|2,2:2|2:2,0:0:0:0:
249,32,30581,1,2,2:2:0:0:
249,32,30743,1,2,2:2:0:0:
411,0,31226,5,2,2:2:0:0:
500,100,31549,1,2,2:2:0:0:
364,131,31872,1,2,2:2:0:0:
454,286,32194,6,0,B|473:263|460:244|460:244|339:229,1,149.500002851486,6|8,1:2|2:2,0:0:0:0:
293,184,32678,2,0,P|276:226|281:265,1,74.7500014257431,2|0,2:2|1:1,0:0:0:0:
321,343,33001,5,2,2:2:0:0:
321,343,33162,1,10,2:2:0:0:
232,342,33323,2,0,P|183:345|147:359,1,74.7500014257431,2|0,2:2|1:1,0:0:0:0:
67,350,33646,1,2,2:2:0:0:
67,350,33807,1,10,2:2:0:0:
97,271,33968,2,0,P|145:267|181:253,1,74.7500014257431,2|0,2:2|1:1,0:0:0:0:
229,197,34291,1,2,2:2:0:0:
229,197,34452,2,0,P|242:156|235:113,1,74.7500014257431,10|2,2:2|2:2,0:0:0:0:
200,54,34775,6,0,B|164:56|164:56|155:62|155:62|114:66,1,74.7500014257431,2|2,1:2|2:2,0:0:0:0:
25,54,35097,1,10,2:2:0:0:
25,54,35259,1,2,2:2:0:0:
2,151,35420,2,0,B|37:148|37:148|46:142|46:142|74:139,1,74.7500014257431,2|2,1:2|2:2,0:0:0:0:
164,143,35742,1,10,2:2:0:0:
200,54,35904,6,0,P|272:104|265:163,1,149.500002851486,2|0,2:2|0:0,0:0:0:0:
309,238,36388,2,0,P|351:246|407:256,1,74.7500014257431,10|0,2:2|0:0,0:0:0:0:
447,179,36710,1,2,1:2:0:0:
447,179,36872,2,0,P|454:129|462:98,1,74.7500014257431,2|10,2:2|2:2,0:0:0:0:
397,28,37194,1,2,2:2:0:0:
397,28,37275,1,2,2:2:0:0:
397,28,37356,6,0,B|302:22|351:82|247:72,1,149.500002851486,2|10,1:2|2:2,0:0:0:0:
163,132,37839,2,0,B|257:126|208:186|312:176,1,149.500002851486,2|2,2:2|2:2,0:0:0:0:
375,124,38323,1,10,2:2:0:0:
375,124,38485,2,0,P|383:175|390:212,1,74.7500014257431,2|0,2:2|1:1,0:0:0:0:
474,187,38807,1,2,2:2:0:0:
474,187,38968,1,10,2:2:0:0:
447,273,39130,2,0,P|396:281|359:288,1,74.7500014257431,2|0,2:2|1:1,0:0:0:0:
320,350,39452,1,2,2:2:0:0:
320,350,39614,2,0,P|269:342|232:335,1,74.7500014257431,10|2,2:2|2:2,0:0:0:0:
194,278,39936,6,0,P|185:219|165:130,1,149.500002851486,2|10,1:2|2:2,0:0:0:0:
225,71,40420,2,0,P|271:84|306:86,1,74.7500014257431,2|0,2:2|1:1,0:0:0:0:
150,36,40743,2,0,P|112:39|77:51,1,74.7500014257431,2|8,2:2|2:2,0:0:0:0:
25,114,41065,2,0,B|18:188|18:188|22:195|22:195|16:276,1,149.500002851486,2|0,2:2|0:0,0:0:0:0:
66,324,41549,2,0,P|103:342|143:336,1,74.7500014257431,10|0,2:2|0:0,0:0:0:0:
201,279,41872,1,2,1:2:0:0:
148,206,42033,2,0,L|97:202,2,37.3750007128716,10|8|10,2:2|2:2|2:2,0:0:0:0:
209,144,42356,5,8,2:2:0:0:
209,144,42436,1,8,2:2:0:0:
209,144,42517,2,0,B|270:150|270:150|292:176|292:176|370:186,1,149.500002851486,6|8,1:2|2:2,0:0:0:0:
418,125,43001,2,0,P|435:161|430:214,1,74.7500014257431,2|0,2:2|1:1,0:0:0:0:
491,270,43323,5,2,2:2:0:0:
491,270,43485,1,10,2:2:0:0:
452,346,43646,2,0,P|385:351|353:353,1,74.7500014257431,2|0,2:2|1:1,0:0:0:0:
307,286,43968,1,2,2:2:0:0:
307,286,44130,1,10,2:2:0:0:
227,347,44291,2,0,P|160:342|128:340,1,74.7500014257431,2|0,2:2|1:1,0:0:0:0:
71,340,44614,1,2,2:2:0:0:
71,340,44775,2,0,P|58:298|77:251,1,74.7500014257431,10|2,2:2|2:2,0:0:0:0:
129,207,45097,6,0,L|208:216,1,74.7500014257431,2|2,1:2|2:2,0:0:0:0:
274,161,45420,1,10,2:2:0:0:
274,161,45581,1,2,2:2:0:0:
214,89,45743,2,0,P|202:45|225:1,2,74.7500014257431,2|2|10,1:2|2:2|2:2,0:0:0:0:
274,161,46226,6,0,B|314:148|348:167|348:167|370:205|422:203,1,149.500002851486,2|0,2:2|0:0,0:0:0:0:
487,155,46710,2,0,P|500:109|503:75,1,74.7500014257431,10|0,2:2|0:0,0:0:0:0:
435,19,47033,1,2,1:2:0:0:
435,19,47194,2,0,P|385:11|349:1,1,74.7500014257431,2|10,2:2|2:2,0:0:0:0:
284,58,47517,1,2,2:2:0:0:
284,58,47597,1,0,0:0:0:0:
284,58,47678,6,0,B|207:48|227:107|146:102,1,149.500002851486,2|10,1:2|2:2,0:0:0:0:
81,51,48162,2,0,P|64:96|72:143,1,74.7500014257431,2|0,2:2|1:1,0:0:0:0:
50,213,48485,1,2,2:2:0:0:
50,213,48646,1,10,2:2:0:0:
135,191,48807,2,0,P|172:192|228:174,1,74.7500014257431,2|0,2:2|1:1,0:0:0:0:
307,199,49130,1,2,2:2:0:0:
307,199,49291,1,10,2:2:0:0:
251,273,49452,2,0,P|213:271|158:290,1,74.7500014257431,2|0,2:2|1:1,0:0:0:0:
132,356,49775,1,2,2:2:0:0:
132,356,49936,2,0,P|76:362|34:366,1,74.7500014257431,10|2,2:2|2:2,0:0:0:0:
8,294,50259,6,0,B|-4:220|41:235|11:140,1,149.500002851486,2|10,1:2|2:2,0:0:0:0:
59,78,50743,2,0,P|100:85|149:92,1,74.7500014257431,2|0,2:2|1:1,0:0:0:0:
198,143,51065,2,0,P|239:136|288:129,1,74.7500014257431,2|10,2:2|2:2,0:0:0:0:
313,60,51388,2,0,P|352:98|324:188,1,149.500002851486,2|0,2:2|0:0,0:0:0:0:
257,227,51872,2,0,P|244:260|257:312,1,74.7500014257431,8|2,2:2|2:2,0:0:0:0:
317,359,52194,1,2,1:2:0:0:
388,299,52356,6,0,L|392:254,2,37.3750007128716,8|8|8,2:2|2:2|2:2,0:0:0:0:
457,360,52678,1,10,2:2:0:0:
475,363,52759,1,8,2:2:0:0:
493,366,52839,1,4,1:2:0:0:
256,192,52920,12,0,55420,1:1:0:0:
496,366,58001,6,0,P|488:335|419:331,1,104,0|10,1:1|2:2,0:0:0:0:
358,376,58485,1,2,2:2:0:0:
358,376,58646,2,0,P|308:384|290:387,1,52,0|2,1:1|0:0,0:0:0:0:
231,346,58968,2,0,P|221:309|230:278,1,52,10|2,2:2|2:2,0:0:0:0:
272,231,59291,6,0,B|332:221|320:259|374:247,1,104,0|10,1:1|2:2,0:0:0:0:
434,189,59775,1,2,2:2:0:0:
434,189,59936,2,0,P|442:154|442:118,1,52,0|2,1:1|2:2,0:0:0:0:
383,76,60259,2,0,P|331:81|314:83,1,52,10|2,2:2|2:2,0:0:0:0:
237,45,60581,6,0,P|246:82|260:163,1,104,0|10,1:1|2:2,0:0:0:0:
307,217,61065,1,2,2:2:0:0:
307,217,61226,2,0,P|278:230|253:231,1,52,0|2,1:2|2:2,0:0:0:0:
184,186,61549,2,0,P|155:173|130:172,1,52,10|2,2:2|2:2,0:0:0:0:
42,140,61872,6,0,L|29:251,1,104,0|10,1:1|2:2,0:0:0:0:
43,325,62356,1,2,2:2:0:0:
112,365,62517,1,2,1:2:0:0:
177,315,62678,2,0,L|171:274,2,26,10|8|10,2:2|2:2|2:2,0:0:0:0:
251,373,63001,1,10,2:2:0:0:
251,373,63081,1,8,2:2:0:0:
251,373,63162,6,0,B|306:376|303:337|389:358,1,130,6|10,1:2|2:2,0:0:0:0:
458,384,63646,1,2,2:2:0:0:
458,384,63807,2,0,P|465:352|454:315,1,65,2|2,1:2|2:2,0:0:0:0:
367,265,64130,1,10,2:2:0:0:
367,265,64291,6,0,P|352:217|389:146,1,130,2|2,2:2|2:2,0:0:0:0:
438,75,64775,1,10,2:2:0:0:
438,75,64936,1,2,2:2:0:0:
438,75,65097,2,0,P|483:80|518:88,2,65,2|2|10,1:2|2:2|2:2,0:0:0:0:
361,32,65581,6,0,B|300:43|323:72|226:72,1,130,2|2,2:2|2:2,0:0:0:0:
179,16,66065,2,0,P|156:59|155:81,1,65,10|2,2:2|2:2,0:0:0:0:
84,174,66388,2,0,P|123:158|160:159,1,65,2|2,1:2|2:2,0:0:0:0:
229,151,66710,1,10,2:2:0:0:
229,151,66872,6,0,P|273:156|361:172,1,130,2|2,2:2|2:2,0:0:0:0:
443,257,67356,2,0,P|442:222|441:189,1,65,10|2,2:2|2:2,0:0:0:0:
413,114,67678,2,0,P|417:89|421:46,2,65,2|2|10,1:2|2:2|2:2,0:0:0:0:
496,126,68162,6,0,P|525:164|501:242,1,130,2|2,2:2|0:0,0:0:0:0:
416,261,68646,1,10,2:2:0:0:
416,261,68807,1,2,2:2:0:0:
491,334,68968,2,0,P|458:338|427:345,1,65,2|2,1:2|0:0,0:0:0:0:
353,310,69291,1,10,2:2:0:0:
300,369,69453,6,0,P|235:369|173:349,1,130,2|2,2:2|2:2,0:0:0:0:
84,358,69936,2,0,P|45:352|4:342,1,65,10|2,2:2|2:2,0:0:0:0:
112,275,70259,1,2,1:2:0:0:
26,246,70420,1,2,2:2:0:0:
107,192,70581,1,10,2:2:0:0:
107,192,70743,6,0,P|107:127|95:63,1,130,2|2,2:2|2:2,0:0:0:0:
197,44,71226,2,0,P|244:35|282:41,1,65,10|2,2:2|2:2,0:0:0:0:
322,105,71549,1,2,1:2:0:0:
245,142,71710,1,2,2:2:0:0:
227,223,71872,1,10,2:2:0:0:
287,288,72033,6,0,P|327:296|419:312,1,130,2|2,2:2|2:2,0:0:0:0:
487,245,72517,2,0,P|461:239|416:229,1,65,10|2,2:2|2:2,0:0:0:0:
362,138,72839,2,0,P|402:146|445:153,1,65,2|2,1:2|0:0,0:0:0:0:
493,32,73162,1,10,0:0:0:0:
418,59,73323,1,2,0:0:0:0:
352,17,73485,5,4,2:2:0:0:
159,142,78646,6,0,P|168:179|176:201,1,52,2|2,2:2|2:2,0:0:0:0:
184,242,79130,1,2,2:2:0:0:
184,242,79292,2,0,P|172:250|157:253,1,26,2|0,2:2|0:0,0:0:0:0:
133,299,79614,2,0,P|143:308|153:324,1,26,2|2,2:2|2:2,0:0:0:0:
189,354,79937,6,0,P|213:344|238:342,1,52,2|2,2:2|2:2,0:0:0:0:
290,347,80421,1,2,2:2:0:0:
290,347,80582,2,0,P|313:355|325:357,1,26,2|2,2:2|2:2,0:0:0:0:
368,347,80905,2,0,P|380:327|388:317,1,26,2|0,2:2|0:0,0:0:0:0:
420,285,81227,6,0,P|457:277|481:274,1,52,2|2,2:2|2:2,0:0:0:0:
485,229,81711,1,2,2:2:0:0:
485,229,81872,2,0,P|489:207|491:194,1,26,2|2,2:2|2:2,0:0:0:0:
470,158,82195,2,0,P|466:136|464:123,1,26,2|2,2:2|2:2,0:0:0:0:
428,115,82517,6,0,P|422:113|402:109,1,26,2|2,2:2|2:2,0:0:0:0:
362,143,82840,2,0,P|349:146|337:150,1,26,2|2,2:2|2:2,0:0:0:0:
249,83,83162,1,2,2:2:0:0:
249,83,83807,6,0,P|243:149|239:205,1,104,0|2,1:1|2:2,0:0:0:0:
291,262,84291,1,2,1:2:0:0:
291,262,84452,1,8,0:1:0:0:
167,366,84775,2,0,P|139:351|106:351,1,52,2|2,2:2|2:2,0:0:0:0:
40,338,85097,6,0,P|46:286|71:240,1,104,0|2,1:1|2:2,0:0:0:0:
97,228,85581,1,2,1:2:0:0:
97,228,85743,1,8,0:1:0:0:
105,65,86065,1,2,2:2:0:0:
105,65,86226,6,0,B|170:67|157:119|212:105,1,104,2|2,2:2|2:2,0:0:0:0:
285,127,86710,2,0,P|298:156|294:189,1,52,2|2,2:2|1:2,0:0:0:0:
231,231,87033,2,0,P|252:256|331:253,1,104,8|2,0:1|2:2,0:0:0:0:
452,233,87678,6,0,P|459:193|467:165,1,52,0|2,1:1|1:2,0:0:0:0:
492,109,88001,1,2,2:2:0:0:
492,109,88162,1,2,1:2:0:0:
492,109,88323,2,0,P|485:69|417:50,1,104,8|2,0:1|2:2,0:0:0:0:
329,23,88968,6,0,P|292:28|262:32,1,52,0|2,1:1|2:2,0:0:0:0:
298,111,89291,2,0,P|261:116|232:119,1,52,2|2,2:2|1:2,0:0:0:0:
209,212,89614,2,0,P|278:202|333:195,1,104,8|2,0:1|2:2,0:0:0:0:
392,226,90097,1,2,2:2:0:0:
392,226,90259,6,0,P|402:262|393:296,1,52,0|2,1:1|2:2,0:0:0:0:
438,347,90581,2,0,P|398:360|377:356,1,52,2|2,2:2|1:2,0:0:0:0:
318,308,90904,1,8,0:1:0:0:
211,370,91549,6,0,P|174:365|144:362,1,52,0|2,1:1|2:2,0:0:0:0:
180,282,91872,2,0,P|143:277|113:274,1,52,2|2,2:2|1:2,0:0:0:0:
91,181,92195,2,0,P|160:191|216:198,1,104,8|2,0:1|2:2,0:0:0:0:
271,150,92678,1,2,2:2:0:0:
271,150,92839,6,0,P|279:111|274:83,1,52,0|2,1:1|2:2,0:0:0:0:
340,39,93162,2,0,P|379:47|407:44,1,52,2|2,2:2|1:2,0:0:0:0:
459,104,93485,1,8,0:1:0:0:
281,279,94130,6,0,B|230:288|230:288|201:313|201:313|141:319,1,130,0|2,1:1|1:2,0:0:0:0:
80,357,94614,1,2,2:2:0:0:
80,357,94775,2,0,B|71:306|71:306|46:277|46:277|41:224,1,130,2|2,1:2|1:2,0:0:0:0:
0,159,95259,1,2,2:2:0:0:
0,159,95420,2,0,B|51:150|51:150|80:125|80:125|143:120,1,130,0|2,1:1|1:2,0:0:0:0:
196,82,95904,1,2,2:2:0:0:
196,82,96065,2,0,B|205:133|205:133|230:162|230:162|235:225,1,130,0|2,1:1|1:2,0:0:0:0:
185,269,96549,1,2,2:2:0:0:
185,269,96710,6,0,P|219:286|268:279,1,65,2|2,1:2|2:2,0:0:0:0:
298,365,97033,2,0,P|265:366|237:382,1,65,2|2,1:2|2:2,0:0:0:0:
334,284,97356,2,0,L|345:150,1,130,2|2,1:2|1:2,0:0:0:0:
410,89,97839,1,2,2:2:0:0:
410,89,98001,6,0,B|350:60|350:60|271:91,1,130,0|2,1:1|1:2,0:0:0:0:
228,143,98485,1,2,2:2:0:0:
228,143,98646,2,0,P|190:156|159:152,1,65,0|2,1:1|2:2,0:0:0:0:
94,214,98968,1,2,1:2:0:0:
94,214,99130,1,2,2:2:0:0:
94,214,99291,6,0,P|80:269|77:295,1,65,2|2,1:2|2:2,0:0:0:0:
23,355,99614,2,0,P|55:362|99:370,1,65,2|2,1:2|2:2,0:0:0:0:
164,327,99936,2,0,P|227:313|318:317,1,130,2|2,1:2|1:2,0:0:0:0:
359,368,100420,1,2,2:2:0:0:
359,368,100581,6,0,P|375:331|368:289,1,65,0|2,1:1|2:2,0:0:0:0:
456,272,100904,2,0,P|432:239|393:224,1,65,2|2,1:2|2:2,0:0:0:0:
491,176,101226,2,0,L|503:46,1,130,0|2,1:1|1:2,0:0:0:0:
411,31,101710,1,2,2:2:0:0:
411,31,101872,6,0,P|367:37|336:45,1,65,2|2,1:2|2:2,0:0:0:0:
302,122,102194,2,0,P|258:116|227:108,1,65,2|2,1:2|2:2,0:0:0:0:
193,39,102517,2,0,P|155:75|168:162,1,130,2|2,1:2|1:2,0:0:0:0:
225,213,103001,1,2,2:2:0:0:
225,213,103162,2,0,P|277:223|310:228,1,65,0|2,1:1|2:2,0:0:0:0:
322,316,103485,2,0,P|270:306|237:301,1,65,2|2,2:2|2:2,0:0:0:0:
188,354,103807,1,2,2:2:0:0:
28,307,104130,2,0,P|46:276|96:274,1,73.1250027894975,2|0,2:2|0:0,0:0:0:0:
113,281,104452,5,4,2:2:0:0:
219,199,105097,2,0,P|249:211|314:220,1,90.9999972229005,2|2,2:2|2:2,0:0:0:0:
356,256,105581,2,0,P|386:244|451:235,1,90.9999972229005,2|2,2:2|2:2,0:0:0:0:
493,213,106065,6,0,P|498:179|501:120,2,90.9999972229005,2|2|2,2:2|2:2|2:2,0:0:0:0:
406,269,107033,2,0,P|407:314|414:359,2,90.9999972229005,2|2|2,2:2|2:2|2:2,0:0:0:0:
330,189,108001,2,0,L|272:177,1,45.4999986114502,2|2,2:2|2:2,0:0:0:0:
240,151,108323,6,0,B|148:149|163:224|66:231,1,181.999994445801,2|0,2:2|0:0,0:0:0:0:
60,283,109130,1,2,2:2:0:0:
60,283,109291,2,0,P|81:283|116:302,1,45.4999986114502,2|2,2:2|2:2,0:0:0:0:
140,337,109614,6,0,P|167:324|230:325,1,90.9999972229005,2|2,2:2|2:2,0:0:0:0:
319,246,110259,2,0,P|274:249|231:233,1,90.9999972229005,2|2,2:2|2:2,0:0:0:0:
208,198,110743,2,0,P|216:153|187:99,1,90.9999972229005,2|0,2:2|0:0,0:0:0:0:
161,83,111226,6,0,L|67:71,2,90.9999972229005,2|2|2,2:2|2:2|2:2,0:0:0:0:
260,152,112194,2,0,L|269:56,1,90.9999972229005,2|2,2:2|2:2,0:0:0:0:
317,58,112678,2,0,P|367:64|407:50,1,90.9999972229005,2|2,2:2|2:2,0:0:0:0:
433,70,113162,1,2,2:2:0:0:
441,155,113323,1,2,2:2:0:0:
333,232,113807,5,2,2:2:0:0:
277,322,114130,1,2,2:2:0:0:
189,259,114453,1,2,2:2:0:0:
130,349,114775,6,0,P|73:363|-1:299,1,149.500002851486,6|8,1:2|2:2,0:0:0:0:
89,266,115259,2,0,P|99:230|92:194,1,74.7500014257431,2|0,2:2|1:1,0:0:0:0:
7,221,115581,5,2,1:2:0:0:
7,221,115743,1,10,2:2:0:0:
26,140,115904,2,0,P|19:86|11:53,1,74.7500014257431,2|0,2:2|1:1,0:0:0:0:
102,29,116226,1,2,1:2:0:0:
102,29,116388,1,10,2:2:0:0:
114,114,116549,2,0,P|169:102|200:99,1,74.7500014257431,2|0,1:2|1:1,0:0:0:0:
218,188,116872,1,2,1:2:0:0:
218,188,117033,2,0,P|262:175|296:174,1,74.7500014257431,10|2,2:2|2:2,0:0:0:0:
321,94,117356,5,2,1:2:0:0:
321,94,117517,1,2,2:2:0:0:
392,36,117678,2,0,L|474:48,1,74.7500014257431,10|2,2:2|2:2,0:0:0:0:
512,128,118001,1,2,1:2:0:0:
512,128,118162,1,2,1:2:0:0:
441,186,118323,2,0,L|359:174,1,74.7500014257431,10|2,2:2|2:2,0:0:0:0:
294,229,118646,6,0,P|281:272|276:309,1,74.7500014257431,0|0,1:1|1:1,0:0:0:0:
203,371,118968,2,0,P|192:315|182:278,1,74.7500014257431,10|0,2:2|1:1,0:0:0:0:
137,233,119291,1,2,1:2:0:0:
82,303,119452,1,2,1:2:0:0:
11,253,119614,1,10,2:2:0:0:
13,172,119775,5,2,2:2:0:0:
13,172,119856,1,2,2:2:0:0:
13,172,119936,2,0,P|87:149|162:146,1,149.500002851486,2|10,1:2|2:2,0:0:0:0:
212,224,120420,2,0,P|286:246|361:249,1,149.500002851486,2|2,2:2|1:2,0:0:0:0:
428,188,120904,1,10,2:2:0:0:
428,188,121065,6,0,P|418:148|432:114,1,74.7500014257431,2|0,2:2|1:1,0:0:0:0:
471,30,121388,1,2,1:2:0:0:
471,30,121549,1,10,2:2:0:0:
382,43,121710,2,0,P|345:17|313:13,1,74.7500014257431,2|0,1:2|1:1,0:0:0:0:
245,73,122033,1,2,1:2:0:0:
245,73,122194,2,0,P|249:125|253:163,1,74.7500014257431,10|2,2:2|2:2,0:0:0:0:
337,171,122517,6,0,B|272:182|272:182|250:206|250:206|169:221,1,149.500002851486,2|10,1:2|2:2,0:0:0:0:
126,187,123001,2,0,P|118:235|145:273,1,74.7500014257431,2|0,2:2|1:1,0:0:0:0:
29,315,123323,2,0,P|37:267|10:229,1,74.7500014257431,2|8,1:2|2:2,0:0:0:0:
116,344,123646,2,0,P|186:351|279:361,1,149.500002851486,2|0,2:2|1:1,0:0:0:0:
340,316,124130,6,0,B|353:278|353:278|339:239,1,74.7500014257431,10|0,2:2|1:1,0:0:0:0:
275,174,124452,1,2,1:2:0:0:
342,114,124614,2,0,L|382:110,2,37.3750007128716,8|8|10,2:2|2:2|2:2,0:0:0:0:
263,61,124936,1,8,2:2:0:0:
263,61,125017,1,8,2:2:0:0:
263,61,125097,2,0,L|206:72,1,48.75,2|0,2:2|0:0,0:0:0:0:
200,68,125420,6,0,B|173:15|115:1|68:16|52:111|133:108,1,224.250004277229,12|2,2:2|1:2,0:0:0:0:
202,160,126065,1,10,2:2:0:0:
202,160,126226,2,0,P|265:169|300:173,1,74.7500014257431,2|0,2:2|1:1,0:0:0:0:
261,262,126549,1,2,1:2:0:0:
261,262,126710,1,10,2:2:0:0:
349,243,126872,2,0,P|362:279|346:327,1,74.7500014257431,2|0,1:2|1:1,0:0:0:0:
282,371,127194,1,2,1:2:0:0:
282,371,127356,2,0,P|236:361|189:352,1,74.7500014257431,10|2,2:2|2:2,0:0:0:0:
144,298,127678,6,0,P|123:348|126:391,1,74.7500014257431,2|2,1:2|2:2,0:0:0:0:
40,317,128001,2,0,P|36:279|23:245,1,74.7500014257431,10|2,2:2|2:2,0:0:0:0:
106,193,128323,1,2,1:2:0:0:
106,193,128485,2,0,P|153:200|197:210,1,74.7500014257431,2|10,1:2|2:2,0:0:0:0:
233,275,128807,2,0,P|268:227|241:139,1,149.500002851486,2|0,2:2|1:1,0:0:0:0:
255,59,129291,6,0,P|213:60|176:83,1,74.7500014257431,10|0,2:2|1:1,0:0:0:0:
116,141,129614,2,0,P|89:124|42:117,2,74.7500014257431,2|2|10,1:2|1:2|2:2,0:0:0:0:
26,245,130097,5,2,2:2:0:0:
26,245,130178,1,0,0:0:0:0:
26,245,130259,2,0,B|111:233|76:296|166:282,1,149.500002851486,2|10,1:2|2:2,0:0:0:0:
236,337,130743,2,0,P|272:341|311:352,1,74.7500014257431,2|0,2:2|1:1,0:0:0:0:
386,298,131065,1,2,1:2:0:0:
386,298,131226,1,10,2:2:0:0:
458,352,131388,6,0,P|482:303|475:268,1,74.7500014257431,2|0,2:2|1:1,0:0:0:0:
417,213,131710,1,2,1:2:0:0:
417,213,131871,1,10,2:2:0:0:
328,231,132033,2,0,P|326:176|348:147,1,74.7500014257431,2|0,1:2|1:1,0:0:0:0:
416,122,132356,1,2,1:2:0:0:
503,115,132517,2,0,P|492:74|449:49,1,74.7500014257431,10|2,2:2|2:2,0:0:0:0:
385,19,132839,6,0,B|312:27|312:27|301:41|301:41|233:50,1,149.500002851486,2|10,1:2|2:2,0:0:0:0:
167,21,133323,2,0,P|161:72|179:103,1,74.7500014257431,2|0,2:2|1:1,0:0:0:0:
231,155,133646,2,0,P|266:172|307:172,1,74.7500014257431,2|8,1:2|2:2,0:0:0:0:
349,98,133968,6,0,P|381:131|351:242,1,149.500002851486,2|0,1:2|1:1,0:0:0:0:
297,279,134452,1,8,2:2:0:0:
297,279,134614,1,0,1:2:0:0:
230,343,134775,1,2,1:2:0:0:
163,265,134936,2,0,L|167:223,2,37.3750007128716,8|8|10,2:2|2:2|2:2,0:0:0:0:
96,337,135259,1,10,2:2:0:0:
78,339,135339,1,8,2:2:0:0:
64,341,135420,1,6,1:2:0:0:
256,192,135501,12,0,139291,1:1:0:0:
335,311,139936,6,0,P|301:298|266:302,1,71.5000021820069,2|2,1:2|2:2,0:0:0:0:
208,362,140259,2,0,P|165:375|132:368,1,71.5000021820069,10|2,2:2|2:2,0:0:0:0:
64,341,140581,6,0,B|59:299|59:299|43:284|43:284|38:240,1,104,0|10,1:1|2:2,0:0:0:0:
101,181,141065,1,2,2:2:0:0:
101,181,141226,2,0,P|149:186|171:199,1,52,0|2,1:1|0:0,0:0:0:0:
208,254,141549,2,0,P|213:288|216:321,1,52,10|2,2:2|2:2,0:0:0:0:
287,361,141872,6,0,P|350:352|408:343,1,104,0|10,1:1|2:2,0:0:0:0:
459,291,142356,1,2,2:2:0:0:
459,291,142517,2,0,P|464:243|455:218,1,52,0|2,1:1|2:2,0:0:0:0:
399,179,142840,2,0,P|365:174|332:171,1,52,10|2,2:2|2:2,0:0:0:0:
276,220,143162,6,0,P|258:169|275:122,1,104,0|10,1:1|2:2,0:0:0:0:
345,71,143646,1,2,2:2:0:0:
345,71,143807,2,0,P|388:60|418:56,2,52,0|2|10,1:2|2:2|2:2,0:0:0:0:
256,37,144291,1,2,2:2:0:0:
256,37,144452,6,0,B|188:38|215:77|137:69,1,104,0|10,1:1|2:2,0:0:0:0:
87,17,144936,1,2,2:2:0:0:
87,17,145097,1,2,1:2:0:0:
25,77,145259,2,0,L|-14:74,2,26,10|8|10,2:2|2:2|2:2,0:0:0:0:
93,145,145581,1,10,2:2:0:0:
93,145,145662,1,8,2:2:0:0:
93,145,145743,6,0,B|140:152|140:152|166:180|166:180|225:189,1,130,6|10,1:2|2:2,0:0:0:0:
274,246,146226,1,2,2:2:0:0:
274,246,146388,2,0,P|286:285|295:323,1,65,2|2,1:2|2:2,0:0:0:0:
374,356,146710,2,0,P|381:300|394:264,1,65,10|2,2:2|2:2,0:0:0:0:
442,227,147033,6,0,L|519:236,1,65,0|2,1:1|2:2,0:0:0:0:
421,145,147356,2,0,L|498:154,1,65,10|2,2:2|2:2,0:0:0:0:
355,83,147678,2,0,L|278:92,1,65,2|2,1:2|2:2,0:0:0:0:
376,1,148001,2,0,L|299:10,1,65,10|2,2:2|2:2,0:0:0:0:
216,37,148323,6,0,P|198:77|236:160,1,130,0|10,1:1|2:2,0:0:0:0:
285,219,148807,1,2,2:2:0:0:
285,219,148968,2,0,P|302:255|291:290,1,65,2|2,1:2|2:2,0:0:0:0:
233,342,149291,2,0,L|160:353,1,65,10|2,2:2|2:2,0:0:0:0:
89,322,149614,6,0,P|75:293|84:247,1,65,0|2,1:1|2:2,0:0:0:0:
150,212,149936,2,0,P|164:241|155:287,1,65,10|2,2:2|2:2,0:0:0:0:
69,181,150259,2,0,P|55:152|64:106,1,65,2|2,1:2|2:2,0:0:0:0:
130,71,150581,2,0,P|144:100|135:146,1,65,10|2,2:2|2:2,0:0:0:0:
56,34,150904,6,0,P|79:5|184:16,2,130,0|10|2,1:1|2:2|1:2,0:0:0:0:
23,111,151710,1,2,0:0:0:0:
23,111,151872,2,0,P|16:168|13:190,1,65,10|2,2:2|2:2,0:0:0:0:
87,240,152194,6,0,B|159:248|151:206|211:212,1,130,0|10,1:1|2:2,0:0:0:0:
265,281,152678,1,2,2:2:0:0:
268,285,152839,2,0,P|314:292|352:301,1,65,2|2,1:2|2:2,0:0:0:0:
401,249,153162,2,0,P|447:242|485:233,1,65,10|2,2:2|2:2,0:0:0:0:
498,160,153485,6,0,B|501:101|501:101|507:97|507:97|512:33,2,130,0|10|2,1:1|2:2|1:2,0:0:0:0:
465,238,154291,1,2,2:2:0:0:
465,238,154452,2,0,P|433:244|400:248,1,65,10|2,2:2|2:2,0:0:0:0:
332,293,154775,6,0,P|317:250|327:215,1,65,0|2,1:1|2:2,0:0:0:0:
233,218,155097,2,0,P|252:176|284:159,1,65,10|2,2:2|2:2,0:0:0:0:
224,97,155420,2,0,P|267:81|302:92,1,65,2|2,1:2|0:0,0:0:0:0:
303,3,155743,2,0,P|344:22|361:54,1,65,10|2,0:0|0:0,0:0:0:0:
367,128,156065,5,4,2:2:0:0:
367,128,161226,6,0,P|383:165|384:187,1,52,2|2,2:2|2:2,0:0:0:0:
374,233,161710,1,2,0:0:0:0:
374,233,161872,2,0,P|362:241|347:244,1,26,2|2,2:2|2:2,0:0:0:0:
303,264,162194,2,0,P|290:257|279:246,1,26,2|2,2:2|2:2,0:0:0:0:
244,218,162517,6,0,P|211:222|187:234,1,52,2|2,2:2|2:2,0:0:0:0:
153,264,163001,1,2,0:0:0:0:
153,264,163162,2,0,P|145:287|143:299,1,26,2|2,2:2|2:2,0:0:0:0:
115,326,163485,2,0,P|127:346|135:356,1,26,2|2,2:2|2:2,0:0:0:0:
178,367,163807,6,0,P|215:359|239:356,1,52,2|2,2:2|2:2,0:0:0:0:
277,329,164291,1,2,0:0:0:0:
277,329,164452,2,0,P|281:307|283:294,1,26,2|2,2:2|2:2,0:0:0:0:
271,257,164775,2,0,P|267:235|265:222,1,26,2|2,2:2|2:2,0:0:0:0:
301,199,165097,6,0,P|321:203|336:206,1,26,2|2,2:2|2:2,0:0:0:0:
373,187,165420,2,0,P|390:182|402:178,1,26,2|2,2:2|2:2,0:0:0:0:
439,203,165743,6,0,P|440:197|446:216,1,86.125,2|0,2:2|0:0,0:0:0:0:
