osu file format v14

[General]
AudioFilename: audio.mp3
AudioLeadIn: 0
PreviewTime: 83323
Countdown: 0
SampleSet: Soft
StackLeniency: 0.3
Mode: 0
LetterboxInBreaks: 0
EpilepsyWarning: 1
WidescreenStoryboard: 1

[Editor]
DistanceSpacing: 0.9
BeatDivisor: 4
GridSize: 4
TimelineZoom: 1.6

[Metadata]
Title:Mizuoto to Curtain
TitleUnicode:水音とカーテン
Artist:MIMI
ArtistUnicode:MIMI
Creator:Share
Version:Tear
Source:
Tags:featured artist mappers' guild japanese fa electronic hatsune miku 初音ミク pop japanese vocaloid ZAWAJIRO Iamwayneking I am wayneking Tristan Magor0 leominexd leomine pado [Hatsune Miku] sinsekai studio city project 深脊界 thinkr
BeatmapID:3190056
BeatmapSetID:1529722

[Difficulty]
HPDrainRate:5.6
CircleSize:4
OverallDifficulty:8.8
ApproachRate:9
SliderMultiplier:1.7
SliderTickRate:1

[Events]
//Background and Video events
0,0,"thumb-1920-1180776.png",0,0
//Break Periods
2,73685,82723
//Storyboard Layer 0 (Background)
//Storyboard Layer 1 (Fail)
//Storyboard Layer 2 (Pass)
//Storyboard Layer 3 (Foreground)
//Storyboard Layer 4 (Overlay)
//Storyboard Sound Samples

[TimingPoints]
1227,322.58064516129,4,2,1,60,1,0
1227,-117.647058823529,4,2,1,60,0,0
11549,-100,4,2,1,65,0,0
21872,-133.333333333333,4,2,1,55,0,0
28888,-133.333333333333,4,2,1,55,0,0
28968,-133.333333333333,4,2,1,55,0,0
29210,-133.333333333333,4,2,1,55,0,0
29291,-133.333333333333,4,2,1,55,0,0
29533,-133.333333333333,4,2,1,55,0,0
29614,-100,4,2,1,55,0,0
30097,-133.333333333333,4,2,1,55,0,0
31226,-111.111111111111,4,2,10,55,0,0
31549,-100,4,2,22,55,0,0
31872,-95.2380952380952,4,2,19,55,0,0
32033,-95.2380952380952,4,2,1,55,0,0
32194,-90.9090909090909,4,2,17,70,0,1
32678,-90.9090909090909,4,2,15,70,0,1
33162,-90.9090909090909,4,2,22,70,0,1
33323,-90.9090909090909,4,2,24,70,0,1
33646,-90.9090909090909,4,2,15,70,0,1
33807,-90.9090909090909,4,2,14,70,0,1
33968,-90.9090909090909,4,2,15,70,0,1
34291,-90.9090909090909,4,2,12,70,0,1
34452,-90.9090909090909,4,2,14,70,0,1
34614,-90.9090909090909,4,2,15,70,0,1
34775,-90.9090909090909,4,2,17,70,0,1
34936,-90.9090909090909,4,2,14,70,0,1
35098,-90.9090909090909,4,2,15,70,0,1
35259,-90.9090909090909,4,2,17,70,0,1
35420,-90.9090909090909,4,2,10,70,0,1
35581,-90.9090909090909,4,2,22,70,0,1
35743,-90.9090909090909,4,2,17,70,0,1
35904,-90.9090909090909,4,2,19,70,0,1
36710,-90.9090909090909,4,2,17,70,0,1
36872,-90.9090909090909,4,2,22,70,0,1
37033,-90.9090909090909,4,2,15,70,0,1
37194,-90.9090909090909,4,2,14,70,0,1
37275,-90.9090909090909,4,2,15,70,0,1
37356,-90.9090909090909,4,2,17,70,0,1
37839,-90.9090909090909,4,2,15,70,0,1
38323,-90.9090909090909,4,2,22,70,0,1
38485,-90.9090909090909,4,2,24,70,0,1
38807,-90.9090909090909,4,2,15,70,0,1
38968,-90.9090909090909,4,2,14,70,0,1
39130,-90.9090909090909,4,2,15,70,0,1
39452,-90.9090909090909,4,2,12,70,0,1
39614,-90.9090909090909,4,2,14,70,0,1
39775,-90.9090909090909,4,2,15,70,0,1
39936,-90.9090909090909,4,2,17,70,0,1
40259,-90.9090909090909,4,2,19,70,0,1
40420,-90.9090909090909,4,2,17,70,0,1
40743,-90.9090909090909,4,2,15,70,0,1
41549,-90.9090909090909,4,2,10,55,0,1
41872,-90.9090909090909,4,2,22,55,0,1
42033,-90.9090909090909,4,2,1,55,0,1
42195,-90.9090909090909,4,2,19,55,0,1
42356,-90.9090909090909,4,2,1,55,0,1
42517,-90.9090909090909,4,2,17,70,0,1
43001,-90.9090909090909,4,2,15,70,0,1
43485,-90.9090909090909,4,2,22,70,0,1
43646,-90.9090909090909,4,2,24,70,0,1
43969,-90.9090909090909,4,2,15,70,0,1
44130,-90.9090909090909,4,2,14,70,0,1
44291,-90.9090909090909,4,2,15,70,0,1
44614,-90.9090909090909,4,2,12,70,0,1
44775,-90.9090909090909,4,2,14,70,0,1
44937,-90.9090909090909,4,2,15,70,0,1
45098,-90.9090909090909,4,2,17,70,0,1
45259,-90.9090909090909,4,2,14,70,0,1
45421,-90.9090909090909,4,2,15,70,0,1
45582,-90.9090909090909,4,2,17,70,0,1
45743,-90.9090909090909,4,2,10,70,0,1
45904,-90.9090909090909,4,2,22,70,0,1
46066,-90.9090909090909,4,2,17,70,0,1
46227,-90.9090909090909,4,2,19,70,0,1
47033,-90.9090909090909,4,2,17,70,0,1
47195,-90.9090909090909,4,2,22,70,0,1
47275,-90.9090909090909,4,2,1,70,0,1
47356,-90.9090909090909,4,2,15,70,0,1
47517,-90.9090909090909,4,2,14,70,0,1
47679,-90.9090909090909,4,2,17,70,0,1
48162,-90.9090909090909,4,2,15,70,0,1
48646,-90.9090909090909,4,2,22,70,0,1
48808,-90.9090909090909,4,2,24,70,0,1
49130,-90.9090909090909,4,2,15,70,0,1
49291,-90.9090909090909,4,2,14,70,0,1
49453,-90.9090909090909,4,2,15,70,0,1
49775,-90.9090909090909,4,2,12,70,0,1
49937,-90.9090909090909,4,2,14,70,0,1
50098,-90.9090909090909,4,2,15,70,0,1
50259,-90.9090909090909,4,2,17,70,0,1
50582,-90.9090909090909,4,2,19,70,0,1
50743,-90.9090909090909,4,2,17,70,0,1
51066,-90.9090909090909,4,2,15,70,0,1
52194,-90.9090909090909,4,2,17,70,0,1
52839,-100,4,2,37,60,0,0
53081,-100,4,2,37,5,0,0
53162,-100,4,2,35,60,0,0
53323,-100,4,2,30,60,0,0
53485,-100,4,2,35,60,0,0
53807,-100,4,2,1,60,0,0
53968,-100,4,2,25,60,0,0
54291,-100,4,2,37,60,0,0
54452,-100,4,2,35,60,0,0
54614,-100,4,2,30,60,0,0
55097,-100,4,2,35,60,0,0
55259,-100,4,2,25,60,0,0
55743,-100,4,2,35,60,0,0
55904,-100,4,2,30,60,0,0
56065,-100,4,2,37,60,0,0
56226,-100,4,2,35,60,0,0
56388,-100,4,2,30,60,0,0
56549,-100,4,2,25,60,0,0
56872,-100,4,2,35,60,0,0
57033,-100,4,2,37,60,0,0
57194,-100,4,2,49,60,0,0
57356,-100,4,2,47,60,0,0
57517,-100,4,2,46,60,0,0
57839,-100,4,2,47,60,0,0
58162,-100,4,2,32,60,0,0
58323,-100,4,2,35,60,0,0
58485,-100,4,2,51,60,0,0
58646,-100,4,2,51,60,0,0
58807,-100,4,2,32,60,0,0
58968,-100,4,2,35,60,0,0
59130,-100,4,2,51,60,0,0
59452,-100,4,2,28,60,0,0
59614,-100,4,2,32,60,0,0
59775,-100,4,2,25,60,0,0
60097,-100,4,2,42,60,0,0
60259,-100,4,2,44,60,0,0
60420,-100,4,2,42,60,0,0
60743,-100,4,2,28,60,0,0
60905,-100,4,2,32,60,0,0
61066,-100,4,2,25,60,0,0
61388,-100,4,2,35,60,0,0
61549,-100,4,2,37,60,0,0
61710,-100,4,2,35,60,0,0
62033,-100,4,2,30,60,0,0
62194,-100,4,2,35,60,0,0
62356,-100,4,2,26,60,0,0
62517,-100,4,2,52,60,0,0
62678,-100,4,2,39,60,0,0
62759,-100,4,2,1,60,0,0
62839,-100,4,2,37,60,0,0
63001,-100,4,2,35,60,0,0
63081,-100,4,2,1,60,0,0
63162,-100,4,2,35,60,0,0
63323,-100,4,2,30,60,0,0
63485,-100,4,2,35,60,0,0
63646,-100,4,2,42,60,0,0
63807,-100,4,2,40,60,0,0
63968,-100,4,2,39,60,0,0
64130,-100,4,2,37,60,0,0
64291,-100,4,2,35,60,0,0
64614,-100,4,2,30,60,0,0
64776,-100,4,2,35,60,0,0
64937,-100,4,2,42,60,0,0
65098,-100,4,2,40,60,0,0
65259,-100,4,2,39,60,0,0
65421,-100,4,2,37,60,0,0
65582,-100,4,2,35,60,0,0
65904,-100,4,2,30,60,0,0
66066,-100,4,2,35,60,0,0
66227,-100,4,2,42,60,0,0
66388,-100,4,2,40,60,0,0
66549,-100,4,2,39,60,0,0
66711,-100,4,2,37,60,0,0
66872,-100,4,2,35,60,0,0
67194,-100,4,2,30,60,0,0
67356,-100,4,2,35,60,0,0
67517,-100,4,2,42,60,0,0
67678,-100,4,2,40,60,0,0
67839,-100,4,2,39,60,0,0
68001,-100,4,2,37,60,0,0
68162,-100,4,2,35,60,0,0
68485,-100,4,2,30,60,0,0
68647,-100,4,2,35,60,0,0
68808,-100,4,2,42,60,0,0
68969,-100,4,2,40,60,0,0
69130,-100,4,2,39,60,0,0
69292,-100,4,2,37,60,0,0
69453,-100,4,2,35,60,0,0
69775,-100,4,2,30,60,0,0
69937,-100,4,2,35,60,0,0
70098,-100,4,2,42,60,0,0
70259,-100,4,2,40,60,0,0
70420,-100,4,2,39,60,0,0
70582,-100,4,2,37,60,0,0
70743,-100,4,2,35,60,0,0
71065,-100,4,2,30,60,0,0
71227,-100,4,2,35,60,0,0
71388,-100,4,2,42,60,0,0
71549,-100,4,2,40,60,0,0
71710,-100,4,2,39,60,0,0
71872,-100,4,2,37,60,0,0
72033,-100,4,2,35,60,0,0
72356,-100,4,2,30,60,0,0
72518,-100,4,2,35,60,0,0
72679,-100,4,2,42,60,0,0
72840,-100,4,2,40,60,0,0
73001,-100,4,2,39,60,0,0
73163,-100,4,2,37,60,0,0
73324,-100,4,2,35,60,0,0
73485,-117.647058823529,4,2,1,55,0,0
73646,-117.647058823529,4,2,1,60,0,0
83807,-117.647058823529,4,2,1,65,0,0
94130,-100,4,2,1,55,0,0
103323,-100,4,2,1,55,0,0
104452,-133.333333333333,4,2,1,55,0,0
112194,-100,4,2,1,55,0,0
113807,-111.111111111111,4,2,10,55,0,0
114130,-100,4,2,22,55,0,0
114452,-95.2380952380952,4,2,22,55,0,0
114453,-95.2380952380952,4,2,19,55,0,0
114614,-95.2380952380952,4,2,1,55,0,0
114775,-90.9090909090909,4,2,17,70,0,1
115259,-90.9090909090909,4,2,15,70,0,1
115743,-90.9090909090909,4,2,22,70,0,1
115904,-90.9090909090909,4,2,24,70,0,1
116227,-90.9090909090909,4,2,15,70,0,1
116388,-90.9090909090909,4,2,14,70,0,1
116549,-90.9090909090909,4,2,15,70,0,1
116872,-90.9090909090909,4,2,12,70,0,1
117033,-90.9090909090909,4,2,14,70,0,1
117195,-90.9090909090909,4,2,15,70,0,1
117356,-90.9090909090909,4,2,17,70,0,1
117517,-90.9090909090909,4,2,14,70,0,1
117679,-90.9090909090909,4,2,15,70,0,1
117840,-90.9090909090909,4,2,17,70,0,1
118001,-90.9090909090909,4,2,10,70,0,1
118162,-90.9090909090909,4,2,22,70,0,1
118324,-90.9090909090909,4,2,17,70,0,1
118485,-90.9090909090909,4,2,19,70,0,1
119291,-90.9090909090909,4,2,17,70,0,1
119453,-90.9090909090909,4,2,22,70,0,1
119614,-90.9090909090909,4,2,15,70,0,1
119775,-90.9090909090909,4,2,14,70,0,1
119856,-90.9090909090909,4,2,15,70,0,1
119937,-90.9090909090909,4,2,17,70,0,1
120420,-90.9090909090909,4,2,15,70,0,1
120904,-90.9090909090909,4,2,22,70,0,1
121066,-90.9090909090909,4,2,24,70,0,1
121388,-90.9090909090909,4,2,15,70,0,1
121549,-90.9090909090909,4,2,14,70,0,1
121711,-90.9090909090909,4,2,15,70,0,1
122033,-90.9090909090909,4,2,12,70,0,1
122195,-90.9090909090909,4,2,14,70,0,1
122356,-90.9090909090909,4,2,15,70,0,1
122517,-90.9090909090909,4,2,17,70,0,1
122840,-90.9090909090909,4,2,19,70,0,1
123001,-90.9090909090909,4,2,17,70,0,1
123324,-90.9090909090909,4,2,15,70,0,1
124130,-90.9090909090909,4,2,10,60,0,1
124453,-90.9090909090909,4,2,22,60,0,1
124614,-90.9090909090909,4,2,1,60,0,1
124776,-90.9090909090909,4,2,19,60,0,1
124937,-90.9090909090909,4,2,1,55,0,1
125097,-100,4,2,1,55,0,1
125098,-100,4,2,17,70,0,1
125420,-100,4,2,17,70,0,1
125582,-90.9090909090909,4,2,15,70,0,1
126066,-90.9090909090909,4,2,22,70,0,1
126227,-90.9090909090909,4,2,24,70,0,1
126550,-90.9090909090909,4,2,15,70,0,1
126711,-90.9090909090909,4,2,14,70,0,1
126872,-90.9090909090909,4,2,15,70,0,1
127195,-90.9090909090909,4,2,12,70,0,1
127356,-90.9090909090909,4,2,14,70,0,1
127518,-90.9090909090909,4,2,15,70,0,1
127679,-90.9090909090909,4,2,17,70,0,1
127840,-90.9090909090909,4,2,14,70,0,1
128002,-90.9090909090909,4,2,15,70,0,1
128163,-90.9090909090909,4,2,17,70,0,1
128324,-90.9090909090909,4,2,10,70,0,1
128485,-90.9090909090909,4,2,22,70,0,1
128647,-90.9090909090909,4,2,17,70,0,1
128808,-90.9090909090909,4,2,19,70,0,1
129614,-90.9090909090909,4,2,17,70,0,1
129776,-90.9090909090909,4,2,22,70,0,1
129856,-90.9090909090909,4,2,1,70,0,1
129937,-90.9090909090909,4,2,15,70,0,1
130098,-90.9090909090909,4,2,14,70,0,1
130260,-90.9090909090909,4,2,17,70,0,1
130743,-90.9090909090909,4,2,15,70,0,1
131227,-90.9090909090909,4,2,22,70,0,1
131389,-90.9090909090909,4,2,24,70,0,1
131711,-90.9090909090909,4,2,15,70,0,1
131872,-90.9090909090909,4,2,14,70,0,1
132034,-90.9090909090909,4,2,15,70,0,1
132356,-90.9090909090909,4,2,12,70,0,1
132518,-90.9090909090909,4,2,14,70,0,1
132679,-90.9090909090909,4,2,15,70,0,1
132840,-90.9090909090909,4,2,17,70,0,1
133163,-90.9090909090909,4,2,19,70,0,1
133324,-90.9090909090909,4,2,17,70,0,1
133647,-90.9090909090909,4,2,15,70,0,1
134775,-90.9090909090909,4,2,1,70,0,1
135420,-100,4,2,37,65,0,0
135743,-100,4,2,35,65,0,0
135904,-100,4,2,30,65,0,0
136066,-100,4,2,35,65,0,0
136388,-100,4,2,1,65,0,0
136549,-100,4,2,25,65,0,0
136872,-100,4,2,37,65,0,0
137033,-100,4,2,35,65,0,0
137195,-100,4,2,30,65,0,0
137678,-100,4,2,35,65,0,0
137840,-100,4,2,25,65,0,0
138324,-100,4,2,35,65,0,0
138485,-100,4,2,30,65,0,0
138646,-100,4,2,37,65,0,0
138807,-100,4,2,35,65,0,0
138969,-100,4,2,30,65,0,0
139130,-100,4,2,25,65,0,0
139453,-100,4,2,35,65,0,0
139614,-100,4,2,37,65,0,0
139775,-100,4,2,49,65,0,0
139937,-100,4,2,47,65,0,0
140098,-100,4,2,46,65,0,0
140420,-100,4,2,47,65,0,0
140581,-100,4,2,47,65,0,0
140743,-100,4,2,32,65,0,0
140904,-100,4,2,35,65,0,0
141066,-100,4,2,51,65,0,0
141226,-100,4,2,1,65,0,0
141388,-100,4,2,32,65,0,0
141549,-100,4,2,35,65,0,0
141711,-100,4,2,51,65,0,0
141872,-100,4,2,1,65,0,0
142033,-100,4,2,28,65,0,0
142195,-100,4,2,32,65,0,0
142356,-100,4,2,25,65,0,0
142678,-100,4,2,42,65,0,0
142840,-100,4,2,44,65,0,0
143001,-100,4,2,42,65,0,0
143324,-100,4,2,28,65,0,0
143486,-100,4,2,32,65,0,0
143647,-100,4,2,25,65,0,0
143969,-100,4,2,35,65,0,0
144130,-100,4,2,37,65,0,0
144291,-100,4,2,35,65,0,0
144614,-100,4,2,30,65,0,0
144775,-100,4,2,35,65,0,0
144937,-100,4,2,26,65,0,0
145098,-100,4,2,52,65,0,0
145259,-100,4,2,39,65,0,0
145421,-100,4,2,37,65,0,0
145582,-100,4,2,35,65,0,0
145743,-100,4,2,66,65,0,0
145904,-100,4,2,31,67,0,0
146065,-100,4,2,36,67,0,0
146226,-100,4,2,43,67,0,0
146388,-100,4,2,41,67,0,0
146549,-100,4,2,40,67,0,0
146710,-100,4,2,38,67,0,0
146872,-100,4,2,36,67,0,0
147194,-100,4,2,31,67,0,0
147355,-100,4,2,36,67,0,0
147516,-100,4,2,43,67,0,0
147678,-100,4,2,41,67,0,0
147839,-100,4,2,40,67,0,0
148000,-100,4,2,38,67,0,0
148162,-100,4,2,36,67,0,0
148485,-100,4,2,31,67,0,0
148646,-100,4,2,36,67,0,0
148807,-100,4,2,43,67,0,0
148969,-100,4,2,41,67,0,0
149130,-100,4,2,40,67,0,0
149291,-100,4,2,38,67,0,0
149453,-100,4,2,36,67,0,0
149775,-100,4,2,31,67,0,0
149936,-100,4,2,36,67,0,0
150097,-100,4,2,43,67,0,0
150259,-100,4,2,41,67,0,0
150420,-100,4,2,40,67,0,0
150581,-100,4,2,38,67,0,0
150743,-100,4,2,36,67,0,0
151065,-100,4,2,31,67,0,0
151226,-100,4,2,36,67,0,0
151387,-100,4,2,43,67,0,0
151549,-100,4,2,41,67,0,0
151710,-100,4,2,40,67,0,0
151871,-100,4,2,38,67,0,0
152033,-100,4,2,36,67,0,0
152356,-100,4,2,31,67,0,0
152517,-100,4,2,36,67,0,0
152678,-100,4,2,43,67,0,0
152840,-100,4,2,41,67,0,0
153001,-100,4,2,40,67,0,0
153162,-100,4,2,38,67,0,0
153324,-100,4,2,36,67,0,0
153646,-100,4,2,31,67,0,0
153807,-100,4,2,36,67,0,0
153968,-100,4,2,43,67,0,0
154130,-100,4,2,41,67,0,0
154291,-100,4,2,40,67,0,0
154452,-100,4,2,38,67,0,0
154614,-100,4,2,36,67,0,0
154936,-100,4,2,60,67,0,0
155097,-100,4,2,61,67,0,0
155258,-100,4,2,62,67,0,0
155420,-100,4,2,63,67,0,0
155581,-100,4,2,64,67,0,0
155742,-100,4,2,65,67,0,0
155904,-100,4,2,66,67,0,0
156065,-133.333333333333,4,2,90,60,0,0
156226,-133.333333333333,4,2,28,60,0,0
156388,-133.333333333333,4,2,33,60,0,0
156549,-133.333333333333,4,2,35,60,0,0
156710,-133.333333333333,4,2,36,60,0,0
156872,-133.333333333333,4,2,43,60,0,0
157033,-133.333333333333,4,2,48,60,0,0
157194,-133.333333333333,4,2,50,60,0,0
157356,-133.333333333333,4,2,91,60,0,0
157517,-133.333333333333,4,2,56,60,0,0
157678,-133.333333333333,4,2,29,60,0,0
157839,-133.333333333333,4,2,33,60,0,0
158001,-133.333333333333,4,2,36,60,0,0
158162,-133.333333333333,4,2,43,60,0,0
158323,-133.333333333333,4,2,48,60,0,0
158485,-133.333333333333,4,2,50,60,0,0
158646,-133.333333333333,4,2,92,60,0,0
158807,-133.333333333333,4,2,57,60,0,0
158968,-133.333333333333,4,2,31,60,0,0
159130,-133.333333333333,4,2,35,60,0,0
159291,-133.333333333333,4,2,36,60,0,0
159452,-133.333333333333,4,2,43,60,0,0
159614,-133.333333333333,4,2,48,60,0,0
159775,-133.333333333333,4,2,50,60,0,0
159936,-133.333333333333,4,2,93,60,0,0
160097,-133.333333333333,4,2,31,60,0,0
160259,-133.333333333333,4,2,36,60,0,0
160420,-133.333333333333,4,2,40,60,0,0
160581,-133.333333333333,4,2,36,60,0,0
160743,-133.333333333333,4,2,43,60,0,0
160904,-133.333333333333,4,2,48,60,0,0
161065,-133.333333333333,4,2,50,60,0,0
161226,-133.333333333333,4,2,94,60,0,0
161388,-133.333333333333,4,2,28,60,0,0
161550,-133.333333333333,4,2,33,60,0,0
161711,-133.333333333333,4,2,35,60,0,0
161872,-133.333333333333,4,2,36,60,0,0
162034,-133.333333333333,4,2,43,60,0,0
162195,-133.333333333333,4,2,48,60,0,0
162356,-133.333333333333,4,2,55,60,0,0
162517,-133.333333333333,4,2,91,60,0,0
162678,-133.333333333333,4,2,56,60,0,0
162839,-133.333333333333,4,2,28,60,0,0
163000,-133.333333333333,4,2,33,60,0,0
163162,-133.333333333333,4,2,36,60,0,0
163323,-133.333333333333,4,2,43,60,0,0
163484,-133.333333333333,4,2,48,60,0,0
163646,-133.333333333333,4,2,50,60,0,0
163807,-133.333333333333,4,2,92,60,0,0
163968,-133.333333333333,4,2,57,60,0,0
164129,-133.333333333333,4,2,31,60,0,0
164291,-133.333333333333,4,2,35,60,0,0
164452,-133.333333333333,4,2,36,60,0,0
164613,-133.333333333333,4,2,43,60,0,0
164775,-133.333333333333,4,2,48,60,0,0
164936,-133.333333333333,4,2,50,60,0,0
165097,-133.333333333333,4,2,93,60,0,0
165259,-133.333333333333,4,2,31,60,0,0
165420,-133.333333333333,4,2,36,60,0,0
165581,-133.333333333333,4,2,40,60,0,0
165743,-133.333333333333,4,2,50,60,0,0
165985,-133.333333333333,4,2,50,60,0,0
166388,-133.333333333333,4,2,50,60,0,0
167839,-133.333333333333,4,2,1,5,0,0

[Colours]
Combo1 : 185,230,244
Combo2 : 27,214,228
Combo3 : 128,255,255
Combo4 : 255,179,217

[HitObjects]
26,271,743,6,0,P|70:262|122:266,1,85,2|0,0:0|0:0,0:0:0:0:
200,328,1065,1,2,0:0:0:0:
200,328,1227,2,0,P|165:268|202:211,1,144.500002756119,2|2,2:2|2:2,0:0:0:0:
290,273,1710,1,2,2:2:0:0:
292,155,1872,2,0,L|289:259,1,72.2500013780594,2|0,2:2|0:0,0:0:0:0:
349,337,2194,1,2,2:2:0:0:
377,252,2356,1,2,2:2:0:0:
505,331,2517,6,0,L|416:322,1,72.2500013780594,0|0,2:2|2:2,0:0:0:0:
471,239,2839,1,0,2:2:0:0:
377,252,3001,2,0,P|364:187|430:138,1,144.500002756119,0|2,2:2|2:2,0:0:0:0:
451,44,3485,1,2,2:2:0:0:
502,121,3646,1,2,2:2:0:0:
364,58,3807,6,0,B|285:49|309:111|204:85,1,144.500002756119,2|2,2:2|2:2,0:0:0:0:
129,179,4291,1,2,2:2:0:0:
129,179,4452,2,0,P|177:174|218:174,1,72.2500013780594,2|0,2:2|0:0,0:0:0:0:
145,88,4775,1,2,2:2:0:0:
46,256,4936,6,0,P|110:294|167:253,1,144.500002756119,2|0,2:2|2:2,0:0:0:0:
263,343,5420,1,0,2:2:0:0:
263,343,5581,2,0,P|193:339|114:336,1,144.500002756119,0|0,2:2|2:2,0:0:0:0:
271,215,6065,1,2,2:2:0:0:
329,278,6226,1,2,2:2:0:0:
191,259,6388,6,0,P|160:195|224:124,1,144.500002756119,2|2,2:2|2:2,0:0:0:0:
70,168,6872,1,2,2:2:0:0:
135,81,7033,2,0,P|204:89|280:95,1,144.500002756119,2|2,2:2|2:2,0:0:0:0:
349,162,7517,1,2,2:2:0:0:
191,259,7678,6,0,L|262:267,2,72.2500013780594,2|0|0,2:2|2:2|2:2,0:0:0:0:
278,342,8162,2,0,P|325:284|400:303,1,144.500002756119,0|0,2:2|2:2,0:0:0:0:
468,341,8646,1,2,2:2:0:0:
357,371,8807,1,2,2:2:0:0:
382,221,8968,6,0,P|386:259|390:310,1,72.2500013780594,2|2,2:2|2:2,0:0:0:0:
472,211,9291,1,2,2:2:0:0:
472,211,9452,1,2,2:2:0:0:
313,142,9614,2,0,P|378:105|454:145,1,144.500002756119,2|2,2:2|2:2,0:0:0:0:
382,221,10097,1,2,2:2:0:0:
430,55,10259,6,0,L|443:158,1,72.2500013780594,2|0,2:2|2:2,0:0:0:0:
382,221,10581,1,0,2:2:0:0:
313,142,10743,2,0,B|236:126|258:186|166:167,1,144.500002756119,0|0,2:2|2:2,0:0:0:0:
103,112,11226,1,2,2:2:0:0:
197,72,11388,1,2,2:2:0:0:
102,28,11549,6,0,L|104:126,1,85,0|2,1:1|2:2,0:0:0:0:
178,256,11872,1,2,2:2:0:0:
175,168,12033,1,2,1:2:0:0:
68,325,12194,2,0,B|168:354|168:354|227:326,1,170,8|2,0:1|2:2,0:0:0:0:
338,355,12678,1,2,2:2:0:0:
295,196,12839,6,0,P|297:245|298:288,1,85,0|2,1:1|2:2,0:0:0:0:
442,176,13161,1,2,2:2:0:0:
387,257,13323,1,2,1:2:0:0:
362,117,13485,2,0,P|277:118|184:121,1,170,8|2,0:1|2:2,0:0:0:0:
115,69,13968,1,2,2:2:0:0:
64,195,14130,6,0,B|123:192|123:192|151:206|151:206|230:202,1,170,0|2,1:1|2:2,0:0:0:0:
136,292,14614,1,2,1:2:0:0:
238,343,14775,2,0,P|274:274|228:200,1,170,8|2,0:1|2:2,0:0:0:0:
372,257,15259,1,2,2:2:0:0:
325,168,15420,5,0,1:1:0:0:
367,342,15582,2,0,L|373:257,1,85,2|2,1:2|2:2,0:0:0:0:
494,297,15904,1,2,1:2:0:0:
446,130,16065,2,0,P|448:177|451:223,1,85,8|2,0:1|2:2,0:0:0:0:
353,31,16388,1,2,2:2:0:0:
471,37,16549,1,0,0:0:0:0:
327,121,16710,6,0,B|231:100|255:172|151:146,1,170,2|2,1:2|2:2,0:0:0:0:
295,201,17194,1,2,1:2:0:0:
193,69,17356,2,0,P|250:1|325:27,1,170,8|2,0:1|2:2,0:0:0:0:
164,149,17839,1,2,2:2:0:0:
295,201,18001,6,0,P|294:147|293:106,1,85,0|2,1:1|2:2,0:0:0:0:
164,149,18323,1,2,2:2:0:0:
295,201,18485,1,2,1:2:0:0:
135,297,18646,2,0,B|179:293|241:294|241:294|207:282|193:254,1,170,8|2,0:1|2:2,0:0:0:0:
72,354,19130,1,2,2:2:0:0:
94,211,19291,6,0,B|61:203|61:203|5:224,1,85,2|2,1:2|2:2,0:0:0:0:
171,157,19614,1,2,2:2:0:0:
171,157,19775,1,2,1:2:0:0:
193,254,19936,2,0,B|226:262|226:262|273:244,2,85,8|0|2,0:1|0:0|2:2,0:0:0:0:
330,119,20581,6,0,P|317:49|206:26,1,170,0|2,1:1|2:2,0:0:0:0:
146,62,21065,1,2,1:2:0:0:
241,99,21226,2,0,P|253:192|260:282,1,170,8|2,0:1|2:2,0:0:0:0:
176,286,21710,1,0,0:0:0:0:
282,358,21872,6,0,B|344:339|333:400|402:374,1,127.500004863739,4|2,2:2|2:2,0:0:0:0:
176,286,22356,1,2,2:2:0:0:
259,267,22517,2,0,P|212:207|154:209,1,127.500004863739,2|2,2:2|2:2,0:0:0:0:
71,203,23001,6,0,P|143:176|159:107,1,127.500004863739,2|2,2:2|2:2,0:0:0:0:
78,51,23485,2,0,L|71:136,1,63.7500024318696,2|0,2:2|0:0,0:0:0:0:
227,91,23807,2,0,L|213:16,1,63.7500024318696,2|2,2:2|2:2,0:0:0:0:
166,209,24130,2,0,P|215:191|266:200,1,95.6250036478044,2|0,2:2|0:0,0:0:0:0:
304,220,24452,2,0,L|294:364,2,127.500004863739,2|2|2,2:2|2:2|2:2,0:0:0:0:
473,37,25420,5,2,2:2:0:0:
365,106,25581,2,0,B|437:84|420:146|507:116,1,127.500004863739,2|2,2:2|2:2,0:0:0:0:
384,245,26065,2,0,P|376:198|391:175,1,63.7500024318696,2|2,2:2|2:2,0:0:0:0:
479,229,26388,1,0,0:0:0:0:
440,318,26549,2,0,P|406:321|366:326,2,63.7500024318696,2|2|2,2:2|2:2|2:2,0:0:0:0:
384,245,27033,6,0,P|321:211|231:284,1,191.250007295609,2|2,2:2|2:2,0:0:0:0:
190,172,27678,2,0,P|192:110|180:30,1,127.500004863739,2|2,2:2|2:2,0:0:0:0:
318,97,28162,6,0,P|302:156|295:237,1,127.500004863739,2|0,2:2|0:0,0:0:0:0:
190,172,28646,2,0,P|163:151|119:157,1,63.7500024318696,2|2,2:2|2:2,0:0:0:0:
149,301,28968,2,0,L|142:233,1,63.7500024318696,2|0,2:2|0:0,0:0:0:0:
56,111,29291,2,0,L|49:179,1,63.7500024318696,2|2,2:2|2:2,0:0:0:0:
142,63,29614,6,0,P|115:22|26:31,1,127.5,2|2,2:2|2:2,0:0:0:0:
41,18,29936,1,0,0:0:0:0:
142,63,30097,2,0,L|273:50,1,127.500004863739,2|2,2:2|2:2,0:0:0:0:
178,148,30581,1,2,2:2:0:0:
342,82,30743,2,0,P|375:150|358:208,1,127.500004863739,2|0,2:2|0:0,0:0:0:0:
220,151,31226,6,0,P|262:143|302:163,1,76.4999976654053,2|0,2:2|0:0,0:0:0:0:
244,310,31549,2,0,P|233:269|257:226,1,85,2|0,2:2|0:0,0:0:0:0:
407,287,31872,2,0,P|366:298|308:263,1,89.2499972763062,2|2,2:2|2:2,0:0:0:0:
482,175,32194,6,0,B|475:257|475:257|464:272|464:272|459:371,1,187.000005706787,6|8,1:2|2:2,0:0:0:0:
267,126,32678,2,0,P|347:148|356:223,1,140.25000428009,2|0,2:2|0:0,0:0:0:0:
363,197,33001,1,2,2:2:0:0:
428,93,33162,1,10,2:2:0:0:
368,288,33323,6,0,P|319:281|263:275,1,93.5000028533936,2|0,2:2|1:1,0:0:0:0:
66,169,33646,1,2,2:2:0:0:
268,127,33807,1,10,2:2:0:0:
177,341,33968,2,0,L|179:234,1,93.5000028533936,2|0,2:2|1:1,0:0:0:0:
151,64,34291,1,2,2:2:0:0:
69,276,34452,1,10,2:2:0:0:
288,209,34614,1,2,2:2:0:0:
17,177,34775,6,0,L|127:170,1,93.5000028533936,2|2,1:2|2:2,0:0:0:0:
288,209,35097,1,10,2:2:0:0:
267,35,35259,1,2,2:2:0:0:
197,235,35420,1,2,1:2:0:0:
416,117,35581,1,2,2:2:0:0:
215,148,35743,1,10,2:2:0:0:
442,292,35904,6,0,B|370:286|370:286|331:316|331:316|256:310,1,187.000005706787,2|0,2:2|0:0,0:0:0:0:
104,246,36388,2,0,P|163:239|208:233,1,93.5000028533936,10|0,2:2|0:0,0:0:0:0:
297,34,36710,1,2,1:2:0:0:
71,134,36872,1,2,2:2:0:0:
323,175,37033,1,10,2:2:0:0:
200,71,37194,5,2,2:2:0:0:
200,71,37275,1,2,2:2:0:0:
200,71,37356,2,0,B|156:117|156:117|206:263,1,187.000005706787,2|10,1:2|2:2,0:0:0:0:
413,300,37839,2,0,P|391:197|302:179,1,187.000005706787,2|2,2:2|2:2,0:0:0:0:
502,233,38323,1,10,2:2:0:0:
326,271,38485,6,0,B|217:240|254:314|134:276,1,187.000005706787,2|2,2:2|2:2,0:0:0:0:
304,363,38968,1,10,2:2:0:0:
177,194,39130,2,0,P|203:113|298:104,1,187.000005706787,2|2,2:2|2:2,0:0:0:0:
161,23,39614,1,10,2:2:0:0:
442,157,39775,5,2,2:2:0:0:
442,157,39856,1,0,0:0:0:0:
442,157,39936,2,0,B|378:155|378:155|333:191|333:191|259:187,1,187.000005706787,2|10,1:2|2:2,0:0:0:0:
396,333,40420,2,0,P|402:275|408:221,1,93.5000028533936,2|0,2:2|1:1,0:0:0:0:
257,94,40743,2,0,P|263:152|269:206,1,93.5000028533936,2|8,2:2|2:2,0:0:0:0:
151,323,41065,6,0,P|235:353|308:301,1,187.000005706787,2|0,2:2|0:0,0:0:0:0:
70,229,41549,2,0,P|126:233|180:238,1,93.5000028533936,10|0,2:2|0:0,0:0:0:0:
257,94,41872,2,0,P|204:97|182:143,1,93.5000028533936,2|10,1:2|2:2,0:0:0:0:
187,162,42114,1,8,2:2:0:0:
187,162,42194,1,10,2:2:0:0:
252,358,42356,5,8,2:2:0:0:
252,358,42436,1,8,2:2:0:0:
252,358,42517,2,0,B|259:276|259:276|270:261|270:261|274:175,1,187.000005706787,6|8,1:2|2:2,0:0:0:0:
465,234,43001,2,0,P|418:283|350:277,1,140.25000428009,2|0,2:2|0:0,0:0:0:0:
351,278,43323,1,2,2:2:0:0:
491,350,43485,1,10,2:2:0:0:
381,105,43646,6,0,L|385:198,1,93.5000028533936,2|0,2:2|1:1,0:0:0:0:
328,12,43968,1,2,2:2:0:0:
484,101,44130,1,10,2:2:0:0:
296,203,44291,2,0,L|187:192,1,93.5000028533936,2|0,2:2|1:1,0:0:0:0:
103,19,44614,1,2,2:2:0:0:
262,115,44775,1,10,2:2:0:0:
44,145,44936,1,2,2:2:0:0:
204,287,45097,6,0,P|204:242|202:193,1,93.5000028533936,2|2,1:2|2:2,0:0:0:0:
1,75,45420,1,10,2:2:0:0:
75,292,45581,1,2,2:2:0:0:
197,69,45743,1,2,1:2:0:0:
9,232,45904,1,2,2:2:0:0:
296,203,46065,1,10,2:2:0:0:
70,137,46226,6,0,B|131:124|131:124|184:156|184:156|249:141,1,187.000005706787,2|0,2:2|0:0,0:0:0:0:
390,30,46710,2,0,L|379:129,1,93.5000028533936,10|0,2:2|0:0,0:0:0:0:
198,241,47033,1,2,1:2:0:0:
300,66,47194,1,2,2:2:0:0:
434,247,47356,1,10,2:2:0:0:
296,203,47517,5,2,2:2:0:0:
296,203,47597,1,0,0:0:0:0:
296,203,47678,2,0,B|279:337|279:337|289:308|308:295,1,187.000005706787,2|10,1:2|2:2,0:0:0:0:
467,157,48162,2,0,B|360:136|391:223|293:201,1,187.000005706787,2|2,2:2|2:2,0:0:0:0:
434,247,48646,1,10,2:2:0:0:
308,97,48807,6,0,P|230:54|149:113,1,187.000005706787,2|2,2:2|2:2,0:0:0:0:
358,13,49291,1,10,2:2:0:0:
183,187,49452,2,0,B|245:167|245:167|294:195|294:195|356:176,1,187.000005706787,2|2,2:2|2:2,0:0:0:0:
232,274,49936,1,10,2:2:0:0:
121,100,50097,5,2,2:2:0:0:
121,100,50178,1,0,0:0:0:0:
121,100,50259,2,0,B|93:126|61:136|61:136|97:255,1,187.000005706787,2|10,1:2|2:2,0:0:0:0:
229,122,50743,2,0,P|223:74|217:27,1,93.5000028533936,2|0,2:2|1:1,0:0:0:0:
349,118,51065,2,0,P|343:166|337:213,1,93.5000028533936,2|10,2:2|2:2,0:0:0:0:
164,187,51388,1,2,2:2:0:0:
291,305,51549,6,0,B|350:324|350:324|401:296,1,93.5000028533936,0|0,1:1|0:0,0:0:0:0:
250,190,51872,2,0,B|191:171|191:171|140:199,1,93.5000028533936,8|2,2:2|2:2,0:0:0:0:
18,270,52194,2,0,P|71:270|132:259,1,93.5000028533936,2|8,1:2|2:2,0:0:0:0:
133,268,52436,1,8,2:2:0:0:
144,279,52517,1,8,2:2:0:0:
204,373,52678,5,10,2:2:0:0:
204,373,52759,1,8,2:2:0:0:
204,373,52839,2,0,P|116:363|30:373,1,170,4|8,1:2|2:2,0:0:0:0:
256,192,53323,12,10,55097,2:2:0:0:
477,75,55259,6,0,P|395:65|296:42,1,170,2|2,2:2|2:2,0:0:0:0:
257,165,55743,1,10,2:2:0:0:
189,81,55904,1,2,2:2:0:0:
357,149,56065,2,0,P|343:205|339:249,1,85,2|2,1:2|2:2,0:0:0:0:
286,347,56388,1,10,2:2:0:0:
203,256,56549,6,0,P|231:217|346:241,1,170,2|2,2:2|2:2,0:0:0:0:
467,332,57033,2,0,L|369:323,1,85,10|2,2:2|2:2,0:0:0:0:
434,231,57356,1,2,1:2:0:0:
285,84,57517,1,2,2:2:0:0:
339,231,57678,1,10,2:2:0:0:
412,89,57839,1,2,2:2:0:0:
253,163,58001,6,0,L|156:166,1,85,0|2,1:1|0:0,0:0:0:0:
96,78,58323,1,10,2:2:0:0:
96,78,58485,2,0,B|115:105|133:120|133:120|86:258,1,170,2|2,2:2|0:0,0:0:0:0:
11,179,58968,1,10,2:2:0:0:
35,291,59130,6,0,B|128:254|104:338|226:301,1,170,2|2,2:2|2:2,0:0:0:0:
283,259,59614,1,10,2:2:0:0:
203,166,59775,2,0,B|178:155|163:124|163:124|171:245,1,170,2|2,2:2|2:2,0:0:0:0:
321,73,60259,2,0,P|266:70|235:100,1,85,10|2,2:2|2:2,0:0:0:0:
300,170,60581,6,0,L|409:165,2,85,0|2|10,1:1|2:2|2:2,0:0:0:0:
170,234,61065,1,2,2:2:0:0:
90,154,61226,1,0,1:2:0:0:
184,89,61388,1,2,2:2:0:0:
77,29,61549,1,10,2:2:0:0:
5,163,61710,5,2,2:2:0:0:
5,163,61791,1,0,0:0:0:0:
5,163,61872,2,0,L|104:152,1,85,0|2,1:1|2:2,0:0:0:0:
252,243,62194,2,0,P|200:241|156:230,1,85,10|2,2:2|2:2,0:0:0:0:
52,249,62517,1,2,1:2:0:0:
200,336,62678,1,10,2:2:0:0:
200,336,62759,1,8,2:2:0:0:
200,336,62839,1,10,2:2:0:0:
26,345,63001,5,10,2:2:0:0:
26,345,63081,1,8,2:2:0:0:
26,345,63162,2,0,P|73:332|129:334,1,85,6|2,1:2|0:0,0:0:0:0:
93,182,63485,2,0,P|53:226|53:256,1,85,10|2,2:2|2:2,0:0:0:0:
202,178,63807,2,0,L|193:65,2,85,2|2|10,1:2|2:2|2:2,0:0:0:0:
140,254,64291,6,0,B|192:278|192:278|306:252,1,170,2|2,2:2|2:2,0:0:0:0:
431,234,64775,1,10,2:2:0:0:
313,334,64936,1,2,2:2:0:0:
360,182,65097,1,2,1:2:0:0:
410,369,65259,1,2,2:2:0:0:
301,252,65420,1,10,2:2:0:0:
480,323,65581,6,0,B|431:322|431:322|406:336|406:336|303:334,1,170,2|2,2:2|2:2,0:0:0:0:
214,260,66065,2,0,L|114:270,2,85,10|2|2,2:2|2:2|1:2,0:0:0:0:
304,225,66549,1,2,2:2:0:0:
228,347,66710,1,10,2:2:0:0:
315,203,66872,6,0,P|311:140|209:100,1,170,2|2,2:2|2:2,0:0:0:0:
118,187,67356,1,10,2:2:0:0:
237,180,67517,1,2,2:2:0:0:
136,84,67678,1,2,1:2:0:0:
186,251,67839,1,2,2:2:0:0:
186,251,67920,1,0,0:0:0:0:
186,251,68001,1,10,2:2:0:0:
34,126,68162,6,0,P|48:212|59:301,1,170,2|2,2:2|0:0,0:0:0:0:
152,378,68646,1,10,2:2:0:0:
186,251,68807,1,2,2:2:0:0:
58,294,68968,1,2,1:2:0:0:
245,332,69130,1,2,0:0:0:0:
171,160,69291,1,10,2:2:0:0:
289,250,69452,6,0,B|365:233|357:298|460:274,1,170,2|2,2:2|2:2,0:0:0:0:
402,116,69936,1,10,2:2:0:0:
424,201,70097,1,2,2:2:0:0:
471,58,70259,2,0,P|432:23|388:25,1,85,2|2,1:2|2:2,0:0:0:0:
376,27,70501,1,0,0:0:0:0:
355,40,70581,1,10,2:2:0:0:
172,180,70743,6,0,P|260:175|349:170,1,170,2|2,2:2|2:2,0:0:0:0:
242,90,71226,1,10,2:2:0:0:
227,257,71388,1,2,2:2:0:0:
341,170,71549,1,2,1:2:0:0:
366,312,71710,1,2,2:2:0:0:
227,282,71872,1,10,2:2:0:0:
427,240,72033,6,0,B|471:280|471:280|432:386,1,170,2|2,2:2|2:2,0:0:0:0:
341,170,72517,1,10,2:2:0:0:
227,282,72678,1,2,2:2:0:0:
366,312,72839,1,2,1:2:0:0:
239,177,73001,1,2,0:0:0:0:
239,177,73081,1,0,0:0:0:0:
239,177,73162,2,0,P|187:182|132:190,1,85,10|2,0:0|0:0,0:0:0:0:
77,128,73485,5,4,2:2:0:0:
34,98,83323,6,0,P|79:112|114:100,1,72.2500013780594,0|2,0:0|2:2,0:0:0:0:
168,44,83645,1,2,2:2:0:0:
168,44,83807,2,0,P|163:103|154:204,1,144.500002756119,0|2,1:1|2:2,0:0:0:0:
58,235,84290,1,2,1:2:0:0:
212,272,84452,2,0,L|108:275,1,72.2500013780594,8|0,0:1|0:0,0:0:0:0:
262,191,84774,1,2,2:2:0:0:
312,273,84936,1,2,2:2:0:0:
262,118,85097,6,0,L|261:195,1,72.2500013780594,0|2,1:1|2:2,0:0:0:0:
339,59,85419,1,2,2:2:0:0:
410,118,85581,1,2,1:2:0:0:
496,32,85743,2,0,L|405:34,1,72.2500013780594,8|2,0:1|2:2,0:0:0:0:
501,124,86065,1,2,2:2:0:0:
501,124,86226,1,2,2:2:0:0:
452,265,86388,6,0,P|446:223|452:173,1,72.2500013780594,0|2,1:1|2:2,0:0:0:0:
353,329,86710,2,0,P|359:287|353:237,1,72.2500013780594,2|2,2:2|1:2,0:0:0:0:
410,118,87033,2,0,P|338:95|286:136,1,144.500002756119,8|2,0:1|2:2,0:0:0:0:
355,179,87517,1,2,2:2:0:0:
201,118,87678,6,0,L|206:213,1,72.2500013780594,0|2,1:1|1:2,0:0:0:0:
252,41,88000,1,2,2:2:0:0:
121,129,88162,1,2,1:2:0:0:
35,34,88323,2,0,B|82:24|82:24|122:52|122:52|178:46,1,144.500002756119,8|2,0:1|2:2,0:0:0:0:
37,118,88807,1,2,2:2:0:0:
37,118,88968,6,0,P|6:182|70:253,1,144.500002756119,0|2,1:1|2:2,0:0:0:0:
183,227,89452,1,2,1:2:0:0:
183,227,89613,2,0,P|110:232|39:240,1,144.500002756119,8|2,0:1|2:2,0:0:0:0:
120,144,90097,1,2,2:2:0:0:
120,144,90258,6,0,L|205:137,2,72.2500013780594,0|2|2,1:1|2:2|2:2,0:0:0:0:
184,36,90743,1,2,1:2:0:0:
277,113,90904,2,0,L|272:196,1,72.2500013780594,8|2,0:1|2:2,0:0:0:0:
195,266,91226,1,2,2:2:0:0:
272,185,91387,1,2,2:2:0:0:
324,283,91548,6,0,P|320:321|316:372,1,72.2500013780594,0|2,1:1|2:2,0:0:0:0:
395,207,91871,1,2,2:2:0:0:
395,207,92032,1,2,1:2:0:0:
323,282,92194,2,0,P|256:303|196:267,1,144.500002756119,8|2,0:1|2:2,0:0:0:0:
158,343,92677,1,2,2:2:0:0:
121,209,92839,6,0,L|109:292,1,72.2500013780594,0|2,1:1|2:2,0:0:0:0:
218,167,93161,1,2,2:2:0:0:
141,113,93323,1,2,1:2:0:0:
226,83,93485,2,0,B|321:57|321:57|375:87,1,144.500002756119,8|2,0:1|2:2,0:0:0:0:
413,14,93968,1,2,2:2:0:0:
427,164,94130,6,0,L|329:162,1,85,0|2,1:1|2:2,0:0:0:0:
250,222,94452,1,2,1:2:0:0:
346,272,94613,1,2,2:2:0:0:
245,335,94774,2,0,B|345:364|345:364|404:336,1,170,2|2,1:2|1:2,0:0:0:0:
346,272,95258,1,2,2:2:0:0:
488,278,95420,6,0,P|486:327|485:370,1,85,0|2,1:1|2:2,0:0:0:0:
346,272,95743,1,2,1:2:0:0:
452,189,95903,1,2,2:2:0:0:
332,165,96065,2,0,B|238:145|263:213|163:179,1,170,0|2,1:1|1:2,0:0:0:0:
208,103,96548,1,2,2:2:0:0:
68,176,96710,6,0,P|72:117|68:69,1,85,2|2,1:2|2:2,0:0:0:0:
165,265,97033,2,0,P|164:210|170:172,1,85,2|2,1:2|2:2,0:0:0:0:
62,335,97356,2,0,P|148:304|239:344,1,170,2|2,1:2|1:2,0:0:0:0:
257,226,97839,1,2,2:2:0:0:
389,302,98000,6,0,L|298:298,1,85,0|2,1:1|2:2,0:0:0:0:
367,212,98323,1,2,1:2:0:0:
367,212,98484,1,2,2:2:0:0:
259,141,98645,2,0,P|258:192|256:251,1,85,0|2,1:1|2:2,0:0:0:0:
300,52,98968,1,2,1:2:0:0:
369,118,99129,1,2,2:2:0:0:
259,141,99291,6,0,L|161:138,2,85,2|2|2,1:2|2:2|1:2,0:0:0:0:
299,51,99775,1,2,2:2:0:0:
469,58,99936,2,0,L|292:51,1,170,2|2,1:2|1:2,0:0:0:0:
331,192,100419,1,2,2:2:0:0:
201,40,100581,6,0,P|200:94|199:135,1,85,0|2,1:1|2:2,0:0:0:0:
112,146,100903,1,2,1:2:0:0:
112,146,101065,1,2,2:2:0:0:
110,260,101226,2,0,B|112:214|115:149|115:149|123:181|147:200,1,170,0|2,1:1|1:2,0:0:0:0:
42,322,101710,1,2,2:2:0:0:
126,359,101871,6,0,B|158:340|158:340|215:358,2,85,2|2|2,1:2|2:2|1:2,0:0:0:0:
280,283,102356,1,2,2:2:0:0:
169,245,102517,2,0,L|270:245,1,85,2|0,1:2|0:0,0:0:0:0:
387,294,102839,1,2,1:2:0:0:
336,198,103000,1,2,2:2:0:0:
476,278,103161,6,0,P|463:348|352:371,1,170,0|2,1:1|2:2,0:0:0:0:
483,184,103645,1,2,2:2:0:0:
387,294,103806,2,0,P|399:201|406:111,1,170,2|2,2:2|2:2,0:0:0:0:
483,184,104290,1,0,0:0:0:0:
497,51,104452,6,0,B|433:70|444:9|360:40,1,127.500004863739,4|2,2:2|2:2,0:0:0:0:
405,125,104936,1,2,2:2:0:0:
278,140,105097,2,0,P|348:130|407:124,1,127.500004863739,2|2,2:2|2:2,0:0:0:0:
278,140,105581,6,0,P|248:85|188:70,1,127.500004863739,2|2,2:2|2:2,0:0:0:0:
189,215,106065,2,0,L|196:130,1,63.7500024318696,2|0,2:2|0:0,0:0:0:0:
94,44,106387,2,0,L|108:119,1,63.7500024318696,2|2,2:2|2:2,0:0:0:0:
7,205,106710,2,0,B|66:181|66:181|111:202,1,95.6250036478044,2|0,2:2|0:0,0:0:0:0:
109,220,107032,2,0,L|99:364,2,127.500004863739,2|2|2,2:2|2:2|2:2,0:0:0:0:
209,330,108001,5,2,2:2:0:0:
209,330,108162,2,0,P|277:319|347:322,1,127.500004863739,2|2,2:2|2:2,0:0:0:0:
434,233,108646,2,0,P|400:237|360:232,1,63.7500024318696,2|2,2:2|2:2,0:0:0:0:
419,315,108968,1,0,0:0:0:0:
292,240,109130,2,0,L|286:163,2,63.7500024318696,2|2|2,2:2|2:2|2:2,0:0:0:0:
375,131,109614,6,0,P|309:75|216:118,1,191.250007295609,2|2,2:2|2:2,0:0:0:0:
139,192,110259,2,0,P|168:139|144:63,1,127.500004863739,2|2,2:2|2:2,0:0:0:0:
44,152,110743,6,0,P|54:217|62:279,1,127.500004863739,2|0,2:2|0:0,0:0:0:0:
213,300,111226,2,0,P|181:278|141:283,1,63.7500024318696,2|2,2:2|2:2,0:0:0:0:
69,371,111549,2,0,L|148:361,1,63.7500024318696,2|0,2:2|0:0,0:0:0:0:
213,300,111872,2,0,L|300:304,1,63.7500024318696,2|2,2:2|2:2,0:0:0:0:
369,358,112194,6,0,P|342:320|376:247,1,127.5,2|0,2:2|0:0,0:0:0:0:
369,250,112517,1,2,2:2:0:0:
453,131,112678,2,0,P|385:200|302:177,1,170,2|2,2:2|2:2,0:0:0:0:
370,98,113162,1,2,2:2:0:0:
241,64,113323,2,0,B|281:110|281:110|247:222,1,170,2|0,2:2|0:0,0:0:0:0:
90,151,113807,6,0,P|132:143|172:163,1,76.4999976654053,2|0,2:2|0:0,0:0:0:0:
114,310,114130,2,0,P|103:269|134:222,1,85,2|0,2:2|0:0,0:0:0:0:
277,287,114453,2,0,P|236:298|178:263,1,89.2499972763062,2|2,2:2|2:2,0:0:0:0:
276,189,114775,6,0,B|358:196|358:196|370:206|370:206|472:212,1,187.000005706787,6|8,1:2|2:2,0:0:0:0:
494,54,115259,2,0,P|414:76|405:151,1,140.25000428009,2|0,2:2|0:0,0:0:0:0:
399,125,115582,1,2,1:2:0:0:
271,63,115743,1,10,2:2:0:0:
287,281,115904,6,0,P|280:234|275:188,1,93.5000028533936,2|0,2:2|1:1,0:0:0:0:
377,358,116227,1,2,1:2:0:0:
458,232,116388,1,10,2:2:0:0:
287,281,116549,2,0,L|180:279,1,93.5000028533936,2|0,1:2|1:1,0:0:0:0:
29,107,116872,1,2,1:2:0:0:
223,167,117033,1,10,2:2:0:0:
25,235,117195,1,2,2:2:0:0:
130,60,117356,6,0,L|124:153,1,93.5000028533936,2|2,1:2|2:2,0:0:0:0:
272,262,117678,1,10,2:2:0:0:
124,153,117840,1,2,2:2:0:0:
276,353,118001,1,2,1:2:0:0:
351,140,118162,1,2,1:2:0:0:
132,263,118324,1,10,2:2:0:0:
306,50,118485,6,0,B|378:44|378:44|417:74|417:74|488:72,1,187.000005706787,2|0,2:2|1:1,0:0:0:0:
484,241,118969,2,0,P|425:234|380:228,1,93.5000028533936,10|0,2:2|1:1,0:0:0:0:
190,116,119291,1,2,1:2:0:0:
347,318,119453,1,2,1:2:0:0:
100,308,119614,1,10,2:2:0:0:
301,222,119775,5,2,2:2:0:0:
301,222,119856,1,2,2:2:0:0:
301,222,119937,2,0,B|345:176|345:176|295:30,1,187.000005706787,2|10,1:2|2:2,0:0:0:0:
174,283,120420,2,0,B|275:257|247:360|370:311,1,187.000005706787,2|2,2:2|1:2,0:0:0:0:
123,184,120904,1,10,2:2:0:0:
262,147,121066,6,0,B|294:134|310:102|310:102|300:226,1,187.000005706787,2|2,2:2|1:2,0:0:0:0:
179,71,121549,1,10,2:2:0:0:
403,108,121711,2,0,P|377:27|282:18,1,187.000005706787,2|2,1:2|1:2,0:0:0:0:
426,197,122195,1,10,2:2:0:0:
278,265,122356,5,2,2:2:0:0:
278,265,122437,1,0,0:0:0:0:
278,265,122517,2,0,B|342:263|342:263|387:299|387:299|461:295,1,187.000005706787,2|10,1:2|2:2,0:0:0:0:
493,119,123001,2,0,P|435:113|381:107,1,93.5000028533936,2|0,2:2|1:1,0:0:0:0:
249,30,123324,2,0,P|307:24|361:18,1,93.5000028533936,2|8,1:2|2:2,0:0:0:0:
190,219,123646,6,0,P|275:193|304:108,1,187.000005706787,2|0,2:2|1:1,0:0:0:0:
101,109,124130,2,0,P|157:113|211:118,1,93.5000028533936,10|0,2:2|1:1,0:0:0:0:
62,335,124453,2,0,P|59:282|55:234,1,93.5000028533936,2|8,1:2|2:2,0:0:0:0:
69,209,124695,1,8,2:2:0:0:
69,209,124775,1,10,2:2:0:0:
170,311,124937,5,8,2:2:0:0:
170,311,125017,1,8,2:2:0:0:
170,311,125097,2,0,B|260:281|221:365|347:336,1,170,2|12,2:2|2:2,0:0:0:0:
349,137,125582,2,0,P|300:184|306:252,1,140.25000428009,2|0,2:2|0:0,0:0:0:0:
306,252,125904,1,2,1:2:0:0:
217,111,126066,1,10,2:2:0:0:
490,222,126227,6,0,P|441:219|392:217,1,93.5000028533936,2|0,2:2|1:1,0:0:0:0:
348,9,126549,1,2,1:2:0:0:
487,114,126711,1,10,2:2:0:0:
217,111,126872,2,0,L|326:100,1,93.5000028533936,2|0,1:2|1:1,0:0:0:0:
47,248,127195,1,2,1:2:0:0:
152,30,127356,1,10,2:2:0:0:
252,241,127517,1,2,2:2:0:0:
52,12,127678,6,0,P|52:57|50:106,1,93.5000028533936,2|2,1:2|2:2,0:0:0:0:
188,319,128001,1,10,2:2:0:0:
217,111,128162,1,2,2:2:0:0:
72,340,128323,1,2,1:2:0:0:
347,276,128485,1,2,1:2:0:0:
129,182,128646,1,10,2:2:0:0:
252,369,128807,6,0,B|313:356|313:356|366:388|366:388|431:374,1,187.000005706787,2|0,2:2|1:1,0:0:0:0:
477,202,129291,2,0,L|466:301,1,93.5000028533936,10|0,2:2|1:1,0:0:0:0:
232,103,129614,1,2,1:2:0:0:
383,186,129775,1,2,1:2:0:0:
169,259,129937,1,10,2:2:0:0:
323,90,130098,5,2,2:2:0:0:
323,90,130178,1,0,0:0:0:0:
323,90,130259,2,0,B|189:73|189:73|218:83|231:102,1,187.000005706787,2|10,1:2|2:2,0:0:0:0:
79,157,130743,2,0,B|186:136|155:223|253:201,1,187.000005706787,2|2,2:2|1:2,0:0:0:0:
140,57,131227,1,10,2:2:0:0:
384,97,131388,6,0,P|306:54|225:113,1,187.000005706787,2|2,2:2|1:2,0:0:0:0:
112,260,131872,1,10,2:2:0:0:
310,142,132033,2,0,B|354:186|354:186|321:315,1,187.000005706787,2|2,1:2|1:2,0:0:0:0:
448,209,132517,1,10,2:2:0:0:
254,208,132678,5,2,2:2:0:0:
254,208,132759,1,0,0:0:0:0:
254,208,132840,2,0,B|181:185|67:165,1,187.000005706787,2|10,1:2|2:2,0:0:0:0:
195,15,133324,2,0,P|189:63|183:110,1,93.5000028533936,2|0,2:2|1:1,0:0:0:0:
60,258,133646,2,0,P|66:210|72:163,1,93.5000028533936,2|8,1:2|2:2,0:0:0:0:
175,282,133969,1,2,1:2:0:0:
107,81,134130,6,0,B|79:65|79:65|20:84,1,93.5000028533936,0|0,1:1|1:1,0:0:0:0:
149,188,134453,2,0,B|176:203|176:203|235:184,1,93.5000028533936,8|0,2:2|1:2,0:0:0:0:
348,59,134775,2,0,P|341:113|337:173,1,93.5000028533936,2|8,1:2|2:2,0:0:0:0:
346,174,135017,1,8,2:2:0:0:
357,185,135098,1,10,2:2:0:0:
451,266,135259,5,10,2:2:0:0:
451,266,135340,1,8,2:2:0:0:
451,266,135420,2,0,P|369:229|304:268,1,170,6|10,1:2|2:2,0:0:0:0:
195,367,135904,2,0,P|273:357|329:353,1,127.5,2|0,2:2|0:0,0:0:0:0:
321,353,136226,1,2,2:2:0:0:
215,251,136388,1,10,2:2:0:0:
276,162,136549,6,0,B|251:142|232:125|232:125|122:163,1,170,2|2,2:2|2:2,0:0:0:0:
141,65,137033,1,10,2:2:0:0:
37,236,137194,2,0,P|32:184|28:125,1,85,2|0,2:2|1:1,0:0:0:0:
100,358,137517,1,2,2:2:0:0:
145,238,137678,1,10,2:2:0:0:
25,327,137839,6,0,P|141:319|215:320,1,170,2|2,2:2|2:2,0:0:0:0:
334,369,138323,1,10,2:2:0:0:
303,221,138485,1,2,2:2:0:0:
194,319,138646,1,2,1:2:0:0:
390,261,138807,1,2,2:2:0:0:
208,170,138968,1,10,2:2:0:0:
344,105,139130,6,0,L|441:114,2,85,2|0|2,2:2|1:1|2:2,0:0:0:0:
122,150,139614,1,10,2:2:0:0:
238,12,139775,1,2,2:2:0:0:
233,235,139936,1,2,1:2:0:0:
49,68,140097,1,2,2:2:0:0:
259,124,140259,1,10,2:2:0:0:
120,277,140420,6,0,L|122:125,1,127.5,2|0,2:2|0:0,0:0:0:0:
120,128,140743,1,2,0:0:0:0:
8,203,140904,1,10,2:2:0:0:
120,277,141065,2,0,B|218:248|188:331|310:293,1,170,2|2,2:2|0:0,0:0:0:0:
156,356,141549,1,10,2:2:0:0:
260,215,141710,6,0,P|324:185|420:256,1,170,2|2,2:2|2:2,0:0:0:0:
282,300,142194,1,10,2:2:0:0:
482,260,142356,1,2,2:2:0:0:
351,163,142517,1,0,1:1:0:0:
447,356,142678,1,2,2:2:0:0:
498,160,142839,1,10,2:2:0:0:
447,356,143001,6,0,B|395:351|395:351|368:368|368:368|268:356,1,170,2|2,2:2|2:2,0:0:0:0:
228,204,143485,1,10,2:2:0:0:
320,272,143646,1,2,2:2:0:0:
124,310,143807,2,0,L|206:290,1,85,0|2,1:2|2:2,0:0:0:0:
155,140,144130,2,0,P|127:186|143:234,1,85,10|2,2:2|2:2,0:0:0:0:
197,67,144452,6,0,P|155:52|99:72,2,85,0|2|10,1:1|2:2|2:2,0:0:0:0:
304,43,144936,1,2,2:2:0:0:
228,204,145097,2,0,L|327:190,1,85,2|10,1:2|2:2,0:0:0:0:
329,200,145339,1,8,2:2:0:0:
338,210,145420,1,10,2:2:0:0:
432,99,145581,5,10,2:2:0:0:
432,99,145662,1,8,2:2:0:0:
432,99,145743,2,0,B|383:143|383:143|416:262,1,170,6|10,1:2|2:2,0:0:0:0:
455,365,146226,1,2,2:2:0:0:
480,180,146387,1,2,1:2:0:0:
328,319,146548,1,2,2:2:0:0:
504,279,146710,1,10,2:2:0:0:
338,210,146871,6,0,B|292:211|292:211|267:225|267:225|164:223,1,170,2|2,2:2|2:2,0:0:0:0:
80,185,147355,2,0,L|90:285,2,85,10|2|2,2:2|2:2|1:2,0:0:0:0:
216,101,147839,1,2,2:2:0:0:
171,223,148000,1,10,2:2:0:0:
236,78,148162,6,0,P|181:46|91:108,1,170,2|2,2:2|2:2,0:0:0:0:
250,247,148646,1,10,2:2:0:0:
152,147,148807,1,2,2:2:0:0:
93,286,148968,1,2,1:2:0:0:
248,163,149129,1,2,2:2:0:0:
248,163,149210,1,0,0:0:0:0:
248,163,149291,1,10,2:2:0:0:
170,336,149452,6,0,P|256:322|345:311,1,170,2|2,2:2|2:2,0:0:0:0:
468,194,149936,1,10,2:2:0:0:
333,187,150097,1,2,2:2:0:0:
468,281,150258,1,2,1:2:0:0:
443,80,150420,1,2,2:2:0:0:
333,187,150581,1,10,2:2:0:0:
317,56,150742,6,0,B|241:39|249:104|146:80,1,170,2|2,2:2|0:0,0:0:0:0:
131,206,151226,1,10,2:2:0:0:
57,46,151387,1,2,2:2:0:0:
39,268,151549,2,0,P|35:224|27:178,1,85,2|2,1:2|0:0,0:0:0:0:
33,162,151791,1,0,0:0:0:0:
43,145,151872,1,10,2:2:0:0:
131,256,152033,6,0,B|245:280|245:280|308:246,1,170,2|2,2:2|2:2,0:0:0:0:
383,146,152516,1,10,2:2:0:0:
242,187,152678,1,2,2:2:0:0:
425,221,152839,1,2,1:2:0:0:
306,83,153000,1,2,2:2:0:0:
292,254,153162,1,10,2:2:0:0:
449,88,153323,6,0,B|409:44|409:44|303:83,1,170,2|2,2:2|2:2,0:0:0:0:
107,175,153807,1,10,2:2:0:0:
243,167,153968,1,2,2:2:0:0:
171,82,154130,1,2,1:2:0:0:
193,283,154291,1,2,2:2:0:0:
343,171,154452,1,10,2:2:0:0:
342,340,154614,6,0,L|343:153,1,170,2|2,2:2|2:2,0:0:0:0:
73,51,155097,5,10,2:2:0:0:
137,280,155259,1,2,2:2:0:0:
201,63,155420,1,2,1:2:0:0:
14,231,155581,1,2,0:0:0:0:
251,349,155743,1,10,0:0:0:0:
173,173,155904,1,2,0:0:0:0:
392,262,156065,6,0,P|322:253|255:252,1,127.500004863739,6|2,2:2|2:2,0:0:0:0:
346,167,156549,1,2,0:0:0:0:
243,158,156710,2,0,L|249:67,2,63.7500024318696,2|2|2,2:2|2:2|2:2,0:0:0:0:
265,251,157194,1,2,2:2:0:0:
158,323,157356,6,0,B|222:304|204:359|279:335,1,127.500004863739,2|2,2:2|2:2,0:0:0:0:
357,255,157839,1,2,0:0:0:0:
385,351,158001,1,2,2:2:0:0:
478,214,158162,2,0,L|469:294,1,63.7500024318696,2|2,2:2|2:2,0:0:0:0:
389,138,158485,1,2,2:2:0:0:
504,122,158646,6,0,P|446:107|379:152,1,127.500004863739,2|2,2:2|2:2,0:0:0:0:
352,51,159130,1,2,0:0:0:0:
219,127,159291,2,0,P|276:120|310:119,1,63.7500024318696,2|2,2:2|2:2,0:0:0:0:
209,35,159614,1,2,2:2:0:0:
209,35,159775,1,2,2:2:0:0:
84,55,159936,6,0,B|83:108|83:108|91:118|91:118|89:195,1,127.500004863739,2|2,2:2|2:2,0:0:0:0:
174,223,160420,1,2,0:0:0:0:
72,262,160581,2,0,L|-13:255,1,63.7500024318696,2|2,2:2|2:2,0:0:0:0:
155,350,160904,1,2,2:2:0:0:
88,282,161065,1,2,2:2:0:0:
165,365,161226,6,0,P|235:360|309:359,1,127.500004863739,2|2,2:2|2:2,0:0:0:0:
364,301,161710,2,0,L|451:312,2,63.7500024318696,2|2|2,0:0|2:2|2:2,0:0:0:0:
272,267,162194,1,2,2:2:0:0:
442,226,162356,1,2,2:2:0:0:
348,177,162517,6,0,P|375:120|449:109,1,127.500004863739,2|2,2:2|2:2,0:0:0:0:
368,30,163001,1,2,0:0:0:0:
274,105,163162,2,0,L|271:37,1,63.7500024318696,2|2,2:2|2:2,0:0:0:0:
127,85,163485,2,0,P|160:68|198:77,1,63.7500024318696,2|2,2:2|2:2,0:0:0:0:
348,177,163807,6,0,P|285:175|218:179,1,127.500004863739,2|2,2:2|2:2,0:0:0:0:
240,278,164291,1,2,0:0:0:0:
131,168,164452,2,0,L|139:242,1,63.7500024318696,2|2,2:2|2:2,0:0:0:0:
13,341,164775,1,2,2:2:0:0:
50,243,164936,1,2,2:2:0:0:
138,342,165097,6,0,B|202:329|197:378|271:362,1,127.500004863739,2|2,2:2|2:2,0:0:0:0:
272,220,165581,1,2,2:2:0:0:
272,220,165743,2,0,B|249:211|235:195|235:195|240:284,1,127.500004863739,2|0,2:2|0:0,0:0:0:0:
256,192,166146,12,0,167880,0:0:0:0:
