osu file format v14

[General]
AudioFilename: audio.mp3
AudioLeadIn: 0
PreviewTime: 83323
Countdown: 0
SampleSet: Soft
StackLeniency: 0.3
Mode: 0
LetterboxInBreaks: 0
EpilepsyWarning: 1
WidescreenStoryboard: 1

[Editor]
Bookmarks: 159936
DistanceSpacing: 1
BeatDivisor: 4
GridSize: 32
TimelineZoom: 1.6

[Metadata]
Title:Mizuoto to Curtain
TitleUnicode:水音とカーテン
Artist:MIMI
ArtistUnicode:MIMI
Creator:Share
Version:Magor's Insane feat. Share
Source:
Tags:featured artist mappers' guild japanese fa electronic hatsune miku 初音ミク pop japanese vocaloid ZAWAJIRO Iamwayneking I am wayneking Tristan Magor0 leominexd leomine pado [Hatsune Miku] sinsekai studio city project 深脊界 thinkr
BeatmapID:3570291
BeatmapSetID:1529722

[Difficulty]
HPDrainRate:5.4
CircleSize:4
OverallDifficulty:8.4
ApproachRate:8.6
SliderMultiplier:1.4
SliderTickRate:1

[Events]
//Background and Video events
0,0,"thumb-1920-1180776.png",0,0
//Break Periods
2,73685,83148
//Storyboard Layer 0 (Background)
//Storyboard Layer 1 (Fail)
//Storyboard Layer 2 (Pass)
//Storyboard Layer 3 (Foreground)
//Storyboard Layer 4 (Overlay)
//Storyboard Sound Samples

[TimingPoints]
1227,322.58064516129,4,2,1,60,1,0
1227,-117.647058823529,4,2,1,60,0,0
11549,-100,4,2,1,65,0,0
21872,-133.333333333333,4,2,1,55,0,0
28888,-133.333333333333,4,2,1,55,0,0
28968,-133.333333333333,4,2,1,55,0,0
29210,-133.333333333333,4,2,1,55,0,0
29291,-133.333333333333,4,2,1,55,0,0
29533,-133.333333333333,4,2,1,55,0,0
29614,-133.333333333333,4,2,1,55,0,0
31226,-111.111111111111,4,2,10,55,0,0
31549,-100,4,2,22,55,0,0
31872,-95.2380952380952,4,2,19,55,0,0
32033,-95.2380952380952,4,2,1,55,0,0
32194,-90.9090909090909,4,2,17,70,0,1
32678,-90.9090909090909,4,2,15,70,0,1
33162,-90.9090909090909,4,2,22,70,0,1
33323,-90.9090909090909,4,2,24,70,0,1
33646,-90.9090909090909,4,2,15,70,0,1
33807,-90.9090909090909,4,2,14,70,0,1
33968,-90.9090909090909,4,2,15,70,0,1
34291,-90.9090909090909,4,2,12,70,0,1
34452,-90.9090909090909,4,2,14,70,0,1
34614,-90.9090909090909,4,2,15,70,0,1
34775,-90.9090909090909,4,2,17,70,0,1
34936,-90.9090909090909,4,2,14,70,0,1
35098,-90.9090909090909,4,2,15,70,0,1
35259,-90.9090909090909,4,2,17,70,0,1
35420,-90.9090909090909,4,2,10,70,0,1
35581,-90.9090909090909,4,2,22,70,0,1
35743,-90.9090909090909,4,2,17,70,0,1
35904,-90.9090909090909,4,2,19,70,0,1
36710,-90.9090909090909,4,2,17,70,0,1
36872,-90.9090909090909,4,2,22,70,0,1
37033,-90.9090909090909,4,2,15,70,0,1
37194,-90.9090909090909,4,2,14,70,0,1
37275,-90.9090909090909,4,2,15,70,0,1
37356,-90.9090909090909,4,2,17,70,0,1
37839,-90.9090909090909,4,2,15,70,0,1
38323,-90.9090909090909,4,2,22,70,0,1
38485,-90.9090909090909,4,2,24,70,0,1
38807,-90.9090909090909,4,2,15,70,0,1
38968,-90.9090909090909,4,2,14,70,0,1
39130,-90.9090909090909,4,2,15,70,0,1
39452,-90.9090909090909,4,2,12,70,0,1
39614,-90.9090909090909,4,2,14,70,0,1
39775,-90.9090909090909,4,2,15,70,0,1
39936,-90.9090909090909,4,2,17,70,0,1
40259,-90.9090909090909,4,2,19,70,0,1
40420,-90.9090909090909,4,2,17,70,0,1
40743,-90.9090909090909,4,2,15,70,0,1
41549,-90.9090909090909,4,2,10,60,0,1
41872,-90.9090909090909,4,2,22,60,0,1
42033,-90.9090909090909,4,2,1,60,0,1
42195,-90.9090909090909,4,2,19,60,0,1
42356,-90.9090909090909,4,2,1,60,0,1
42517,-90.9090909090909,4,2,17,70,0,1
43001,-90.9090909090909,4,2,15,70,0,1
43485,-90.9090909090909,4,2,22,70,0,1
43646,-90.9090909090909,4,2,24,70,0,1
43969,-90.9090909090909,4,2,15,70,0,1
44130,-90.9090909090909,4,2,14,70,0,1
44291,-90.9090909090909,4,2,15,70,0,1
44614,-90.9090909090909,4,2,12,70,0,1
44775,-90.9090909090909,4,2,14,70,0,1
44937,-90.9090909090909,4,2,15,70,0,1
45098,-90.9090909090909,4,2,17,70,0,1
45259,-90.9090909090909,4,2,14,70,0,1
45421,-90.9090909090909,4,2,15,70,0,1
45582,-90.9090909090909,4,2,17,70,0,1
45743,-90.9090909090909,4,2,10,70,0,1
45904,-90.9090909090909,4,2,22,70,0,1
46066,-90.9090909090909,4,2,17,70,0,1
46227,-90.9090909090909,4,2,19,70,0,1
47033,-90.9090909090909,4,2,17,70,0,1
47195,-90.9090909090909,4,2,22,70,0,1
47275,-90.9090909090909,4,2,1,70,0,1
47356,-90.9090909090909,4,2,15,70,0,1
47517,-90.9090909090909,4,2,14,70,0,1
47679,-90.9090909090909,4,2,17,70,0,1
48162,-90.9090909090909,4,2,15,70,0,1
48646,-90.9090909090909,4,2,22,70,0,1
48808,-90.9090909090909,4,2,24,70,0,1
49130,-90.9090909090909,4,2,15,70,0,1
49291,-90.9090909090909,4,2,14,70,0,1
49453,-90.9090909090909,4,2,15,70,0,1
49775,-90.9090909090909,4,2,12,70,0,1
49937,-90.9090909090909,4,2,14,70,0,1
50098,-90.9090909090909,4,2,15,70,0,1
50259,-90.9090909090909,4,2,17,70,0,1
50582,-90.9090909090909,4,2,19,70,0,1
50743,-90.9090909090909,4,2,17,70,0,1
51066,-90.9090909090909,4,2,15,70,0,1
52194,-90.9090909090909,4,2,17,70,0,1
52839,-100,4,2,37,65,0,0
53081,-100,4,2,37,65,0,0
53162,-100,4,2,35,65,0,0
53323,-100,4,2,30,65,0,0
53485,-100,4,2,35,65,0,0
53807,-100,4,2,1,65,0,0
53968,-100,4,2,25,65,0,0
54291,-100,4,2,37,65,0,0
54452,-100,4,2,35,65,0,0
54614,-100,4,2,30,65,0,0
55097,-100,4,2,35,65,0,0
55259,-100,4,2,25,65,0,0
55743,-100,4,2,35,65,0,0
55904,-100,4,2,30,65,0,0
56065,-100,4,2,37,65,0,0
56226,-100,4,2,35,65,0,0
56388,-100,4,2,30,65,0,0
56549,-100,4,2,25,65,0,0
56872,-100,4,2,35,65,0,0
57033,-100,4,2,37,65,0,0
57194,-100,4,2,49,65,0,0
57356,-100,4,2,47,65,0,0
57517,-100,4,2,46,65,0,0
57839,-100,4,2,47,65,0,0
58162,-100,4,2,32,65,0,0
58323,-100,4,2,35,65,0,0
58485,-100,4,2,51,65,0,0
58646,-100,4,2,51,65,0,0
58807,-100,4,2,32,65,0,0
58968,-100,4,2,35,65,0,0
59130,-100,4,2,51,65,0,0
59452,-100,4,2,28,65,0,0
59614,-100,4,2,32,65,0,0
59775,-100,4,2,25,65,0,0
60097,-100,4,2,42,65,0,0
60259,-100,4,2,44,65,0,0
60420,-100,4,2,42,65,0,0
60743,-100,4,2,28,65,0,0
60905,-100,4,2,32,65,0,0
61066,-100,4,2,25,65,0,0
61388,-100,4,2,35,65,0,0
61549,-100,4,2,37,65,0,0
61710,-100,4,2,35,65,0,0
62033,-100,4,2,30,65,0,0
62194,-100,4,2,35,65,0,0
62356,-100,4,2,26,65,0,0
62517,-100,4,2,52,65,0,0
62678,-100,4,2,39,65,0,0
62759,-100,4,2,1,65,0,0
62839,-100,4,2,37,65,0,0
63001,-100,4,2,35,65,0,0
63081,-100,4,2,1,65,0,0
63162,-100,4,2,35,65,0,0
63323,-100,4,2,30,65,0,0
63485,-100,4,2,35,65,0,0
63646,-100,4,2,42,65,0,0
63807,-100,4,2,40,65,0,0
63968,-100,4,2,39,65,0,0
64130,-100,4,2,37,65,0,0
64291,-100,4,2,35,65,0,0
64614,-100,4,2,30,65,0,0
64776,-100,4,2,35,65,0,0
64937,-100,4,2,42,65,0,0
65098,-100,4,2,40,65,0,0
65259,-100,4,2,39,65,0,0
65421,-100,4,2,37,65,0,0
65582,-100,4,2,35,65,0,0
65904,-100,4,2,30,65,0,0
66066,-100,4,2,35,65,0,0
66227,-100,4,2,42,65,0,0
66388,-100,4,2,40,65,0,0
66549,-100,4,2,39,65,0,0
66711,-100,4,2,37,65,0,0
66872,-100,4,2,35,65,0,0
67194,-100,4,2,30,65,0,0
67356,-100,4,2,35,65,0,0
67517,-100,4,2,42,65,0,0
67678,-100,4,2,40,65,0,0
67839,-100,4,2,39,65,0,0
68001,-100,4,2,37,65,0,0
68162,-100,4,2,35,65,0,0
68485,-100,4,2,30,65,0,0
68647,-100,4,2,35,65,0,0
68808,-100,4,2,42,65,0,0
68969,-100,4,2,40,65,0,0
69130,-100,4,2,39,65,0,0
69292,-100,4,2,37,65,0,0
69453,-100,4,2,35,65,0,0
69775,-100,4,2,30,65,0,0
69937,-100,4,2,35,65,0,0
70098,-100,4,2,42,65,0,0
70259,-100,4,2,40,65,0,0
70420,-100,4,2,39,65,0,0
70582,-100,4,2,37,65,0,0
70743,-100,4,2,35,65,0,0
71065,-100,4,2,30,65,0,0
71227,-100,4,2,35,65,0,0
71388,-100,4,2,42,65,0,0
71549,-100,4,2,40,65,0,0
71710,-100,4,2,39,65,0,0
71872,-100,4,2,37,65,0,0
72033,-100,4,2,35,65,0,0
72356,-100,4,2,30,65,0,0
72518,-100,4,2,35,65,0,0
72679,-100,4,2,42,65,0,0
72840,-100,4,2,40,65,0,0
73001,-100,4,2,39,65,0,0
73163,-100,4,2,37,65,0,0
73324,-100,4,2,35,65,0,0
73485,-117.647058823529,4,2,1,65,0,0
73646,-117.647058823529,4,2,1,60,0,0
83807,-117.647058823529,4,2,1,65,0,0
94130,-100,4,2,1,70,0,0
103323,-100,4,2,1,70,0,0
104452,-133.333333333333,4,2,1,55,0,0
111468,-133.333333333333,4,2,1,55,0,0
111549,-133.333333333333,4,2,1,55,0,0
112194,-133.333333333333,4,2,1,55,0,0
113807,-111.111111111111,4,2,10,55,0,0
114130,-100,4,2,22,55,0,0
114452,-95.2380952380952,4,2,22,55,0,0
114453,-95.2380952380952,4,2,19,55,0,0
114614,-95.2380952380952,4,2,1,55,0,0
114775,-90.9090909090909,4,2,17,70,0,1
115259,-90.9090909090909,4,2,15,70,0,1
115743,-90.9090909090909,4,2,22,70,0,1
115904,-90.9090909090909,4,2,24,70,0,1
116227,-90.9090909090909,4,2,15,70,0,1
116388,-90.9090909090909,4,2,14,70,0,1
116549,-90.9090909090909,4,2,15,70,0,1
116872,-90.9090909090909,4,2,12,70,0,1
117033,-90.9090909090909,4,2,14,70,0,1
117195,-90.9090909090909,4,2,15,70,0,1
117356,-90.9090909090909,4,2,17,70,0,1
117517,-90.9090909090909,4,2,14,70,0,1
117679,-90.9090909090909,4,2,15,70,0,1
117840,-90.9090909090909,4,2,17,70,0,1
118001,-90.9090909090909,4,2,10,70,0,1
118162,-90.9090909090909,4,2,22,70,0,1
118324,-90.9090909090909,4,2,17,70,0,1
118485,-90.9090909090909,4,2,19,70,0,1
119291,-90.9090909090909,4,2,17,70,0,1
119453,-90.9090909090909,4,2,22,70,0,1
119614,-90.9090909090909,4,2,15,70,0,1
119775,-90.9090909090909,4,2,14,70,0,1
119856,-90.9090909090909,4,2,15,70,0,1
119937,-90.9090909090909,4,2,17,70,0,1
120420,-90.9090909090909,4,2,15,70,0,1
120904,-90.9090909090909,4,2,22,70,0,1
121066,-90.9090909090909,4,2,24,70,0,1
121388,-90.9090909090909,4,2,15,70,0,1
121549,-90.9090909090909,4,2,14,70,0,1
121711,-90.9090909090909,4,2,15,70,0,1
122033,-90.9090909090909,4,2,12,70,0,1
122195,-90.9090909090909,4,2,14,70,0,1
122356,-90.9090909090909,4,2,15,70,0,1
122517,-90.9090909090909,4,2,17,70,0,1
122840,-90.9090909090909,4,2,19,70,0,1
123001,-90.9090909090909,4,2,17,70,0,1
123324,-90.9090909090909,4,2,15,70,0,1
124130,-90.9090909090909,4,2,10,60,0,1
124453,-90.9090909090909,4,2,22,60,0,1
124614,-90.9090909090909,4,2,1,60,0,1
124776,-90.9090909090909,4,2,19,60,0,1
124937,-90.9090909090909,4,2,1,60,0,1
125097,-200,4,2,1,55,0,0
125098,-200,4,2,17,80,0,0
125339,-200,4,2,17,70,0,0
125420,-90.9090909090909,4,2,17,70,0,1
125582,-90.9090909090909,4,2,15,70,0,1
126066,-90.9090909090909,4,2,22,70,0,1
126227,-90.9090909090909,4,2,24,70,0,1
126550,-90.9090909090909,4,2,15,70,0,1
126711,-90.9090909090909,4,2,14,70,0,1
126872,-90.9090909090909,4,2,15,70,0,1
127195,-90.9090909090909,4,2,12,70,0,1
127356,-90.9090909090909,4,2,14,70,0,1
127518,-90.9090909090909,4,2,15,70,0,1
127679,-90.9090909090909,4,2,17,70,0,1
127840,-90.9090909090909,4,2,14,70,0,1
128002,-90.9090909090909,4,2,15,70,0,1
128163,-90.9090909090909,4,2,17,70,0,1
128324,-90.9090909090909,4,2,10,70,0,1
128485,-90.9090909090909,4,2,22,70,0,1
128647,-90.9090909090909,4,2,17,70,0,1
128808,-90.9090909090909,4,2,19,70,0,1
129614,-90.9090909090909,4,2,17,70,0,1
129776,-90.9090909090909,4,2,22,70,0,1
129856,-90.9090909090909,4,2,1,70,0,1
129937,-90.9090909090909,4,2,15,70,0,1
130098,-90.9090909090909,4,2,14,70,0,1
130260,-90.9090909090909,4,2,17,70,0,1
130743,-90.9090909090909,4,2,15,70,0,1
131227,-90.9090909090909,4,2,22,70,0,1
131389,-90.9090909090909,4,2,24,70,0,1
131711,-90.9090909090909,4,2,15,70,0,1
131872,-90.9090909090909,4,2,14,70,0,1
132034,-90.9090909090909,4,2,15,70,0,1
132356,-90.9090909090909,4,2,12,70,0,1
132518,-90.9090909090909,4,2,14,70,0,1
132679,-90.9090909090909,4,2,15,70,0,1
132840,-90.9090909090909,4,2,17,70,0,1
133163,-90.9090909090909,4,2,19,70,0,1
133324,-90.9090909090909,4,2,17,70,0,1
133647,-90.9090909090909,4,2,15,70,0,1
134775,-90.9090909090909,4,2,1,70,0,1
135420,-100,4,2,37,65,0,0
135743,-100,4,2,35,65,0,0
135904,-100,4,2,30,65,0,0
136066,-100,4,2,35,65,0,0
136388,-100,4,2,1,65,0,0
136549,-100,4,2,25,65,0,0
136872,-100,4,2,37,65,0,0
137033,-100,4,2,35,65,0,0
137195,-100,4,2,30,65,0,0
137678,-100,4,2,35,65,0,0
137840,-100,4,2,25,65,0,0
138324,-100,4,2,35,65,0,0
138485,-100,4,2,30,65,0,0
138646,-100,4,2,37,65,0,0
138807,-100,4,2,35,65,0,0
138969,-100,4,2,30,65,0,0
139130,-100,4,2,25,65,0,0
139453,-100,4,2,35,65,0,0
139614,-100,4,2,37,65,0,0
139775,-100,4,2,49,65,0,0
139937,-100,4,2,47,65,0,0
140098,-100,4,2,46,65,0,0
140420,-100,4,2,47,65,0,0
140581,-100,4,2,47,65,0,0
140743,-100,4,2,32,65,0,0
140904,-100,4,2,35,65,0,0
141066,-100,4,2,51,65,0,0
141226,-100,4,2,1,65,0,0
141388,-100,4,2,32,65,0,0
141549,-100,4,2,35,65,0,0
141711,-100,4,2,51,65,0,0
141872,-100,4,2,1,65,0,0
142033,-100,4,2,28,65,0,0
142195,-100,4,2,32,65,0,0
142356,-100,4,2,25,65,0,0
142678,-100,4,2,42,65,0,0
142840,-100,4,2,44,65,0,0
143001,-100,4,2,42,65,0,0
143324,-100,4,2,28,65,0,0
143486,-100,4,2,32,65,0,0
143647,-100,4,2,25,65,0,0
143969,-100,4,2,35,65,0,0
144130,-100,4,2,37,65,0,0
144291,-100,4,2,35,65,0,0
144614,-100,4,2,30,65,0,0
144775,-100,4,2,35,65,0,0
144937,-100,4,2,26,65,0,0
145098,-100,4,2,52,65,0,0
145259,-100,4,2,39,65,0,0
145421,-100,4,2,37,65,0,0
145582,-100,4,2,35,65,0,0
145743,-100,4,2,66,65,0,0
145904,-100,4,2,31,67,0,0
146065,-100,4,2,36,67,0,0
146226,-100,4,2,43,67,0,0
146388,-100,4,2,41,67,0,0
146549,-100,4,2,40,67,0,0
146710,-100,4,2,38,67,0,0
146872,-100,4,2,36,67,0,0
147194,-100,4,2,31,67,0,0
147355,-100,4,2,36,67,0,0
147516,-100,4,2,43,67,0,0
147678,-100,4,2,41,67,0,0
147839,-100,4,2,40,67,0,0
148000,-100,4,2,38,67,0,0
148162,-100,4,2,36,67,0,0
148485,-100,4,2,31,67,0,0
148646,-100,4,2,36,67,0,0
148807,-100,4,2,43,67,0,0
148969,-100,4,2,41,67,0,0
149130,-100,4,2,40,67,0,0
149291,-100,4,2,38,67,0,0
149453,-100,4,2,36,67,0,0
149775,-100,4,2,31,67,0,0
149936,-100,4,2,36,67,0,0
150097,-100,4,2,43,67,0,0
150259,-100,4,2,41,67,0,0
150420,-100,4,2,40,67,0,0
150581,-100,4,2,38,67,0,0
150743,-100,4,2,36,67,0,0
151065,-100,4,2,31,67,0,0
151226,-100,4,2,36,67,0,0
151387,-100,4,2,43,67,0,0
151549,-100,4,2,41,67,0,0
151710,-100,4,2,40,67,0,0
151871,-100,4,2,38,67,0,0
152033,-100,4,2,36,67,0,0
152356,-100,4,2,31,67,0,0
152517,-100,4,2,36,67,0,0
152678,-100,4,2,43,67,0,0
152840,-100,4,2,41,67,0,0
153001,-100,4,2,40,67,0,0
153162,-100,4,2,38,67,0,0
153324,-100,4,2,36,67,0,0
153646,-100,4,2,31,67,0,0
153807,-100,4,2,36,67,0,0
153968,-100,4,2,43,67,0,0
154130,-100,4,2,41,67,0,0
154291,-100,4,2,40,67,0,0
154452,-100,4,2,38,67,0,0
154614,-100,4,2,36,67,0,0
154936,-100,4,2,60,67,0,0
155097,-100,4,2,61,67,0,0
155258,-100,4,2,62,67,0,0
155420,-100,4,2,63,67,0,0
155581,-100,4,2,64,67,0,0
155742,-100,4,2,65,67,0,0
155904,-100,4,2,66,67,0,0
156065,-133.333333333333,4,2,90,60,0,0
156226,-133.333333333333,4,2,28,60,0,0
156388,-133.333333333333,4,2,33,60,0,0
156549,-133.333333333333,4,2,35,60,0,0
156710,-133.333333333333,4,2,36,60,0,0
156872,-133.333333333333,4,2,43,60,0,0
157033,-133.333333333333,4,2,48,60,0,0
157194,-133.333333333333,4,2,50,60,0,0
157356,-133.333333333333,4,2,91,60,0,0
157517,-133.333333333333,4,2,56,60,0,0
157678,-133.333333333333,4,2,29,60,0,0
157839,-133.333333333333,4,2,33,60,0,0
158001,-133.333333333333,4,2,36,60,0,0
158162,-133.333333333333,4,2,43,60,0,0
158323,-133.333333333333,4,2,48,60,0,0
158485,-133.333333333333,4,2,50,60,0,0
158646,-133.333333333333,4,2,92,60,0,0
158807,-133.333333333333,4,2,57,60,0,0
158968,-133.333333333333,4,2,31,60,0,0
159130,-133.333333333333,4,2,35,60,0,0
159291,-133.333333333333,4,2,36,60,0,0
159452,-133.333333333333,4,2,43,60,0,0
159614,-133.333333333333,4,2,48,60,0,0
159775,-133.333333333333,4,2,50,60,0,0
159936,-133.333333333333,4,2,93,60,0,0
160097,-133.333333333333,4,2,31,60,0,0
160259,-133.333333333333,4,2,36,60,0,0
160420,-133.333333333333,4,2,40,60,0,0
160581,-133.333333333333,4,2,36,60,0,0
160743,-133.333333333333,4,2,43,60,0,0
160904,-133.333333333333,4,2,48,60,0,0
161065,-133.333333333333,4,2,50,60,0,0
161226,-133.333333333333,4,2,94,60,0,0
161388,-133.333333333333,4,2,28,60,0,0
161550,-133.333333333333,4,2,33,60,0,0
161711,-133.333333333333,4,2,35,60,0,0
161872,-133.333333333333,4,2,36,60,0,0
162034,-133.333333333333,4,2,43,60,0,0
162195,-133.333333333333,4,2,48,60,0,0
162356,-133.333333333333,4,2,55,60,0,0
162517,-133.333333333333,4,2,91,60,0,0
162678,-133.333333333333,4,2,56,60,0,0
162839,-133.333333333333,4,2,28,60,0,0
163000,-133.333333333333,4,2,33,60,0,0
163162,-133.333333333333,4,2,36,60,0,0
163323,-133.333333333333,4,2,43,60,0,0
163484,-133.333333333333,4,2,48,60,0,0
163646,-133.333333333333,4,2,50,60,0,0
163807,-133.333333333333,4,2,92,60,0,0
163968,-133.333333333333,4,2,57,60,0,0
164129,-133.333333333333,4,2,31,60,0,0
164291,-133.333333333333,4,2,35,60,0,0
164452,-133.333333333333,4,2,36,60,0,0
164613,-133.333333333333,4,2,43,60,0,0
164775,-133.333333333333,4,2,48,60,0,0
164936,-133.333333333333,4,2,50,60,0,0
165097,-133.333333333333,4,2,93,60,0,0
165259,-133.333333333333,4,2,31,60,0,0
165420,-133.333333333333,4,2,36,60,0,0
165581,-133.333333333333,4,2,40,60,0,0
165743,-133.333333333333,4,2,50,60,0,0
165985,-133.333333333333,4,2,50,60,0,0
166388,-133.333333333333,4,2,50,60,0,0
167839,-133.333333333333,4,2,1,5,0,0

[Colours]
Combo1 : 185,230,244
Combo2 : 27,214,228
Combo3 : 128,255,255
Combo4 : 255,179,217

[HitObjects]
121,293,1227,6,0,P|181:277|240:279,1,119.000002269745,2|2,2:2|2:2,0:0:0:0:
335,304,1710,1,2,2:2:0:0:
335,304,1872,2,0,P|366:281|358:192,1,119.000002269745,2|2,2:2|2:2,0:0:0:0:
299,138,2356,2,0,B|246:105|170:134|206:174|138:211|77:180,1,238.00000453949,2|2,2:2|2:2,0:0:0:0:
5,106,3323,6,0,P|33:88|65:54,1,59.5000011348725,2|2,2:2|2:2,0:0:0:0:
122,11,3646,2,0,L|266:20,1,119.000002269745,2|0,2:2|0:0,0:0:0:0:
329,70,4130,1,2,2:2:0:0:
329,70,4291,1,2,2:2:0:0:
420,49,4452,2,0,B|446:76|446:76|431:118|427:175,1,119.000002269745,2|2,2:2|2:2,0:0:0:0:
458,247,4936,2,0,B|320:278|375:155|238:183,1,238.00000453949,2|2,2:2|2:2,0:0:0:0:
160,383,6065,6,0,P|160:351|154:314,1,59.5000011348725,2|2,2:2|2:2,0:0:0:0:
140,237,6388,1,2,2:2:0:0:
140,237,6549,1,2,2:2:0:0:
180,151,6710,2,0,L|250:158,1,59.5000011348725,2|2,2:2|2:2,0:0:0:0:
303,216,7033,2,0,P|332:169|307:102,1,119.000002269745,2|2,2:2|2:2,0:0:0:0:
344,33,7517,2,0,B|249:7|280:75|180:52|180:52|227:52|248:6,1,238.00000453949,2|2,2:2|2:2,0:0:0:0:
201,177,8646,6,0,L|200:253,1,59.5000011348725,2|2,2:2|2:2,0:0:0:0:
227,329,8968,1,2,2:2:0:0:
227,329,9130,1,2,2:2:0:0:
304,384,9291,2,0,P|310:354|321:327,1,59.5000011348725,2|2,2:2|2:2,0:0:0:0:
310,234,9614,2,0,P|365:219|434:206,1,119.000002269745,2|2,2:2|2:2,0:0:0:0:
499,138,10097,2,0,B|485:84|425:76|425:76|430:46|482:20,1,178.500003404617,2|2,2:2|2:2,0:0:0:0:
475,23,10743,1,2,2:2:0:0:
415,159,11065,6,0,P|379:155|333:163,1,59.5000011348725,2|2,2:2|2:2,0:0:0:0:
287,89,11388,1,2,2:2:0:0:
227,168,11549,1,0,1:1:0:0:
227,168,11710,2,0,L|221:245,1,70,2|2,2:2|2:2,0:0:0:0:
180,318,12033,1,2,1:2:0:0:
290,279,12194,2,0,P|327:283|378:274,1,70,8|0,0:1|0:0,0:0:0:0:
448,358,12517,2,0,P|411:350|378:357,1,70,2|2,2:2|2:2,0:0:0:0:
472,243,12839,5,0,1:1:0:0:
388,157,13001,1,2,2:2:0:0:
359,279,13162,1,2,2:2:0:0:
475,212,13323,1,2,1:2:0:0:
390,131,13485,2,0,P|315:120|247:112,1,140,8|2,0:1|2:2,0:0:0:0:
169,169,13968,1,2,2:2:0:0:
143,80,14130,5,0,1:1:0:0:
143,80,14291,2,0,P|144:35|156:4,1,70,2|2,2:2|2:2,0:0:0:0:
43,55,14614,1,2,1:2:0:0:
43,55,14775,2,0,P|54:121|59:202,1,140,8|2,0:1|2:2,0:0:0:0:
144,253,15259,1,2,2:2:0:0:
30,348,15420,5,0,1:1:0:0:
30,348,15581,2,0,P|69:349|116:343,1,70,2|2,1:2|2:2,0:0:0:0:
144,253,15904,1,2,1:2:0:0:
211,360,16065,1,8,0:1:0:0:
261,274,16226,2,0,P|298:275|329:286,2,70,2|2|0,2:2|2:2|0:0,0:0:0:0:
427,328,16710,6,0,P|428:287|445:243,1,70,2|2,1:2|2:2,0:0:0:0:
480,173,17033,1,2,2:2:0:0:
480,173,17194,1,2,1:2:0:0:
472,74,17356,2,0,P|398:62|322:49,1,140,8|2,0:1|2:2,0:0:0:0:
241,102,17839,1,2,2:2:0:0:
241,102,18001,6,0,B|249:138|249:138|242:181,2,70,0|2|2,1:1|2:2|2:2,0:0:0:0:
169,34,18485,1,2,1:2:0:0:
171,147,18646,2,0,B|85:136|113:188|38:177,1,140,8|2,0:1|2:2,0:0:0:0:
151,220,19130,1,2,2:2:0:0:
53,335,19291,5,2,1:2:0:0:
145,302,19452,1,2,2:2:0:0:
74,258,19614,1,2,2:2:0:0:
118,381,19775,1,2,1:2:0:0:
224,366,19936,2,0,L|243:291,1,70,8|0,0:1|0:0,0:0:0:0:
318,261,20259,2,0,L|335:328,1,70,2|0,2:2|0:0,0:0:0:0:
430,367,20581,6,0,P|471:323|427:250,1,140,0|2,1:1|2:2,0:0:0:0:
380,199,21065,1,2,1:2:0:0:
452,160,21226,1,8,0:1:0:0:
412,38,21549,6,0,P|375:29|327:26,1,70,2|0,2:2|0:0,0:0:0:0:
263,52,21872,1,4,2:2:0:0:
138,130,22517,2,0,L|141:182,1,52.5000020027161,2|0,2:2|0:0,0:0:0:0:
64,102,22839,2,0,L|68:50,2,52.5000020027161,2|2|2,2:2|2:2|2:2,0:0:0:0:
0,304,23485,5,2,2:2:0:0:
99,353,23807,1,2,2:2:0:0:
86,255,24130,1,2,2:2:0:0:
218,285,24452,6,0,P|223:256|229:218,1,52.5000020027161,2|0,2:2|0:0,0:0:0:0:
291,319,24775,2,0,P|286:344|282:370,1,52.5000020027161,2|2,2:2|2:2,0:0:0:0:
365,283,25097,2,0,P|382:240|454:217,1,105.000004005432,2|2,2:2|2:2,0:0:0:0:
512,129,25581,2,0,B|469:95|451:51|451:51|417:93|362:117,1,210.000008010865,2|2,2:2|2:2,0:0:0:0:
363,116,26549,2,0,L|360:180,2,52.5000020027161,2|2|2,2:2|2:2|2:2,0:0:0:0:
288,44,27033,6,0,B|196:26|229:99|132:78,1,157.500006008148,2|2,2:2|2:2,0:0:0:0:
155,0,27678,1,2,2:2:0:0:
47,28,28001,1,2,2:2:0:0:
47,28,28162,2,0,B|65:67|65:67|33:141,1,105.000004005432,2|0,2:2|0:0,0:0:0:0:
9,194,28646,2,0,P|2:239|33:283,1,78.7500030040742,2|0,2:2|0:0,0:0:0:0:
58,278,28968,2,0,P|90:270|129:266,1,52.5000020027161,2|0,2:2|0:0,0:0:0:0:
193,173,29291,2,0,P|182:205|182:242,1,52.5000020027161,2|2,2:2|2:2,0:0:0:0:
167,342,29614,6,0,L|287:338,1,105.000004005432,2|2,2:2|2:2,0:0:0:0:
366,324,30097,2,0,P|350:274|370:209,1,105.000004005432,2|2,2:2|2:2,0:0:0:0:
415,150,30581,1,2,2:2:0:0:
415,150,30743,2,0,P|431:100|411:35,1,105.000004005432,2|0,2:2|0:0,0:0:0:0:
282,15,31226,6,0,L|246:87,1,62.9999980773926,2|0,2:2|0:0,0:0:0:0:
118,121,31549,2,0,L|192:157,1,70,2|0,2:2|0:0,0:0:0:0:
239,238,31872,2,0,L|277:161,1,73.4999977569581,2|2,2:2|2:2,0:0:0:0:
253,71,32194,6,0,B|184:77|184:77|123:16,1,154.000004699707,6|8,1:2|2:2,0:0:0:0:
49,218,32678,2,0,L|27:116,1,77.0000023498536,2|0,2:2|1:1,0:0:0:0:
239,238,33001,1,2,2:2:0:0:
100,298,33162,1,10,2:2:0:0:
180,151,33323,6,0,P|217:95|316:100,1,154.000004699707,2|2,2:2|2:2,0:0:0:0:
391,191,33807,1,10,2:2:0:0:
415,34,33968,2,0,P|376:29|326:14,1,77.0000023498536,2|0,2:2|1:1,0:0:0:0:
262,165,34291,1,2,2:2:0:0:
144,47,34452,1,10,2:2:0:0:
119,214,34614,1,2,2:2:0:0:
221,86,34775,6,0,L|307:89,1,77.0000023498536,2|2,1:2|2:2,0:0:0:0:
475,176,35097,2,0,L|386:183,1,77.0000023498536,10|2,2:2|2:2,0:0:0:0:
332,349,35420,1,2,1:2:0:0:
497,322,35581,1,2,2:2:0:0:
398,182,35743,1,10,2:2:0:0:
425,363,35904,6,0,P|403:288|306:270,1,154.000004699707,2|0,2:2|0:0,0:0:0:0:
185,372,36388,2,0,B|202:336|202:336|198:286,1,77.0000023498536,10|0,2:2|0:0,0:0:0:0:
22,228,36710,2,0,B|58:245|58:245|108:241,1,77.0000023498536,2|2,1:2|2:2,0:0:0:0:
221,177,37033,1,10,2:2:0:0:
67,121,37194,5,2,2:2:0:0:
67,121,37275,1,2,2:2:0:0:
67,121,37356,2,0,B|154:127|118:63|203:65,1,154.000004699707,2|10,1:2|2:2,0:0:0:0:
347,0,37839,2,0,P|339:40|341:79,1,77.0000023498536,2|0,2:2|1:1,0:0:0:0:
355,249,38162,1,2,2:2:0:0:
448,103,38323,1,10,2:2:0:0:
508,249,38485,6,0,P|432:247|330:250,1,154.000004699707,2|2,2:2|2:2,0:0:0:0:
233,355,38968,1,10,2:2:0:0:
258,209,39130,2,0,P|264:164|171:89,1,154.000004699707,2|2,2:2|2:2,0:0:0:0:
86,199,39614,2,0,L|182:177,1,77.0000023498536,10|2,2:2|2:2,0:0:0:0:
16,50,39936,6,0,B|71:63|71:63|142:33,1,115.50000352478,2|0,1:2|0:0,0:0:0:0:
155,10,40259,1,10,2:2:0:0:
301,64,40420,2,0,P|353:69|392:55,1,77.0000023498536,2|0,2:2|1:1,0:0:0:0:
512,193,40743,2,0,P|460:188|421:202,1,77.0000023498536,2|8,2:2|2:2,0:0:0:0:
326,356,41065,2,0,P|312:294|211:254,1,154.000004699707,2|0,2:2|0:0,0:0:0:0:
103,373,41549,6,0,P|97:331|111:288,1,77.0000023498536,10|0,2:2|0:0,0:0:0:0:
152,112,41872,2,0,P|160:149|154:186,1,77.0000023498536,2|10,1:2|2:2,0:0:0:0:
119,211,42114,1,8,2:2:0:0:
119,211,42194,1,10,2:2:0:0:
43,65,42356,5,8,2:2:0:0:
43,65,42436,1,8,2:2:0:0:
43,65,42517,2,0,B|69:47|81:21|81:21|199:52,1,154.000004699707,6|8,1:2|2:2,0:0:0:0:
282,195,43001,2,0,L|303:99,1,77.0000023498536,2|0,2:2|1:1,0:0:0:0:
454,15,43323,1,2,2:2:0:0:
387,145,43485,1,10,2:2:0:0:
475,5,43646,6,0,B|449:94|518:56|478:167,1,154.000004699707,2|2,2:2|2:2,0:0:0:0:
512,323,44130,1,10,2:2:0:0:
350,253,44291,2,0,P|390:246|437:254,1,77.0000023498536,2|0,2:2|1:1,0:0:0:0:
194,358,44614,1,2,2:2:0:0:
239,193,44775,1,10,2:2:0:0:
342,349,44936,1,2,2:2:0:0:
70,244,45097,6,0,L|165:251,1,77.0000023498536,2|2,1:2|2:2,0:0:0:0:
186,52,45420,2,0,L|91:59,1,77.0000023498536,10|2,2:2|2:2,0:0:0:0:
239,193,45743,1,2,1:2:0:0:
346,78,45904,1,2,2:2:0:0:
186,52,46065,1,10,2:2:0:0:
355,177,46226,6,0,P|403:179|448:74,1,154.000004699707,2|0,2:2|0:0,0:0:0:0:
269,69,46710,2,0,L|346:78,1,77.0000023498536,10|0,2:2|0:0,0:0:0:0:
193,164,47033,2,0,L|116:155,1,77.0000023498536,2|2,1:2|2:2,0:0:0:0:
113,16,47356,1,10,2:2:0:0:
0,90,47517,5,2,2:2:0:0:
0,90,47597,1,0,0:0:0:0:
0,90,47678,2,0,L|13:258,1,154.000004699707,2|10,1:2|2:2,0:0:0:0:
30,384,48162,2,0,P|87:378|133:291,1,154.000004699707,2|2,2:2|2:2,0:0:0:0:
249,384,48646,1,10,2:2:0:0:
242,236,48807,6,0,B|342:206|342:206|353:226|376:256,1,154.000004699707,2|2,2:2|2:2,0:0:0:0:
421,373,49291,1,10,2:2:0:0:
495,269,49452,2,0,P|427:221|365:254,1,154.000004699707,2|2,2:2|2:2,0:0:0:0:
503,164,49936,1,10,2:2:0:0:
365,134,50097,1,2,2:2:0:0:
471,24,50259,6,0,B|378:10|414:73|302:49,1,154.000004699707,2|10,1:2|2:2,0:0:0:0:
192,198,50743,2,0,P|193:154|184:115,1,77.0000023498536,2|0,2:2|1:1,0:0:0:0:
63,21,51065,2,0,P|55:58|57:97,1,77.0000023498536,2|10,2:2|2:2,0:0:0:0:
87,262,51388,6,0,L|259:278,1,154.000004699707,2|0,2:2|0:0,0:0:0:0:
410,264,51872,2,0,P|408:306|423:352,1,77.0000023498536,8|2,2:2|2:2,0:0:0:0:
344,145,52194,1,2,1:2:0:0:
240,276,52356,2,0,L|238:314,2,38.5000011749268,8|8|8,2:2|2:2|2:2,0:0:0:0:
175,129,52678,1,8,2:2:0:0:
175,129,52759,1,8,2:2:0:0:
175,129,52839,1,4,1:2:0:0:
256,192,52920,12,2,55259,2:2:0:0:
496,70,55420,6,0,L|423:62,1,70,0|2,1:1|2:2,0:0:0:0:
343,131,55743,1,10,2:2:0:0:
343,131,55904,1,2,2:2:0:0:
273,51,56065,1,2,1:2:0:0:
273,51,56226,1,2,2:2:0:0:
219,152,56388,2,0,P|212:204|219:252,1,70,10|2,2:2|2:2,0:0:0:0:
283,309,56710,6,0,L|381:311,1,70,0|2,1:1|2:2,0:0:0:0:
184,351,57033,2,0,L|86:353,1,70,10|2,2:2|2:2,0:0:0:0:
30,288,57356,1,2,1:2:0:0:
100,240,57517,1,2,2:2:0:0:
23,203,57678,1,10,2:2:0:0:
93,155,57839,1,2,2:2:0:0:
9,113,58001,6,0,L|0:43,2,70,0|2|10,1:1|0:0|2:2,0:0:0:0:
91,59,58485,2,0,P|116:30|122:-7,1,70,2|0,2:2|1:1,0:0:0:0:
199,130,58807,2,0,L|190:60,1,70,2|10,0:0|2:2,0:0:0:0:
289,109,59130,1,2,2:2:0:0:
272,14,59291,6,0,L|359:25,1,70,0|2,1:1|2:2,0:0:0:0:
389,93,59614,2,0,L|458:84,1,70,10|2,2:2|2:2,0:0:0:0:
497,158,59936,2,0,L|506:228,1,70,0|2,1:1|2:2,0:0:0:0:
431,276,60259,1,10,2:2:0:0:
431,276,60420,1,2,2:2:0:0:
435,364,60581,6,0,B|473:370|473:370|507:363,2,70,0|2|10,1:1|2:2|2:2,0:0:0:0:
350,306,61065,1,2,2:2:0:0:
350,306,61226,2,0,P|308:302|279:306,1,70,0|2,1:2|2:2,0:0:0:0:
202,370,61549,2,0,P|167:373|132:370,1,70,10|2,2:2|2:2,0:0:0:0:
47,333,61872,6,0,L|38:257,1,70,0|2,1:1|2:2,0:0:0:0:
141,190,62194,2,0,L|132:259,1,70,10|2,2:2|2:2,0:0:0:0:
46,170,62517,1,2,1:2:0:0:
118,97,62678,1,10,2:2:0:0:
118,97,62759,1,8,2:2:0:0:
118,97,62839,1,10,2:2:0:0:
34,32,63001,5,10,2:2:0:0:
34,32,63081,1,8,2:2:0:0:
34,32,63162,2,0,P|97:7|182:26,1,140,6|10,1:2|2:2,0:0:0:0:
247,90,63646,1,2,2:2:0:0:
247,90,63807,2,0,P|272:62|283:28,1,70,2|2,1:2|2:2,0:0:0:0:
377,0,64130,2,0,L|384:86,1,70,10|2,2:2|2:2,0:0:0:0:
393,173,64452,6,0,B|356:166|356:166|322:176,2,70,0|2|10,1:1|2:2|2:2,0:0:0:0:
478,210,64936,1,2,2:2:0:0:
478,210,65097,2,0,L|449:282,1,70,2|2,1:2|2:2,0:0:0:0:
416,366,65420,2,0,L|490:375,1,70,10|2,2:2|2:2,0:0:0:0:
334,323,65743,5,0,1:1:0:0:
334,323,65904,1,2,2:2:0:0:
260,373,66065,1,10,2:2:0:0:
260,373,66226,1,2,2:2:0:0:
189,315,66388,2,0,P|151:328|104:325,2,70,2|2|10,1:2|2:2|2:2,0:0:0:0:
290,259,66872,6,0,B|253:224|253:224|273:117,1,140,2|2,2:2|2:2,0:0:0:0:
387,52,67356,2,0,P|385:86|374:120,1,70,10|2,2:2|2:2,0:0:0:0:
304,46,67678,1,2,1:2:0:0:
269,130,67839,1,2,2:2:0:0:
215,58,68001,1,10,2:2:0:0:
180,140,68162,1,2,2:2:0:0:
133,57,68323,6,0,P|101:16|103:-19,1,70,0|2,1:1|0:0,0:0:0:0:
34,95,68646,2,0,P|25:128|0:152,1,70,10|2,2:2|2:2,0:0:0:0:
76,208,68968,1,2,1:2:0:0:
20,283,69130,1,2,0:0:0:0:
115,301,69291,1,10,2:2:0:0:
84,227,69452,1,2,2:2:0:0:
10,319,69614,6,0,P|16:355|41:383,1,70,0|2,1:1|2:2,0:0:0:0:
133,384,69936,1,10,2:2:0:0:
115,301,70097,2,0,L|131:221,1,70,2|2,2:2|1:2,0:0:0:0:
202,155,70420,1,2,2:2:0:0:
202,155,70581,2,0,L|215:223,1,70,10|2,2:2|2:2,0:0:0:0:
303,278,70904,5,0,1:1:0:0:
389,292,71065,1,2,2:2:0:0:
446,225,71226,1,10,2:2:0:0:
360,211,71388,1,2,2:2:0:0:
399,40,71549,2,0,P|394:75|398:110,1,70,2|2,1:2|2:2,0:0:0:0:
490,23,71872,1,10,2:2:0:0:
490,23,72033,6,0,P|505:81|492:169,1,140,2|2,2:2|2:2,0:0:0:0:
482,321,72517,2,0,P|465:290|465:255,1,70,10|2,2:2|2:2,0:0:0:0:
371,312,72839,1,2,1:2:0:0:
305,384,73001,1,2,0:0:0:0:
385,316,73162,1,10,0:0:0:0:
290,379,73323,1,2,0:0:0:0:
312,251,73485,5,4,2:2:0:0:
41,215,83807,6,0,P|104:217|143:165,1,119.000002269745,0|2,1:1|2:2,0:0:0:0:
132,91,84291,1,2,1:2:0:0:
132,91,84452,2,0,B|141:65|139:41|139:41|219:28,1,119.000002269745,8|2,0:1|2:2,0:0:0:0:
309,165,85097,6,0,P|311:194|313:229,2,59.5000011348725,0|2|2,1:1|2:2|2:2,0:0:0:0:
380,103,85581,1,2,1:2:0:0:
461,171,85743,2,0,P|490:129|461:56,1,119.000002269745,8|2,0:1|2:2,0:0:0:0:
493,305,86388,6,0,P|431:298|371:293,1,119.000002269745,0|2,1:1|2:2,0:0:0:0:
303,347,86872,1,2,1:2:0:0:
222,310,87033,2,0,P|226:252|168:218,1,119.000002269745,8|2,0:1|2:2,0:0:0:0:
36,304,87678,6,0,P|40:329|43:370,2,59.5000011348725,0|2|2,1:1|1:2|2:2,0:0:0:0:
75,230,88162,1,2,1:2:0:0:
75,230,88323,2,0,P|70:191|61:147,1,59.5000011348725,8|0,0:1|0:0,0:0:0:0:
13,87,88646,2,0,P|60:80|90:60,1,59.5000011348725,2|2,2:2|2:2,0:0:0:0:
166,26,88968,5,0,1:1:0:0:
166,26,89130,1,2,2:2:0:0:
256,43,89291,2,0,P|299:44|358:13,1,89.2500017023087,2|0,2:2|0:0,0:0:0:0:
376,0,89614,2,0,P|378:43|390:76,1,59.5000011348725,8|2,0:1|2:2,0:0:0:0:
432,132,89936,1,2,2:2:0:0:
432,132,90097,1,2,2:2:0:0:
300,151,90259,6,0,P|321:165|357:174,2,59.5000011348725,0|2|2,1:1|2:2|2:2,0:0:0:0:
214,127,90743,1,2,1:2:0:0:
146,185,90904,2,0,P|140:248|136:314,1,119.000002269745,8|2,0:1|2:2,0:0:0:0:
65,105,91549,5,0,1:1:0:0:
65,105,91710,1,2,2:2:0:0:
11,184,91872,1,2,2:2:0:0:
11,184,92033,1,2,1:2:0:0:
2,272,92194,2,0,P|54:271|88:293,1,89.2500017023087,8|0,0:1|0:0,0:0:0:0:
100,332,92517,1,2,2:2:0:0:
100,332,92678,1,2,2:2:0:0:
192,384,92839,6,0,L|188:312,1,59.5000011348725,0|2,1:1|2:2,0:0:0:0:
103,272,93162,2,0,L|99:331,1,59.5000011348725,2|2,2:2|1:2,0:0:0:0:
12,360,93485,1,8,0:1:0:0:
12,360,93646,2,0,P|48:367|82:381,2,59.5000011348725,2|2|2,2:2|2:2|2:2,0:0:0:0:
2,272,94130,6,0,L|29:199,1,70,0|2,1:1|2:2,0:0:0:0:
120,197,94452,2,0,L|93:124,1,70,2|2,1:2|2:2,0:0:0:0:
12,113,94775,2,0,L|39:40,1,70,2|0,1:2|0:0,0:0:0:0:
122,26,95097,1,2,1:2:0:0:
122,26,95259,1,2,2:2:0:0:
199,72,95420,6,0,B|187:111|187:111|193:159,2,70,0|2|2,1:1|2:2|1:2,0:0:0:0:
253,6,95904,1,2,2:2:0:0:
253,6,96065,2,0,P|296:27|347:16,1,70,0|2,1:1|2:2,0:0:0:0:
413,27,96388,2,0,P|410:61|392:91,1,70,2|2,1:2|2:2,0:0:0:0:
462,148,96710,5,2,1:2:0:0:
462,148,96872,1,2,2:2:0:0:
481,247,97033,1,2,1:2:0:0:
481,247,97194,1,2,2:2:0:0:
448,333,97356,2,0,P|408:288|402:227,1,105,2|0,1:2|0:0,0:0:0:0:
412,206,97678,1,2,1:2:0:0:
412,206,97839,1,2,2:2:0:0:
292,217,98001,6,0,L|285:296,1,70,0|2,1:1|2:2,0:0:0:0:
241,360,98323,2,0,L|171:353,1,70,2|2,1:2|2:2,0:0:0:0:
98,301,98646,1,0,1:1:0:0:
171,259,98807,1,2,2:2:0:0:
96,220,98968,1,2,1:2:0:0:
98,301,99130,1,2,2:2:0:0:
110,199,99291,6,0,P|133:162|140:132,1,70,2|2,1:2|2:2,0:0:0:0:
89,45,99614,2,0,P|66:82|59:112,1,70,2|2,1:2|2:2,0:0:0:0:
172,40,99936,2,0,L|295:39,1,105,2|0,1:2|0:0,0:0:0:0:
330,22,100259,2,0,P|324:69|328:101,1,70,2|2,1:2|2:2,0:0:0:0:
397,148,100581,5,0,1:1:0:0:
493,190,100743,1,2,2:2:0:0:
397,183,100904,1,2,1:2:0:0:
493,225,101066,1,2,2:2:0:0:
420,278,101226,1,0,1:1:0:0:
420,278,101388,2,0,P|425:311|448:347,2,70,2|2|2,2:2|1:2|2:2,0:0:0:0:
329,236,101872,6,0,L|306:318,1,70,2|2,1:2|2:2,0:0:0:0:
209,368,102194,2,0,L|227:300,1,70,2|2,1:2|2:2,0:0:0:0:
251,212,102517,2,0,B|189:196|208:251|129:227,1,105,2|0,1:2|0:0,0:0:0:0:
109,206,102839,1,2,1:2:0:0:
109,206,103001,1,2,2:2:0:0:
179,125,103162,6,0,L|100:89,1,70,0|2,1:1|2:2,0:0:0:0:
24,37,103485,1,2,2:2:0:0:
137,9,103646,1,2,2:2:0:0:
35,143,103807,1,2,2:2:0:0:
295,240,104130,6,0,P|303:208|304:166,1,70,2|0,2:2|0:0,0:0:0:0:
365,98,104452,1,4,2:2:0:0:
365,98,105097,2,0,L|372:45,1,52.5000020027161,2|0,2:2|0:0,0:0:0:0:
471,25,105420,1,2,2:2:0:0:
471,25,105581,2,0,P|477:78|488:144,1,105.000004005432,2|2,2:2|2:2,0:0:0:0:
495,199,106065,5,2,2:2:0:0:
339,231,106388,1,2,2:2:0:0:
441,353,106710,1,2,2:2:0:0:
441,353,107033,6,0,L|383:327,1,52.5000020027161,2|0,2:2|0:0,0:0:0:0:
320,304,107356,2,0,L|272:325,1,52.5000020027161,2|2,2:2|2:2,0:0:0:0:
206,274,107678,2,0,P|212:231|279:191,1,105.000004005432,2|2,2:2|2:2,0:0:0:0:
351,202,108162,2,0,B|320:148|322:107|322:107|377:85|392:14,1,210.000008010865,2|2,2:2|2:2,0:0:0:0:
216,50,109130,6,0,B|226:24|226:24|252:2,2,52.5000020027161,2|2|2,2:2|2:2|2:2,0:0:0:0:
126,79,109614,2,0,L|9:75,1,105.000004005432,2|2,2:2|2:2,0:0:0:0:
50,167,110259,1,2,2:2:0:0:
21,259,110581,1,2,2:2:0:0:
21,259,110743,2,0,B|90:252|56:298|126:291,1,105.000004005432,2|0,2:2|0:0,0:0:0:0:
217,282,111226,2,0,L|242:363,1,78.7500030040742,2|0,2:2|0:0,0:0:0:0:
274,378,111549,2,0,P|294:359|311:332,1,52.5000020027161,2|0,2:2|0:0,0:0:0:0:
415,343,111872,2,0,P|395:362|378:389,1,52.5000020027161,2|2,2:2|2:2,0:0:0:0:
375,257,112194,6,0,B|351:211|351:211|356:158,1,105.000004005432,2|2,2:2|2:2,0:0:0:0:
387,74,112678,2,0,P|334:63|292:95,1,105.000004005432,2|2,2:2|2:2,0:0:0:0:
355,158,113162,1,2,2:2:0:0:
266,189,113323,2,0,P|211:172|151:161,1,105.000004005432,2|0,2:2|0:0,0:0:0:0:
22,207,113807,6,0,P|12:247|18:282,1,62.9999980773926,2|0,2:2|0:0,0:0:0:0:
96,278,114130,2,0,P|100:319|120:352,1,70,2|0,2:2|0:0,0:0:0:0:
193,313,114452,2,0,P|211:350|240:372,1,73.4999977569581,2|2,2:2|2:2,0:0:0:0:
96,278,114775,6,0,B|60:231|60:231|103:132,1,154.000004699707,6|8,1:2|2:2,0:0:0:0:
268,118,115259,2,0,P|229:102|203:69,1,77.0000023498536,2|0,2:2|1:1,0:0:0:0:
362,19,115581,1,2,1:2:0:0:
206,76,115743,1,10,2:2:0:0:
391,15,115904,6,0,L|370:168,1,154.000004699707,2|2,2:2|1:2,0:0:0:0:
447,323,116388,1,10,2:2:0:0:
246,249,116549,2,0,P|283:242|330:246,1,77.0000023498536,2|0,1:2|1:1,0:0:0:0:
485,227,116872,1,2,1:2:0:0:
359,346,117033,1,10,2:2:0:0:
370,167,117194,1,2,2:2:0:0:
276,329,117356,6,0,L|189:318,1,77.0000023498536,2|2,1:2|2:2,0:0:0:0:
29,270,117678,2,0,L|116:259,1,77.0000023498536,10|2,2:2|2:2,0:0:0:0:
243,121,118001,1,2,1:2:0:0:
75,161,118162,1,2,1:2:0:0:
226,247,118323,1,10,2:2:0:0:
155,109,118485,6,0,P|138:34|45:31,1,154.000004699707,2|0,2:2|1:1,0:0:0:0:
241,45,118968,2,0,P|279:38|334:49,1,77.0000023498536,10|0,2:2|1:1,0:0:0:0:
493,146,119291,2,0,P|450:151|400:142,1,77.0000023498536,2|2,1:2|1:2,0:0:0:0:
375,286,119614,1,10,2:2:0:0:
309,152,119775,5,2,2:2:0:0:
309,152,119856,1,2,2:2:0:0:
309,152,119936,2,0,B|301:204|269:245|269:245|241:239|215:243,1,154.000004699707,2|10,1:2|2:2,0:0:0:0:
128,144,120420,2,0,P|174:143|210:150,1,77.0000023498536,2|0,2:2|1:1,0:0:0:0:
65,22,120743,1,2,1:2:0:0:
29,175,120904,1,10,2:2:0:0:
146,38,121065,6,0,B|196:15|236:34|220:52|254:75|313:47,1,154.000004699707,2|2,2:2|1:2,0:0:0:0:
414,15,121549,1,10,2:2:0:0:
484,202,121710,2,0,P|421:179|414:91,1,154.000004699707,2|2,1:2|1:2,0:0:0:0:
357,325,122194,2,0,P|350:288|360:241,1,77.0000023498536,10|2,2:2|2:2,0:0:0:0:
330,112,122517,6,0,B|296:128|267:149|267:149|182:122,1,154.000004699707,2|10,1:2|2:2,0:0:0:0:
90,50,123001,2,0,P|80:91|61:130,1,77.0000023498536,2|0,2:2|1:1,0:0:0:0:
9,247,123323,2,0,P|44:234|82:229,1,77.0000023498536,2|8,1:2|2:2,0:0:0:0:
151,352,123646,2,0,B|174:330|196:323|196:323|170:222,1,154.000004699707,2|0,2:2|1:1,0:0:0:0:
351,173,124130,6,0,P|346:218|339:258,1,77.0000023498536,10|0,2:2|1:1,0:0:0:0:
484,360,124452,2,0,P|476:323|468:275,1,77.0000023498536,2|8,1:2|2:2,0:0:0:0:
451,249,124694,1,8,2:2:0:0:
451,249,124775,1,10,2:2:0:0:
512,137,124936,5,8,2:2:0:0:
512,137,125017,1,8,2:2:0:0:
512,137,125097,2,0,P|487:141|456:149,1,52.5,2|0,2:2|0:0,0:0:0:0:
412,161,125420,1,12,2:2:0:0:
274,37,125581,2,0,P|280:77|284:118,1,77.0000023498536,2|0,2:2|1:1,0:0:0:0:
361,240,125904,1,2,1:2:0:0:
377,85,126065,1,10,2:2:0:0:
261,186,126226,6,0,L|94:171,1,154.000004699707,2|2,2:2|1:2,0:0:0:0:
151,52,126710,1,10,2:2:0:0:
38,116,126872,2,0,P|18:196|92:250,1,154.000004699707,2|2,1:2|1:2,0:0:0:0:
189,310,127356,1,10,2:2:0:0:
19,340,127517,1,2,2:2:0:0:
190,340,127678,6,0,P|225:341|274:344,1,77.0000023498536,2|2,1:2|2:2,0:0:0:0:
418,253,128001,2,0,P|382:254|333:257,1,77.0000023498536,10|2,2:2|2:2,0:0:0:0:
170,220,128323,1,2,1:2:0:0:
341,256,128485,1,2,1:2:0:0:
251,139,128646,1,10,2:2:0:0:
266,343,128807,6,0,B|343:370|343:370|432:335,1,154.000004699707,2|0,2:2|1:1,0:0:0:0:
496,240,129291,2,0,P|454:224|427:188,1,77.0000023498536,10|0,2:2|1:1,0:0:0:0:
493,62,129614,1,2,1:2:0:0:
310,97,129775,1,2,1:2:0:0:
495,144,129936,1,10,2:2:0:0:
350,25,130097,5,2,2:2:0:0:
350,25,130178,1,0,0:0:0:0:
350,25,130259,2,0,B|248:-4|283:66|189:38,1,154.000004699707,2|10,1:2|2:2,0:0:0:0:
108,150,130743,2,0,P|104:190|109:247,1,77.0000023498536,2|0,2:2|1:1,0:0:0:0:
118,384,131065,1,2,1:2:0:0:
210,259,131226,1,10,2:2:0:0:
39,277,131388,6,0,B|19:264|-6:255|-6:255|9:125,1,154.000004699707,2|2,2:2|1:2,0:0:0:0:
88,23,131872,1,10,2:2:0:0:
203,145,132033,2,0,P|164:145|126:137,1,77.0000023498536,2|0,1:2|1:1,0:0:0:0:
243,31,132356,1,2,1:2:0:0:
322,184,132517,2,0,P|332:136|337:99,1,77.0000023498536,10|2,2:2|2:2,0:0:0:0:
467,21,132839,6,0,P|475:80|485:152,1,115.50000352478,2|0,1:2|0:0,0:0:0:0:
498,175,133162,1,10,2:2:0:0:
512,317,133323,2,0,P|470:308|430:319,1,77.0000023498536,2|0,2:2|1:1,0:0:0:0:
249,376,133646,2,0,P|291:385|331:374,1,77.0000023498536,2|8,1:2|2:2,0:0:0:0:
361,272,133968,6,0,B|358:245|368:222|368:222|263:178,1,154.000004699707,2|0,1:2|1:1,0:0:0:0:
105,259,134452,1,8,2:2:0:0:
188,119,134614,1,0,1:2:0:0:
20,177,134775,6,0,P|13:126|27:87,1,77.0000023498536,2|8,1:2|2:2,0:0:0:0:
47,79,135017,1,8,2:2:0:0:
47,79,135097,1,10,2:2:0:0:
172,17,135259,1,10,2:2:0:0:
172,17,135339,1,8,2:2:0:0:
172,17,135420,1,4,1:2:0:0:
256,192,135501,12,2,139130,2:2:0:0:
378,176,139291,6,0,P|370:140|367:100,1,70,0|2,1:1|2:2,0:0:0:0:
264,13,139614,2,0,P|272:49|275:89,1,70,10|2,2:2|2:2,0:0:0:0:
200,145,139936,1,2,1:2:0:0:
175,55,140097,1,2,2:2:0:0:
110,122,140259,1,10,2:2:0:0:
84,33,140420,1,2,2:2:0:0:
21,99,140581,6,0,L|21:194,2,70,0|2|10,1:1|0:0|2:2,0:0:0:0:
84,33,141065,2,0,P|123:39|172:28,1,70,2|0,2:2|1:1,0:0:0:0:
240,9,141388,1,2,0:0:0:0:
292,83,141549,1,10,2:2:0:0:
374,43,141710,1,2,2:2:0:0:
471,40,141872,6,0,P|463:78|470:118,1,70,0|2,1:1|2:2,0:0:0:0:
508,197,142194,2,0,P|516:235|509:275,1,70,10|2,2:2|2:2,0:0:0:0:
465,335,142517,2,0,L|384:324,1,70,0|2,1:1|2:2,0:0:0:0:
314,286,142839,1,10,2:2:0:0:
314,286,143001,1,2,2:2:0:0:
208,362,143162,6,0,B|246:357|246:357|277:377,2,70,0|2|10,1:1|2:2|2:2,0:0:0:0:
124,364,143646,1,2,2:2:0:0:
124,364,143807,2,0,P|86:332|88:311,1,70,0|2,1:2|2:2,0:0:0:0:
168,298,144130,2,0,P|206:266|204:245,1,70,10|2,2:2|2:2,0:0:0:0:
125,226,144452,6,0,L|27:204,1,70,0|2,1:1|2:2,0:0:0:0:
10,106,144775,1,10,2:2:0:0:
114,133,144936,1,2,2:2:0:0:
79,47,145097,1,2,1:2:0:0:
79,47,145259,2,0,L|81:8,2,35,10|8|10,2:2|2:2|2:2,0:0:0:0:
207,55,145581,5,10,2:2:0:0:
207,55,145662,1,8,2:2:0:0:
207,55,145743,2,0,B|216:29|213:4|213:4|307:-1,1,140,6|10,1:2|2:2,0:0:0:0:
342,78,146226,1,2,2:2:0:0:
353,167,146388,1,2,1:2:0:0:
425,113,146549,1,2,2:2:0:0:
437,203,146710,1,10,2:2:0:0:
508,148,146872,6,0,P|522:225|485:300,1,140,2|2,2:2|2:2,0:0:0:0:
401,330,147356,2,0,P|391:296|398:262,1,70,10|2,2:2|2:2,0:0:0:0:
314,283,147678,1,2,1:2:0:0:
231,242,147839,1,2,2:2:0:0:
300,203,148001,1,10,2:2:0:0:
401,330,148162,6,0,B|354:374|354:374|254:358,1,140,2|2,2:2|2:2,0:0:0:0:
231,242,148646,1,10,2:2:0:0:
169,328,148807,1,2,2:2:0:0:
89,254,148968,2,0,P|69:296|74:330,1,70,2|2,1:2|2:2,0:0:0:0:
167,183,149291,1,10,2:2:0:0:
167,183,149452,6,0,B|193:93|130:127|162:33,1,140,2|2,2:2|2:2,0:0:0:0:
300,55,149936,2,0,L|228:72,1,70,10|2,2:2|2:2,0:0:0:0:
420,106,150259,1,2,1:2:0:0:
384,28,150420,1,2,2:2:0:0:
311,133,150581,1,10,2:2:0:0:
367,203,150743,6,0,P|438:193|521:186,1,140,2|2,2:2|0:0,0:0:0:0:
470,361,151226,1,10,2:2:0:0:
371,282,151388,1,2,2:2:0:0:
490,267,151549,2,0,P|480:301|473:335,1,70,2|2,1:2|0:0,0:0:0:0:
376,384,151872,1,10,2:2:0:0:
291,262,152033,6,0,P|239:258|178:342,1,140,2|2,2:2|2:2,0:0:0:0:
79,373,152517,2,0,P|74:339|80:295,1,70,10|2,2:2|2:2,0:0:0:0:
151,182,152839,1,2,1:2:0:0:
30,250,153001,1,2,2:2:0:0:
23,111,153162,5,10,2:2:0:0:
23,111,153323,2,0,B|74:74|74:74|56:-2,1,140,2|2,2:2|2:2,0:0:0:0:
192,9,153807,2,0,P|226:18|272:16,1,70,10|2,2:2|2:2,0:0:0:0:
383,136,154130,1,2,1:2:0:0:
235,117,154291,1,2,2:2:0:0:
352,23,154452,1,10,2:2:0:0:
362,218,154614,6,0,B|441:236|414:183|495:199,1,140,2|2,2:2|2:2,0:0:0:0:
485,350,155097,2,0,P|453:336|411:334,1,70,10|2,2:2|2:2,0:0:0:0:
253,332,155420,1,2,1:2:0:0:
362,218,155581,1,2,0:0:0:0:
259,358,155743,1,10,0:0:0:0:
372,254,155904,1,2,0:0:0:0:
210,235,156065,6,0,P|184:228|158:224,1,52.5000020027161,4|2,2:2|2:2,0:0:0:0:
85,276,156388,2,0,P|92:307|114:333,2,52.5000020027161,2|2|2,2:2|0:0|2:2,0:0:0:0:
61,189,156872,1,2,2:2:0:0:
61,189,157033,1,2,2:2:0:0:
134,138,157195,1,2,2:2:0:0:
134,138,157356,6,0,L|131:70,1,52.5000020027161,2|2,2:2|2:2,0:0:0:0:
215,167,157678,2,0,L|218:219,1,52.5000020027161,2|2,2:2|0:0,0:0:0:0:
284,102,158001,1,2,2:2:0:0:
284,102,158162,1,2,2:2:0:0:
334,175,158323,1,2,2:2:0:0:
334,175,158485,1,2,2:2:0:0:
397,103,158646,6,0,P|426:99|455:96,1,52.5000020027161,2|2,2:2|2:2,0:0:0:0:
511,201,158968,2,0,P|482:197|453:194,1,52.5000020027161,2|2,2:2|0:0,0:0:0:0:
387,261,159291,1,2,2:2:0:0:
387,261,159452,1,2,2:2:0:0:
334,175,159614,1,2,2:2:0:0:
334,175,159775,1,2,2:2:0:0:
280,249,159936,6,0,B|285:275|285:275|280:300,1,52.5000020027161,2|2,2:2|2:2,0:0:0:0:
215,205,160259,1,2,2:2:0:0:
215,205,160420,1,2,0:0:0:0:
142,291,160581,2,0,B|137:265|137:265|143:229,1,52.5000020027161,2|2,2:2|2:2,0:0:0:0:
61,188,160904,1,2,2:2:0:0:
61,188,161065,1,2,2:2:0:0:
102,109,161226,6,0,P|129:112|167:106,1,52.5000020027161,2|2,2:2|2:2,0:0:0:0:
217,48,161549,2,0,P|243:45|269:48,1,52.5000020027161,2|2,2:2|0:0,0:0:0:0:
373,48,161872,1,2,2:2:0:0:
373,48,162033,1,2,2:2:0:0:
324,127,162194,1,2,2:2:0:0:
324,127,162355,1,2,2:2:0:0:
421,129,162517,6,0,P|414:157|410:201,1,52.5000020027161,2|2,2:2|2:2,0:0:0:0:
457,249,162839,2,0,P|464:277|468:321,1,52.5000020027161,2|2,2:2|0:0,0:0:0:0:
409,367,163162,1,2,2:2:0:0:
409,367,163323,1,2,2:2:0:0:
345,301,163485,1,2,2:2:0:0:
345,301,163646,1,2,2:2:0:0:
282,360,163807,6,0,L|221:353,1,52.5000020027161,2|2,2:2|2:2,0:0:0:0:
171,277,164130,2,0,L|224:270,1,52.5000020027161,2|2,2:2|0:0,0:0:0:0:
283,203,164452,1,2,2:2:0:0:
283,203,164614,1,2,2:2:0:0:
223,138,164775,1,2,2:2:0:0:
223,138,164937,1,2,2:2:0:0:
256,61,165097,6,0,B|280:55|311:47,2,52.5000020027161,2|2|2,2:2|2:2|2:2,0:0:0:0:
170,18,165581,1,2,2:2:0:0:
97,84,165743,1,2,2:2:0:0:
256,192,166388,12,0,167880,0:0:0:0:
