osu file format v14

[General]
AudioFilename: audio.mp3
AudioLeadIn: 0
PreviewTime: 31402
Countdown: 0
SampleSet: Soft
StackLeniency: 0.7
Mode: 0
LetterboxInBreaks: 0
WidescreenStoryboard: 1

[Editor]
DistanceSpacing: 1
BeatDivisor: 2
GridSize: 4
TimelineZoom: 1

[Metadata]
Title:Mizuoto to Curtain
TitleUnicode:水音とカーテン
Artist:MIMI
ArtistUnicode:MIMI
Creator:Nozhomi
Version:Normal
Source:osu!
Tags:featured artist mappers guild hatsune miku 初音ミク pop japanese vocaloid
BeatmapID:2513769
BeatmapSetID:1206296

[Difficulty]
HPDrainRate:3
CircleSize:3
OverallDifficulty:4
ApproachRate:5
SliderMultiplier:1
SliderTickRate:1

[Events]
//Background and Video events
0,0,"miku.jpg",0,0
//Break Periods
//Storyboard Layer 0 (Background)
//Storyboard Layer 1 (Fail)
//Storyboard Layer 2 (Pass)
//Storyboard Layer 3 (Foreground)
//Storyboard Layer 4 (Overlay)
//Storyboard Sound Samples

[TimingPoints]
1456,322.58064516129,4,2,1,60,1,0
22101,-125,4,2,1,50,0,0
31778,-125,4,2,1,60,0,0
32101,-100,4,2,1,70,0,0
32423,-100,4,2,1,80,0,1
53068,-100,4,2,1,70,0,0
73714,-125,4,2,1,50,0,0
84036,-100,4,2,1,60,0,0
94359,-100,4,2,1,60,0,0
104681,-125,4,2,1,50,0,0
114036,-100,4,2,1,50,0,0
114359,-100,4,2,1,60,0,0
114681,-100,4,2,1,70,0,0
115004,-100,4,2,1,80,0,1
125326,-100,4,2,1,60,0,0
125649,-100,4,2,1,80,0,1
135649,-100,4,2,1,70,0,0
156294,-100,4,2,1,60,0,0
166778,-100,4,2,1,10,0,0
167101,-100,4,2,1,20,0,0
167423,-100,4,2,1,30,0,0
167746,-100,4,2,1,40,0,0

[Colours]
Combo1 : 252,131,222
Combo2 : 40,200,124
Combo3 : 21,176,189

[HitObjects]
30,249,1456,6,0,P|59:304|199:344,1,200,2|2,0:0|0:0,0:0:0:0:
256,280,2423,1,2,0:0:0:0:
329,347,2746,2,0,P|424:327|481:248,1,200,2|0,0:0|0:0,0:0:0:0:
454,151,3714,1,2,0:0:0:0:
354,157,4036,6,0,B|175:163,2,150,0|0|0,0:0|0:0|0:0,0:0:0:0:
371,58,5326,2,0,L|154:65,1,200,0|0,0:0|0:0,0:0:0:0:
84,115,6294,1,2,0:0:0:0:
39,204,6617,6,0,P|43:277|157:314,1,200,2|2,0:0|0:0,0:0:0:0:
230,257,7585,1,0,0:0:0:0:
307,193,7907,2,0,P|399:213|417:306,1,200,2|0,0:0|0:0,0:0:0:0:
331,356,8875,1,2,0:0:0:0:
234,331,9197,6,0,B|159:313|159:313|57:339,2,150,2|0|0,0:0|0:0|0:0,0:0:0:0:
331,356,10488,2,0,P|315:280|355:167,1,200,2|0,0:0|0:0,0:0:0:0:
429,100,11455,1,2,0:0:0:0:
340,53,11778,6,0,L|181:64,1,150,4|4,0:3|0:3,0:0:0:0:
161,104,12423,1,8,0:0:0:0:
78,47,12746,1,0,0:0:0:0:
41,139,13068,2,0,B|13:238|13:238|51:327,1,200,4|8,0:3|0:0,0:0:0:0:
143,287,14036,1,0,0:0:0:0:
225,343,14359,6,0,P|310:365|376:339,2,150,4|4|0,0:3|0:3|0:0,0:0:0:0:
151,274,15649,2,0,L|157:140,1,100,4|0,0:3|0:0,0:0:0:0:
200,152,16133,2,0,L|206:18,1,100,4|2,0:3|0:0,0:0:0:0:
247,25,16617,1,2,0:0:0:0:
346,14,16939,6,0,L|339:164,1,150,4|4,0:3|0:3,0:0:0:0:
379,193,17585,1,8,0:0:0:0:
454,258,17907,1,0,0:0:0:0:
500,346,18230,6,0,P|432:316|278:333,1,200,4|8,0:3|0:0,0:0:0:0:
212,347,19197,1,2,0:0:0:0:
112,360,19520,2,0,P|65:325|54:239,2,150,4|4|0,0:3|0:3|0:0,0:0:0:0:
211,373,20810,2,0,L|208:234,1,100,4|2,0:3|0:0,0:0:0:0:
247,240,21294,2,0,L|244:101,1,100,4|0,0:3|0:0,0:0:0:0:
277,101,21778,1,0,0:0:0:0:
211,32,22101,5,6,0:0:0:0:
71,102,22746,2,0,P|83:139|113:165,1,80,2|0,0:0|0:0,0:0:0:0:
151,178,23230,2,0,L|290:175,1,120,2|2,0:0|0:0,0:0:0:0:
351,174,24036,1,2,0:0:0:0:
426,202,24359,1,0,0:0:0:0:
453,277,24681,6,0,P|426:334|326:328,1,160,2|2,0:0|0:0,0:0:0:0:
273,289,25649,1,0,0:0:0:0:
303,215,25972,2,0,P|305:99|193:49,1,240,2|2,0:0|0:0,0:0:0:0:
129,70,27262,6,0,L|115:240,1,160,2|2,0:0|0:0,0:0:0:0:
140,310,28230,1,0,0:0:0:0:
140,310,28391,2,0,P|211:340|269:313,1,120,2|2,0:0|0:0,0:0:0:0:
319,289,29197,1,0,0:0:0:0:
382,239,29520,1,2,0:0:0:0:
339,171,29843,2,0,P|294:112|202:105,1,160,2|0,0:0|0:0,0:0:0:0:
147,147,30810,1,2,0:0:0:0:
165,224,31133,5,0,0:0:0:0:
232,266,31455,2,0,L|336:261,1,80,2|2,0:0|0:0,0:0:0:0:
397,271,32101,1,2,0:0:0:0:
376,353,32423,6,0,L|246:358,1,100,4|0,3:1|1:0,0:0:0:0:
226,360,32907,2,0,L|96:365,1,100,2|0,0:0|0:0,0:0:0:0:
96,322,33391,1,0,1:0:0:0:
166,250,33714,2,0,P|184:195|172:140,1,100,4|0,0:3|1:0,0:0:0:0:
276,137,34359,2,0,P|249:85|202:54,1,100,4|0,0:3|1:0,0:0:0:0:
121,32,35004,5,4,0:3:0:0:
56,108,35326,1,0,1:0:0:0:
111,191,35649,2,0,L|227:188,1,100,4|0,0:3|1:0,0:0:0:0:
304,223,36294,2,0,P|321:320|237:371,1,200,4|4,0:3|0:3,0:0:0:0:
152,341,37262,1,0,1:0:0:0:
107,319,37423,1,2,0:0:0:0:
63,294,37585,6,0,L|65:156,1,100,4|0,0:3|1:0,0:0:0:0:
105,165,38068,2,0,L|107:27,1,100,2|0,0:0|0:0,0:0:0:0:
146,34,38552,1,0,1:0:0:0:
237,75,38875,2,0,P|315:94|389:63,2,150,4|2|0,0:3|0:0|1:0,0:0:0:0:
146,34,40165,6,0,P|138:89|161:140,1,100,4|0,0:3|1:0,0:0:0:0:
130,174,40649,2,0,P|163:218|215:238,1,100,2|0,0:0|0:0,0:0:0:0:
230,278,41133,1,0,1:0:0:0:
327,300,41455,2,0,L|461:290,1,100,4|0,0:3|1:0,0:0:0:0:
483,209,42101,2,0,P|472:186|470:161,1,50,4|0,0:3|1:0,0:0:0:0:
482,113,42423,2,0,P|479:88|469:65,1,50,4|0,0:3|1:0,0:0:0:0:
428,36,42746,6,0,L|295:31,1,100,4|0,3:1|1:0,0:0:0:0:
292,67,43230,2,0,L|192:70,1,100,2|0,0:0|0:0,0:0:0:0:
150,42,43714,1,0,1:0:0:0:
78,111,44036,2,0,L|91:234,1,100,4|0,0:3|1:0,0:0:0:0:
187,225,44681,2,0,L|200:348,1,100,4|0,0:3|1:0,0:0:0:0:
286,370,45326,5,4,0:3:0:0:
356,299,45648,1,0,1:0:0:0:
354,198,45971,2,0,P|337:156|283:129,1,100,4|0,0:3|1:0,0:0:0:0:
191,143,46616,2,0,P|72:127|68:31,1,200,4|4,0:3|0:3,0:0:0:0:
137,5,47584,1,0,1:0:0:0:
180,30,47746,1,2,0:0:0:0:
223,53,47907,6,0,P|269:74|318:76,1,100,4|0,0:3|1:0,0:0:0:0:
365,59,48391,2,0,P|410:38|459:36,1,100,2|0,0:0|0:0,0:0:0:0:
503,60,48874,1,0,1:0:0:0:
480,157,49197,2,0,B|459:230|459:230|485:299,2,150,4|2|0,0:3|0:0|1:0,0:0:0:0:
503,59,50487,6,0,P|457:79|407:80,1,100,4|0,0:3|1:0,0:0:0:0:
364,106,50972,2,0,P|314:104|268:85,1,100,2|0,0:0|0:0,0:0:0:0:
220,99,51455,1,0,1:0:0:0:
217,198,51778,2,0,L|214:331,1,100,4|0,0:3|1:0,0:0:0:0:
116,320,52423,2,0,L|116:270,1,50,4|0,0:3|1:0,0:0:0:0:
80,235,52746,2,0,L|80:185,1,50,4|0,0:3|1:0,0:0:0:0:
45,150,53068,5,4,3:1:0:0:
87,61,53391,1,0,1:0:0:0:
86,61,53552,2,0,P|149:22|222:31,1,150,2|0,0:0|1:0,0:0:0:0:
288,106,54359,2,0,L|300:279,2,150,4|2|0,0:3|0:0|1:0,0:0:0:0:
357,34,55649,6,0,P|406:34|449:58,1,100,4|0,0:3|1:0,0:0:0:0:
499,145,56294,2,0,P|498:194|474:237,1,100,4|0,0:3|1:0,0:0:0:0:
379,271,56939,1,4,0:3:0:0:
288,228,57262,2,0,B|239:216|239:216|191:228,1,100,0|4,1:0|0:3,0:0:0:0:
96,261,57907,1,2,1:2:0:0:
173,323,58230,5,4,0:3:0:0:
191,228,58552,2,0,P|188:137|76:81,1,200,0|0,1:0|1:0,0:0:0:0:
19,133,59520,1,4,0:3:0:0:
4,232,59843,2,0,P|70:294|189:254,1,200,0|0,1:0|1:0,0:0:0:0:
256,224,60810,5,4,0:3:0:0:
341,275,61133,2,0,P|435:295|508:232,1,200,0|0,1:0|1:0,0:0:0:0:
484,134,62101,1,4,0:3:0:0:
400,79,62423,2,0,L|286:86,1,100,0|4,1:0|0:3,0:0:0:0:
227,34,63068,1,4,0:3:0:0:
227,34,63230,1,0,1:0:0:0:
227,34,63391,6,0,L|113:41,1,100,4|0,3:2|1:0,0:0:0:0:
44,96,64036,1,4,0:3:0:0:
121,159,64359,1,0,1:0:0:0:
55,234,64681,2,0,P|58:283|89:321,1,100,4|0,0:3|1:0,0:0:0:0:
183,354,65326,2,0,P|232:350|270:319,1,100,4|0,0:3|1:0,0:0:0:0:
321,233,65972,5,4,0:3:0:0:
268,148,66294,2,0,P|273:87|328:45,1,100,0|4,1:0|0:3,0:0:0:0:
389,20,66939,1,0,1:0:0:0:
442,104,67262,2,0,P|437:165|382:207,1,100,4|0,0:3|1:0,0:0:0:0:
321,233,67907,2,0,L|190:225,1,100,4|0,0:3|1:0,0:0:0:0:
121,218,68552,5,4,0:3:0:0:
112,317,68875,2,0,L|211:323,1,100,0|4,1:0|0:3,0:0:0:0:
311,332,69520,1,0,1:0:0:0:
404,295,69843,2,0,P|436:238|424:179,1,100,4|0,0:3|1:0,0:0:0:0:
404,109,70488,2,0,P|365:55|307:41,1,100,4|0,0:3|1:0,0:0:0:0:
245,88,71133,6,0,L|257:298,1,200,4|4,0:3|0:3,0:0:0:0:
164,327,72101,2,0,L|161:277,2,50,0|2|4,1:0|0:0|0:3,0:0:0:0:
66,350,72746,1,0,1:0:0:0:
59,250,73068,2,0,L|56:200,1,50,8|8,0:0|0:0,0:0:0:0:
87,160,73391,2,0,L|84:110,1,50,8|8,1:2|0:0,0:0:0:0:
114,72,73714,5,6,0:0:0:0:
256,275,74681,1,2,0:0:0:0:
322,229,75004,1,2,0:0:0:0:
83,254,75972,1,2,0:0:0:0:
149,300,76294,1,2,0:0:0:0:
206,66,77262,1,2,0:0:0:0:
220,145,77585,2,0,P|285:197|380:177,1,160,2|0,0:0|0:0,0:0:0:0:
403,125,78552,1,2,0:0:0:0:
472,164,78875,5,2,0:0:0:0:
274,27,79843,1,2,0:0:0:0:
274,106,80165,1,2,0:0:0:0:
40,164,81133,1,2,0:0:0:0:
72,236,81455,1,2,0:0:0:0:
286,342,82423,1,2,0:0:0:0:
362,319,82746,2,0,P|344:285|310:265,1,80,2|0,0:0|0:0,0:0:0:0:
230,253,83391,1,2,0:0:0:0:
230,253,84036,6,0,L|228:80,1,150,4|4,0:3|0:3,0:0:0:0:
246,56,84681,1,8,0:0:0:0:
337,14,85004,1,0,0:0:0:0:
421,67,85326,2,0,P|447:177|381:243,1,200,4|8,0:3|0:0,0:0:0:0:
304,278,86294,1,0,0:0:0:0:
218,223,86616,6,0,P|180:193|131:191,1,100,4|0,0:3|0:0,0:0:0:0:
38,228,87262,2,0,P|7:266|5:315,1,100,8|0,0:0|0:0,0:0:0:0:
90,367,87907,2,0,L|289:360,1,200,4|8,0:3|0:0,0:0:0:0:
370,301,88874,1,2,0:0:0:0:
423,216,89197,6,0,P|430:142|389:81,1,150,4|4,0:3|0:3,0:0:0:0:
345,63,89843,1,8,0:0:0:0:
256,110,90165,1,0,0:0:0:0:
167,63,90488,2,0,P|89:119|87:215,1,200,4|8,0:3|0:0,0:0:0:0:
164,280,91455,1,0,0:0:0:0:
240,343,91778,6,0,B|171:330|171:330|93:347,2,150,4|4|0,0:3|0:3|0:0,0:0:0:0:
337,366,93068,2,0,B|406:379|406:379|483:361,1,150,4|4,0:3|0:3,0:0:0:0:
507,316,93714,1,8,0:0:0:0:
445,237,94036,1,2,0:0:0:0:
491,147,94358,6,0,P|479:100|440:70,1,100,4|4,0:3|0:3,0:0:0:0:
345,40,95003,1,4,0:3:0:0:
257,88,95326,1,4,0:3:0:0:
313,170,95648,2,0,P|333:253|252:357,1,200,4|4,0:3|0:3,0:0:0:0:
182,308,96616,1,4,0:3:0:0:
87,275,96939,6,0,L|79:136,2,100,4|4|4,0:3|0:3|0:3,0:0:0:0:
182,308,97907,1,4,0:3:0:0:
175,208,98230,2,0,L|167:69,1,100,4|4,0:3|0:3,0:0:0:0:
256,59,98875,2,0,L|261:158,1,100,4|4,0:3|0:3,0:0:0:0:
315,243,99519,5,4,0:3:0:0:
410,214,99843,1,4,0:3:0:0:
446,120,100165,2,0,P|426:77|368:50,1,100,4|4,0:3|0:3,0:0:0:0:
283,70,100810,6,0,B|152:62|152:62|189:129,1,200,4|4,0:3|0:3,0:0:0:0:
256,192,101777,1,4,0:3:0:0:
185,261,102100,2,0,P|152:299|150:348,2,100,4|4|4,0:3|0:3|0:3,0:0:0:0:
256,192,103068,1,4,0:3:0:0:
327,262,103391,2,0,P|380:265|422:231,1,100,4|2,0:3|0:0,0:0:0:0:
434,192,103875,1,0,0:0:0:0:
416,145,104036,2,0,P|375:117|327:122,1,100,2|2,0:0|0:0,0:0:0:0:
256,192,104681,5,4,0:0:0:0:
184,335,105326,2,0,L|95:324,1,80,2|0,0:0|0:0,0:0:0:0:
67,306,105810,2,0,P|39:255|48:197,1,120,2|2,0:0|0:0,0:0:0:0:
92,129,106616,1,2,0:0:0:0:
169,109,106939,1,0,0:0:0:0:
236,151,107261,6,0,P|330:166|389:117,1,160,2|2,0:0|0:0,0:0:0:0:
435,73,108229,1,0,0:0:0:0:
369,26,108552,2,0,P|275:11|216:60,1,160,2|2,0:0|0:0,0:0:0:0:
174,108,109520,1,2,0:0:0:0:
149,185,109842,6,0,L|159:365,1,160,2|2,0:0|0:0,0:0:0:0:
241,358,110810,1,0,0:0:0:0:
241,358,110971,2,0,L|234:238,1,120,2|2,0:0|0:0,0:0:0:0:
289,179,111777,1,0,0:0:0:0:
348,233,112100,1,2,0:0:0:0:
424,210,112423,6,0,P|453:144|428:27,1,160,2|0,0:0|0:0,0:0:0:0:
369,38,113390,1,2,0:0:0:0:
369,38,113552,2,0,P|339:70|340:131,1,80,2|0,0:0|0:0,0:0:0:0:
340,154,114036,1,2,0:0:0:0:
412,223,114359,1,2,0:0:0:0:
351,302,114681,1,2,0:0:0:0:
281,373,115004,6,0,L|147:367,1,100,4|0,3:1|1:0,0:0:0:0:
101,307,115649,2,0,L|51:309,2,50,4|4|0,0:3|0:3|1:0,0:0:0:0:
181,247,116295,2,0,P|199:192|187:137,1,100,4|0,0:3|1:0,0:0:0:0:
219,109,116778,2,0,P|197:64|159:32,1,100,4|4,0:3|0:3,0:0:0:0:
115,10,117261,1,0,1:0:0:0:
39,76,117585,5,4,0:3:0:0:
57,174,117907,1,0,1:0:0:0:
147,215,118230,2,0,L|261:207,1,100,4|0,0:3|1:0,0:0:0:0:
304,126,118875,2,0,P|325:80|390:59,1,100,4|0,0:3|1:0,0:0:0:0:
467,54,119520,1,4,0:3:0:0:
492,152,119843,1,0,1:0:0:0:
462,192,120004,1,2,0:0:0:0:
431,231,120165,6,0,L|331:223,1,100,4|0,0:3|1:0,0:0:0:0:
245,275,120810,2,0,L|156:269,2,50,4|4|0,0:3|0:3|1:0,0:0:0:0:
331,224,121456,2,0,P|350:146|319:72,2,150,4|2|0,0:3|0:0|1:0,0:0:0:0:
245,275,122746,6,0,L|129:266,1,100,4|0,0:3|1:0,0:0:0:0:
132,219,123230,2,0,L|16:210,1,100,2|4,0:0|0:3,0:0:0:0:
11,165,123714,1,0,1:0:0:0:
69,83,124036,2,0,P|113:79|178:118,1,100,4|0,0:3|1:0,0:0:0:0:
243,161,124682,2,0,P|267:165|291:160,1,50,4|0,0:3|1:0,0:0:0:0:
339,146,125004,2,0,P|359:131|373:111,1,50,4|0,0:3|1:0,0:0:0:0:
394,65,125326,1,2,0:0:0:0:
312,7,125649,5,4,3:2:0:0:
312,7,125811,2,0,L|212:10,1,100,0|0,0:0|0:0,0:0:0:0:
161,13,126295,1,0,1:0:0:0:
97,89,126617,2,0,P|123:143|110:212,1,100,4|0,0:3|1:0,0:0:0:0:
92,222,127101,2,0,P|93:271|116:314,1,100,4|4,0:3|0:3,0:0:0:0:
153,349,127585,1,0,1:0:0:0:
251,366,127907,5,4,0:3:0:0:
343,329,128229,1,0,1:0:0:0:
426,273,128552,2,0,L|418:152,1,100,4|0,0:3|1:0,0:0:0:0:
329,129,129197,2,0,L|335:228,1,100,4|0,0:3|1:0,0:0:0:0:
342,328,129843,1,4,0:3:0:0:
251,366,130165,1,0,1:0:0:0:
202,356,130326,1,2,0:0:0:0:
153,342,130488,6,0,P|111:315|111:233,1,100,4|0,0:3|1:0,0:0:0:0:
151,184,131133,2,0,L|216:179,2,50,4|4|0,0:3|0:3|1:0,0:0:0:0:
98,99,131778,2,0,B|274:86,2,150,4|2|0,0:3|0:0|1:0,0:0:0:0:
63,193,133068,6,0,P|77:241|136:271,1,100,4|0,0:3|1:0,0:0:0:0:
164,283,133552,2,0,P|213:286|262:241,1,100,2|4,0:0|0:3,0:0:0:0:
280,216,134036,1,0,1:0:0:0:
287,116,134358,2,0,P|327:79|406:73,1,100,4|0,0:3|1:0,0:0:0:0:
456,118,135004,2,0,L|455:168,1,50,4|0,0:3|1:0,0:0:0:0:
482,209,135326,2,0,L|481:259,1,50,4|0,0:3|1:0,0:0:0:0:
508,300,135649,5,4,0:2:0:0:
256,192,135810,12,4,138875,0:3:0:0:
133,331,139520,5,4,0:3:0:0:
88,241,139843,2,0,B|76:192|76:192|88:144,1,100,0|4,1:0|0:3,0:0:0:0:
133,53,140488,1,0,1:0:0:0:
215,109,140810,5,4,0:3:0:0:
286,38,141133,2,0,P|377:41|433:153,1,200,0|0,1:0|1:0,0:0:0:0:
437,225,142100,1,4,0:3:0:0:
367,296,142423,2,0,P|276:293|220:181,1,200,0|0,1:0|1:0,0:0:0:0:
215,109,143390,5,4,0:3:0:0:
136,47,143713,2,0,P|55:99|48:195,1,200,0|0,1:0|1:0,0:0:0:0:
98,282,144681,1,4,0:3:0:0:
151,366,145004,2,0,L|265:359,1,100,0|4,1:0|0:3,0:0:0:0:
295,274,145648,1,4,0:3:0:0:
295,274,145810,1,0,1:0:0:0:
295,274,145971,6,0,L|409:267,1,100,4|0,3:1|1:0,0:0:0:0:
471,203,146616,1,4,0:3:0:0:
442,107,146939,1,0,1:0:0:0:
355,56,147262,2,0,P|292:90|272:136,1,100,4|0,0:3|1:0,0:0:0:0:
275,213,147907,2,0,P|290:259|327:292,1,100,4|0,0:3|1:0,0:0:0:0:
421,328,148552,5,4,0:3:0:0:
456,234,148874,2,0,L|459:102,2,100,0|4|0,1:0|0:3|1:0,0:0:0:0:
421,328,149842,2,0,P|363:353|297:338,1,100,4|0,0:3|1:0,0:0:0:0:
264,272,150487,2,0,P|218:253|133:264,1,100,4|0,0:3|1:0,0:0:0:0:
77,294,151132,5,4,0:3:0:0:
37,201,151455,2,0,L|43:102,1,100,0|4,1:0|0:3,0:0:0:0:
107,24,152100,1,0,1:0:0:0:
184,87,152423,2,0,L|178:186,1,100,4|0,0:3|1:0,0:0:0:0:
252,254,153068,2,0,L|246:353,1,100,4|0,0:3|1:0,0:0:0:0:
345,362,153714,6,0,L|351:263,2,100,4|0|4,0:3|1:0|0:3,0:0:0:0:
246,353,154681,1,0,1:0:0:0:
188,271,155004,2,0,P|197:222|233:189,1,100,4|0,0:3|1:0,0:0:0:0:
328,158,155648,2,0,L|389:161,1,50,4|8,0:3|0:2,0:0:0:0:
409,121,155972,2,0,L|470:124,1,50,8|8,1:2|0:2,0:0:0:0:
498,92,156294,5,6,0:0:0:0:
