osu file format v14

[General]
AudioFilename: audio.mp3
AudioLeadIn: 0
PreviewTime: 31402
Countdown: 0
SampleSet: Soft
StackLeniency: 0.4
Mode: 0
LetterboxInBreaks: 0
WidescreenStoryboard: 0

[Editor]
DistanceSpacing: 1.2
BeatDivisor: 6
GridSize: 4
TimelineZoom: 2.5

[Metadata]
Title:Mizuoto to Curtain
TitleUnicode:水音とカーテン
Artist:MIMI
ArtistUnicode:MIMI
Creator:Nozhomi
Version:Extra
Source:osu!
Tags:featured artist mappers guild hatsune miku 初音ミク pop japanese vocaloid
BeatmapID:2512199
BeatmapSetID:1206296

[Difficulty]
HPDrainRate:6
CircleSize:4.5
OverallDifficulty:8.4
ApproachRate:9.2
SliderMultiplier:1.8
SliderTickRate:1

[Events]
//Background and Video events
0,0,"miku.jpg",0,0
//Break Periods
//Storyboard Layer 0 (Background)
//Storyboard Layer 1 (Fail)
//Storyboard Layer 2 (Pass)
//Storyboard Layer 3 (Foreground)
//Storyboard Layer 4 (Overlay)
//Storyboard Sound Samples

[TimingPoints]
1456,322.58064516129,4,2,1,60,1,0
1456,-166.666666666667,4,2,1,60,0,0
11778,-125,4,2,1,60,0,0
22101,-250.000000000001,4,2,1,50,0,0
31455,-166.666666666667,4,2,1,50,0,0
31778,-125,4,2,1,60,0,0
32101,-100,4,2,1,70,0,0
32423,-80,4,2,1,80,0,1
53068,-100,4,2,1,70,0,0
73714,-125,4,2,1,50,0,0
83391,-166.666666666667,4,2,1,50,0,0
84036,-125,4,2,1,60,0,0
94359,-100,4,2,1,60,0,0
104681,-250,4,2,1,50,0,0
114036,-166.666666666667,4,2,1,50,0,0
114359,-125,4,2,1,60,0,0
114681,-100,4,2,1,70,0,0
115004,-80,4,2,1,80,0,1
125326,-125,4,2,1,60,0,0
125649,-80,4,2,1,80,0,1
135649,-100,4,2,1,70,0,0
145972,-83.3333333333333,4,2,1,70,0,0
156294,-125,4,2,1,60,0,0
166778,-125,4,2,1,10,0,0
167101,-125,4,2,1,20,0,0
167423,-125,4,2,1,30,0,0
167746,-125,4,2,1,40,0,0

[Colours]
Combo1 : 252,131,222
Combo2 : 40,200,124
Combo3 : 21,176,189

[HitObjects]
32,76,1456,6,0,L|49:183,1,107.999996704102,2|0,0:0|0:0,0:0:0:0:
125,243,1939,1,0,0:0:0:0:
204,186,2101,2,0,P|229:176|255:174,1,53.9999983520508,2|0,0:0|0:0,0:0:0:0:
383,212,2423,1,2,0:0:0:0:
405,287,2585,1,0,0:0:0:0:
382,361,2746,2,0,P|332:340|278:336,1,107.999996704102,2|0,0:0|0:0,0:0:0:0:
126,313,3230,2,0,P|179:309|229:288,1,107.999996704102,2|0,0:0|0:0,0:0:0:0:
291,213,3714,1,2,0:0:0:0:
188,66,3875,6,0,B|178:119|178:119|194:170,1,107.999996704102,2|0,0:0|0:0,0:0:0:0:
107,97,4359,2,0,L|53:101,1,53.9999983520508,2|0,0:0|0:0,0:0:0:0:
194,170,4681,2,0,L|264:176,1,53.9999983520508,2|0,0:0|0:0,0:0:0:0:
331,145,5004,1,0,0:0:0:0:
422,296,5165,2,0,L|410:168,1,107.999996704102,2|0,0:0|0:0,0:0:0:0:
327,141,5649,1,2,0:0:0:0:
337,248,5810,2,0,L|327:141,1,107.999996704102,2|0,0:0|0:0,0:0:0:0:
260,212,6294,1,2,0:0:0:0:
249,115,6455,1,2,0:0:0:0:
106,181,6617,6,0,L|177:194,1,53.9999983520508,2|0,0:0|0:0,0:0:0:0:
195,121,6939,2,0,L|257:113,1,53.9999983520508,2|0,0:0|0:0,0:0:0:0:
367,225,7262,2,0,L|253:211,1,107.999996704102,2|0,0:0|0:0,0:0:0:0:
195,121,7746,1,0,0:0:0:0:
332,102,7907,2,0,L|439:88,1,107.999996704102,2|0,0:0|0:0,0:0:0:0:
474,238,8391,2,0,L|367:225,1,107.999996704102,2|0,0:0|0:0,0:0:0:0:
285,279,8875,1,2,0:0:0:0:
205,335,9036,1,2,0:0:0:0:
115,221,9198,6,0,P|108:195|116:169,1,53.9999983520508,2|0,0:0|0:0,0:0:0:0:
234,159,9520,2,0,P|210:171|196:194,1,53.9999983520508,2|0,0:0|0:0,0:0:0:0:
330,304,9843,2,0,P|283:277|264:228,1,107.999996704102,2|0,0:0|0:0,0:0:0:0:
291,134,10327,1,0,0:0:0:0:
427,162,10488,2,0,P|400:208|351:227,1,107.999996704102,2|0,0:0|0:0,0:0:0:0:
298,34,10972,2,0,P|311:85|291:134,1,107.999996704102,2|0,0:0|0:0,0:0:0:0:
196,194,11455,2,0,L|126:190,1,53.9999983520508,2|0,0:0|0:0,0:0:0:0:
43,106,11778,5,4,0:3:0:0:
57,272,11939,2,0,L|60:173,1,72,2|0,0:0|0:0,0:0:0:0:
96,56,12262,1,4,0:3:0:0:
196,194,12423,2,0,P|261:218|341:188,1,144,8|0,0:0|0:0,0:0:0:0:
388,318,12907,1,0,0:0:0:0:
388,318,13068,2,0,P|433:290|458:196,1,144,4|0,0:3|0:0,0:0:0:0:
416,47,13552,2,0,L|421:118,1,72,4|8,0:3|0:0,0:0:0:0:
330,196,13875,2,0,L|276:149,1,72,2|0,0:0|0:0,0:0:0:0:
119,255,14197,6,0,L|275:234,1,144,2|2,0:0|0:0,0:0:0:0:
376,336,14681,2,0,P|344:318|326:288,1,72,0|4,0:0|0:3,0:0:0:0:
440,138,15004,2,0,P|443:200|379:276,1,144,8|0,0:0|0:0,0:0:0:0:
261,235,15488,1,0,0:0:0:0:
111,347,15649,2,0,P|145:339|172:315,1,72,4|4,0:3|0:3,0:0:0:0:
162,171,15972,1,0,0:0:0:0:
11,260,16133,2,0,P|21:294|43:322,1,72,4|10,0:3|0:0,0:0:0:0:
115,350,16375,1,2,0:0:0:0:
115,350,16455,1,2,0:0:0:0:
261,235,16617,2,0,L|252:119,1,108,2|0,0:0|0:0,0:0:0:0:
195,91,16939,6,0,P|217:118|252:127,1,72,4|2,0:3|0:0,0:0:0:0:
387,65,17262,2,0,P|357:82|322:79,1,72,0|4,0:0|0:3,0:0:0:0:
331,223,17585,2,0,L|322:78,1,144,8|0,0:0|0:0,0:0:0:0:
427,177,18068,1,2,0:0:0:0:
252,127,18230,2,0,L|256:198,1,72,4|2,0:3|0:0,0:0:0:0:
182,295,18552,1,0,0:0:0:0:
354,297,18714,2,0,L|280:290,1,72,4|8,0:3|0:0,0:0:0:0:
186,180,19036,1,2,0:0:0:0:
72,224,19197,1,2,0:0:0:0:
69,346,19359,1,2,0:0:0:0:
192,364,19520,6,0,P|193:328|182:295,1,72,4|2,0:3|0:0,0:0:0:0:
281,186,19843,2,0,P|256:159|224:144,1,72,0|4,0:0|0:3,0:0:0:0:
72,224,20165,2,0,L|234:213,1,144,8|0,0:0|0:0,0:0:0:0:
466,281,20810,2,0,L|390:276,1,72,4|0,0:3|0:0,0:0:0:0:
294,209,21133,2,0,L|370:204,1,72,2|4,0:0|0:3,0:0:0:0:
470,285,21455,1,8,0:0:0:0:
470,285,21778,1,0,0:0:0:0:
365,204,21939,1,0,0:0:0:0:
512,117,22101,6,0,P|485:163|424:178,1,108,6|0,0:0|0:0,0:0:0:0:
382,132,22746,2,0,L|378:52,1,72,2|0,0:0|0:0,0:0:0:0:
308,43,23230,2,0,L|311:114,1,72,2|0,0:0|0:0,0:0:0:0:
318,186,23714,1,2,0:0:0:0:
181,140,24036,1,2,0:0:0:0:
253,264,24359,1,0,0:0:0:0:
71,239,24681,6,0,L|158:234,1,72,2|0,0:0|0:0,0:0:0:0:
324,268,25326,2,0,L|253:264,1,72,2|0,0:0|0:0,0:0:0:0:
143,235,25810,1,0,0:0:0:0:
126,164,25972,1,2,0:0:0:0:
147,95,26133,1,0,0:0:0:0:
206,54,26294,2,0,L|255:57,1,36,2|0,0:0|0:0,0:0:0:0:
278,118,26617,1,2,0:0:0:0:
341,152,26778,1,0,0:0:0:0:
409,129,26939,2,0,L|409:85,1,36,2|2,0:0|0:0,0:0:0:0:
507,58,27262,6,0,L|507:166,1,108,2|0,0:0|0:0,0:0:0:0:
470,268,27907,2,0,L|415:221,1,72,2|0,0:0|0:0,0:0:0:0:
323,310,28391,2,0,L|399:304,1,72,2|0,0:0|0:0,0:0:0:0:
415,221,28875,1,2,0:0:0:0:
309,123,29197,1,0,0:0:0:0:
199,216,29520,1,2,0:0:0:0:
223,283,29681,1,2,0:0:0:0:
282,321,29843,6,0,P|251:305|215:302,1,72,2|0,0:0|0:0,0:0:0:0:
199,216,30326,2,0,P|167:232|131:235,1,72,2|0,0:0|0:0,0:0:0:0:
61,213,30810,1,2,0:0:0:0:
61,213,30972,2,0,L|65:318,1,72,2|0,0:0|0:0,0:0:0:0:
178,345,31455,6,0,P|163:322|143:304,1,53.9999983520508,2|0,0:0|0:0,0:0:0:0:
195,195,31778,2,0,P|210:238|205:280,1,72,2|0,0:0|0:0,0:0:0:0:
321,163,32101,2,0,P|311:210|273:243,1,90,2|0,0:0|0:0,0:0:0:0:
496,247,32423,6,0,P|429:219|275:242,1,225,4|0,3:1|1:0,0:0:0:0:
16,137,32907,2,0,P|83:165|237:142,1,225,2|0,0:0|0:0,0:0:0:0:
365,9,33391,1,0,1:0:0:0:
327,249,33552,2,0,L|320:136,1,112.5,2|4,0:0|0:3,0:0:0:0:
159,31,33875,1,0,0:0:0:0:
390,91,34036,1,0,1:0:0:0:
118,160,34197,2,0,L|230:145,1,112.5,2|4,0:0|0:3,0:0:0:0:
412,204,34520,1,2,0:0:0:0:
340,380,34681,1,0,1:0:0:0:
156,321,34843,1,2,0:0:0:0:
229,145,35004,6,0,P|248:190|241:256,1,112.5,4|0,0:3|0:0,0:0:0:0:
166,77,35326,1,0,1:0:0:0:
334,196,35488,2,0,P|294:237|205:246,1,112.5,2|4,0:0|0:3,0:0:0:0:
385,125,35810,1,0,0:0:0:0:
164,214,35972,1,0,1:0:0:0:
466,266,36133,2,0,P|383:254|222:253,1,225,2|0,0:0|0:0,0:0:0:0:
112,143,36617,2,0,P|217:149|242:251,1,225,0|4,1:0|0:3,0:0:0:0:
74,346,37101,1,2,0:0:0:0:
112,143,37262,1,0,1:0:0:0:
238,351,37423,1,2,0:0:0:0:
238,351,37504,1,2,0:0:0:0:
238,351,37585,6,0,B|424:348|424:348|389:305,1,225,4|0,0:3|1:0,0:0:0:0:
349,124,38069,2,0,P|332:232|399:318,1,225,2|0,0:0|0:0,0:0:0:0:
495,152,38552,1,0,1:0:0:0:
258,227,38713,2,0,L|128:218,1,112.5,2|4,0:0|0:3,0:0:0:0:
44,55,39036,1,0,0:0:0:0:
59,245,39197,1,0,1:0:0:0:
235,114,39359,2,0,L|348:122,1,112.5,2|4,0:0|0:3,0:0:0:0:
482,256,39681,1,2,0:0:0:0:
315,349,39842,1,0,1:0:0:0:
177,214,40004,1,2,0:0:0:0:
361,19,40165,6,0,B|312:96|408:133|366:240,1,225,4|0,0:3|1:0,0:0:0:0:
109,244,40649,2,0,P|164:185|319:190,1,225,2|0,0:0|0:0,0:0:0:0:
397,345,41133,1,0,1:0:0:0:
226,258,41294,1,2,0:0:0:0:
373,131,41455,2,0,P|389:183|368:234,1,112.5,4|0,0:3|0:0,0:0:0:0:
155,334,41778,2,0,P|177:284|226:258,1,112.5,0|0,1:0|0:0,0:0:0:0:
397,345,42101,1,4,0:3:0:0:
292,158,42262,1,0,1:0:0:0:
292,158,42343,1,0,1:0:0:0:
292,158,42424,1,4,0:3:0:0:
163,342,42585,1,0,1:0:0:0:
163,342,42665,1,0,1:0:0:0:
163,342,42746,6,0,P|181:268|56:174,1,225,4|0,3:1|1:0,0:0:0:0:
244,361,43230,2,0,P|332:299|323:192,1,225,2|0,0:0|0:0,0:0:0:0:
156,97,43714,1,0,1:0:0:0:
396,78,43875,2,0,P|350:110|296:124,1,112.5,2|4,0:0|0:3,0:0:0:0:
127,32,44198,1,0,0:0:0:0:
150,221,44359,1,0,1:0:0:0:
296,31,44520,2,0,P|350:45|396:78,1,112.5,2|4,0:0|0:3,0:0:0:0:
470,255,44843,1,2,0:0:0:0:
318,138,45004,1,0,1:0:0:0:
332,329,45166,1,2,0:0:0:0:
139,242,45327,6,0,L|261:227,1,112.5,4|0,0:3|0:0,0:0:0:0:
429,151,45649,2,0,L|318:138,1,112.5,0|2,1:0|0:0,0:0:0:0:
221,332,45972,1,4,0:3:0:0:
202,73,46133,1,0,0:0:0:0:
355,233,46295,1,0,1:0:0:0:
129,264,46456,2,0,P|184:270|222:120,1,225,2|0,0:0|0:0,0:0:0:0:
100,19,46939,2,0,P|132:121|238:137,1,225,0|4,1:0|0:3,0:0:0:0:
403,39,47424,1,2,0:0:0:0:
374,234,47585,1,0,1:0:0:0:
243,63,47746,1,2,0:0:0:0:
243,63,47826,1,2,0:0:0:0:
243,63,47907,6,0,L|484:56,1,225,4|0,0:3|1:0,0:0:0:0:
374,234,48391,2,0,L|149:241,1,225,2|0,0:0|0:0,0:0:0:0:
23,95,48875,1,0,1:0:0:0:
48,324,49036,2,0,P|55:268|53:212,1,112.5,2|4,0:0|0:3,0:0:0:0:
3,26,49359,1,0,0:0:0:0:
133,165,49520,1,0,1:0:0:0:
308,92,49681,2,0,P|260:65|205:56,1,112.5,2|4,0:0|0:3,0:0:0:0:
28,131,50004,1,2,0:0:0:0:
101,307,50165,1,0,1:0:0:0:
293,302,50327,1,2,0:0:0:0:
205,56,50488,6,0,P|180:152|201:283,1,225,4|0,0:3|1:0,0:0:0:0:
399,140,50972,2,0,P|417:250|391:358,1,225,2|0,0:0|0:0,0:0:0:0:
182,209,51456,1,0,1:0:0:0:
293,368,51617,1,2,0:0:0:0:
45,347,51778,2,0,L|165:339,1,112.5,4|0,0:3|0:0,0:0:0:0:
294,216,52101,2,0,L|182:209,1,112.5,0|0,1:0|0:0,0:0:0:0:
41,351,52424,1,4,0:3:0:0:
132,150,52585,1,0,1:0:0:0:
132,150,52666,1,0,1:0:0:0:
132,150,52747,1,4,0:3:0:0:
300,319,52907,1,0,1:0:0:0:
300,319,52988,1,0,1:0:0:0:
300,319,53068,6,0,P|385:292|410:208,1,180,4|0,3:1|1:0,0:0:0:0:
264,163,53552,1,2,0:0:0:0:
264,163,53875,2,0,L|363:170,1,90,2|0,0:0|1:0,0:0:0:0:
488,64,54197,1,2,0:0:0:0:
469,216,54359,1,4,0:3:0:0:
360,85,54520,2,0,L|270:78,1,90,2|0,0:0|1:0,0:0:0:0:
84,175,54843,2,0,L|264:163,1,180,2|0,0:0|0:0,0:0:0:0:
366,276,55326,1,0,1:0:0:0:
207,365,55488,6,0,L|214:258,1,90,2|4,0:0|0:3,0:0:0:0:
338,188,55810,1,2,0:0:0:0:
284,349,55972,2,0,L|291:242,1,90,0|0,1:0|0:0,0:0:0:0:
415,172,56294,1,4,0:3:0:0:
440,341,56455,1,2,0:0:0:0:
289,259,56617,1,0,1:0:0:0:
481,212,56778,1,0,0:0:0:0:
400,99,56939,5,4,0:3:0:0:
257,160,57101,2,0,P|213:162|168:156,1,90,2|0,0:0|1:0,0:0:0:0:
39,29,57423,1,2,0:0:0:0:
103,190,57585,1,4,0:3:0:0:
188,63,57746,1,2,0:0:0:0:
188,63,57907,1,2,1:2:0:0:
165,228,58068,1,0,0:0:0:0:
11,124,58230,6,0,P|97:105|169:156,1,180,4|0,0:3|1:0,0:0:0:0:
188,307,58714,1,2,0:0:0:0:
57,180,58875,2,0,P|28:201|18:266,1,90,4|2,0:3|0:0,0:0:0:0:
176,377,59197,2,0,P|136:357|117:317,1,90,0|0,1:0|0:0,0:0:0:0:
344,219,59520,2,0,L|165:228,1,180,4|0,0:3|1:0,0:0:0:0:
91,92,60004,1,2,0:0:0:0:
252,155,60165,2,0,L|341:150,1,90,4|2,0:3|0:0,0:0:0:0:
409,287,60487,2,0,L|319:291,1,90,0|2,1:0|0:0,0:0:0:0:
165,228,60810,6,0,L|344:219,1,180,4|0,0:3|1:0,0:0:0:0:
391,72,61294,1,2,0:0:0:0:
509,168,61455,2,0,L|403:163,1,90,4|2,0:3|0:0,0:0:0:0:
478,305,61778,2,0,L|406:226,1,90,0|2,1:0|0:0,0:0:0:0:
326,361,62101,2,0,P|346:246|339:158,1,180,4|0,0:3|1:0,0:0:0:0:
284,41,62585,1,2,0:0:0:0:
172,165,62746,1,4,0:3:0:0:
336,111,62907,1,0,1:0:0:0:
336,111,62988,1,0,1:0:0:0:
336,111,63069,1,4,0:3:0:0:
160,42,63230,1,0,1:0:0:0:
160,42,63311,1,0,1:0:0:0:
160,42,63391,6,0,P|165:87|170:148,1,90,4|0,3:2|0:0,0:0:0:0:
184,284,63714,1,0,1:0:0:0:
317,209,63875,1,2,0:0:0:0:
134,205,64036,1,4,0:3:0:0:
240,362,64197,1,2,0:0:0:0:
241,170,64359,1,0,1:0:0:0:
135,327,64520,1,2,0:0:0:0:
342,326,64681,2,0,P|287:273|176:272,1,180,4|0,0:3|1:0,0:0:0:0:
75,372,65165,1,2,0:0:0:0:
55,220,65326,1,4,0:3:0:0:
162,341,65488,1,2,0:0:0:0:
225,140,65649,1,0,1:0:0:0:
118,261,65810,1,2,0:0:0:0:
101,59,65972,6,0,L|111:165,1,90,4|2,0:3|0:0,0:0:0:0:
222,266,66295,1,0,1:0:0:0:
381,239,66456,1,2,0:0:0:0:
362,51,66617,1,4,0:3:0:0:
251,169,66778,1,2,0:0:0:0:
467,147,66939,1,0,1:0:0:0:
309,110,67100,1,2,0:0:0:0:
396,312,67262,2,0,P|372:225|382:136,1,180,4|0,0:3|1:0,0:0:0:0:
488,14,67746,1,2,0:0:0:0:
339,77,67907,1,4,0:3:0:0:
439,210,68068,1,2,0:0:0:0:
298,310,68230,1,0,1:0:0:0:
362,157,68391,1,2,0:0:0:0:
151,183,68552,6,0,P|212:182|252:194,1,90,4|2,0:3|0:0,0:0:0:0:
370,286,68875,1,0,1:0:0:0:
287,117,69036,1,2,0:0:0:0:
225,310,69197,2,0,P|180:312|136:303,1,90,4|2,0:3|0:0,0:0:0:0:
1,212,69520,2,0,P|56:210|96:193,1,90,0|2,1:0|0:0,0:0:0:0:
179,41,69843,2,0,P|166:126|168:240,1,180,4|0,0:3|1:0,0:0:0:0:
249,359,70326,1,2,0:0:0:0:
350,246,70488,2,0,L|245:256,1,90,4|2,0:3|0:0,0:0:0:0:
401,175,70810,2,0,L|490:183,1,90,0|2,1:0|0:0,0:0:0:0:
446,359,71133,6,0,L|433:269,1,90,4|2,0:3|0:0,0:0:0:0:
459,110,71455,1,0,1:0:0:0:
331,210,71617,1,2,0:0:0:0:
359,23,71778,2,0,L|346:112,1,90,4|2,0:3|0:0,0:0:0:0:
194,54,72101,2,0,L|224:145,1,90,0|2,1:0|0:0,0:0:0:0:
49,203,72423,2,0,P|136:200|245:234,1,180,4|0,0:3|1:0,0:0:0:0:
340,339,72907,1,2,0:0:0:0:
178,339,73068,1,8,0:0:0:0:
337,198,73230,1,8,0:0:0:0:
260,372,73391,1,8,1:2:0:0:
234,147,73552,1,8,0:0:0:0:
140,255,73714,5,6,0:0:0:0:
17,212,73875,2,0,L|112:203,1,72,2|0,0:0|0:0,0:0:0:0:
140,255,74197,2,0,L|235:246,1,72,2|0,0:0|0:0,0:0:0:0:
268,292,74520,1,2,0:0:0:0:
308,200,74681,1,2,0:0:0:0:
373,295,74843,1,0,0:0:0:0:
451,183,75004,5,2,0:0:0:0:
380,74,75165,2,0,P|383:125|405:149,1,72,2|0,0:0|0:0,0:0:0:0:
451,183,75488,2,0,P|468:214|465:249,1,72,2|0,0:0|0:0,0:0:0:0:
442,317,75810,1,2,0:0:0:0:
370,247,75971,1,2,0:0:0:0:
261,285,76133,1,0,0:0:0:0:
167,186,76294,5,2,0:0:0:0:
171,257,76455,2,0,L|173:328,1,72,2|0,0:0|0:0,0:0:0:0:
102,341,76778,2,0,L|99:269,1,72,2|0,0:0|0:0,0:0:0:0:
96,197,77101,1,2,0:0:0:0:
139,106,77261,1,2,0:0:0:0:
242,53,77423,1,0,0:0:0:0:
377,78,77585,5,2,0:0:0:0:
338,138,77746,2,0,P|314:113|306:78,1,72,2|0,0:0|0:0,0:0:0:0:
420,16,78068,1,2,0:0:0:0:
448,81,78230,2,0,P|440:115|415:141,1,72,0|2,0:0|0:0,0:0:0:0:
306,77,78552,1,2,0:0:0:0:
373,205,78714,1,0,0:0:0:0:
230,197,78875,5,2,0:0:0:0:
304,279,79036,2,0,L|300:191,1,72,2|0,0:0|0:0,0:0:0:0:
230,197,79359,2,0,L|233:268,1,72,2|0,0:0|0:0,0:0:0:0:
214,338,79681,1,2,0:0:0:0:
114,353,79842,1,2,0:0:0:0:
25,279,80004,1,0,0:0:0:0:
42,145,80165,5,2,0:0:0:0:
118,217,80326,2,0,P|83:220|48:212,1,72,2|0,0:0|0:0,0:0:0:0:
156,156,80649,2,0,P|191:152|226:160,1,72,2|0,0:0|0:0,0:0:0:0:
280,207,80971,1,2,0:0:0:0:
328,118,81132,1,2,0:0:0:0:
365,228,81294,1,0,0:0:0:0:
415,101,81455,5,2,0:0:0:0:
493,177,81617,2,0,L|394:171,1,72,2|0,0:0|0:0,0:0:0:0:
365,228,81939,2,0,L|266:222,1,72,2|0,0:0|0:0,0:0:0:0:
240,273,82261,1,2,0:0:0:0:
239,162,82422,1,2,0:0:0:0:
317,296,82584,1,0,0:0:0:0:
197,217,82746,5,2,0:0:0:0:
312,135,82907,2,0,P|315:99|307:57,1,72,2|0,0:0|0:0,0:0:0:0:
205,27,83230,1,2,0:0:0:0:
101,74,83391,2,0,P|156:129|246:131,1,161.999995056153,2|0,0:0|0:0,0:0:0:0:
309,63,84036,6,0,P|376:67|403:145,1,144,4|0,0:3|0:0,0:0:0:0:
348,239,84521,1,4,0:3:0:0:
228,291,84682,2,0,L|135:286,1,72,8|0,0:0|0:0,0:0:0:0:
101,164,85004,2,0,L|113:250,1,72
16,355,85327,2,0,L|35:212,1,144,4|0,0:3|0:0,0:0:0:0:
121,310,85811,2,0,L|131:381,1,72,4|8,0:3|0:0,0:0:0:0:
248,297,86134,1,2,0:0:0:0:
248,297,86295,2,0,L|178:270,1,72
101,164,86617,6,0,P|170:180|241:171,1,144,4|0,0:3|0:0,0:0:0:0:
323,69,87101,1,4,0:3:0:0:
330,212,87263,2,0,L|323:69,1,144,8|0,0:0|0:0,0:0:0:0:
425,149,87747,1,0,0:0:0:0:
242,102,87908,1,4,0:3:0:0:
422,21,88069,1,4,0:3:0:0:
325,108,88231,1,0,0:0:0:0:
221,29,88392,2,0,P|190:44|171:75,2,72,4|8|0,0:3|0:0|0:0,0:0:0:0:
249,170,88875,2,0,P|214:166|186:143,1,72,2|0,0:0|0:0,0:0:0:0:
139,299,89197,6,0,P|146:253|144:216,1,72,4|0,0:3|0:0,0:0:0:0:
83,91,89520,2,0,P|82:126|89:162,1,72,0|4,0:0|0:3,0:0:0:0:
3,243,89843,2,0,P|81:228|157:228,1,144,8|0,0:0|0:0,0:0:0:0:
274,239,90327,1,0,0:0:0:0:
195,351,90489,2,0,L|201:266,1,72,4|0,0:3|0:0,0:0:0:0:
270,171,90811,1,0,0:0:0:0:
279,310,90972,2,0,L|274:239,1,72,4|8,0:3|0:0,0:0:0:0:
204,130,91294,1,2,0:0:0:0:
340,206,91456,1,0,0:0:0:0:
454,143,91618,1,2,0:0:0:0:
366,41,91779,6,0,P|355:82|358:127,1,72,4|0,0:3|0:0,0:0:0:0:
231,144,92101,2,0,P|253:180|287:210,1,72,0|4,0:0|0:3,0:0:0:0:
150,311,92424,2,0,P|228:298|306:299,1,144,8|0,0:0|0:0,0:0:0:0:
421,310,92907,1,0,0:0:0:0:
357,178,93069,2,0,P|356:227|366:264,1,72,4|0,0:3|0:0,0:0:0:0:
296,369,93391,2,0,P|298:333|292:297,1,72,0|4,0:0|0:3,0:0:0:0:
209,196,93714,1,8,0:0:0:0:
209,196,94036,1,2,0:0:0:0:
306,110,94198,1,0,0:0:0:0:
123,116,94359,6,0,L|216:112,1,90,4|2,0:3|0:0,0:0:0:0:
360,45,94681,2,0,L|270:41,1,90,4|0,0:3|0:0,0:0:0:0:
172,183,95004,1,4,0:3:0:0:
168,179,95326,1,4,0:3:0:0:
457,322,95649,2,0,P|416:305|372:302,1,90,4|2,0:3|0:0,0:0:0:0:
325,146,95972,2,0,P|283:162|250:192,1,90,4|0,0:3|0:0,0:0:0:0:
304,344,96294,1,4,0:3:0:0:
308,348,96617,1,4,0:3:0:0:
95,104,96939,6,0,P|55:123|10:121,1,90,4|2,0:3|0:0,0:0:0:0:
165,174,97262,2,0,P|205:194|250:192,1,90,4|0,0:3|0:0,0:0:0:0:
190,40,97585,1,4,0:3:0:0:
186,44,97907,1,4,0:3:0:0:
88,300,98230,2,0,L|78:210,1,90,4|2,0:3|0:0,0:0:0:0:
240,199,98552,2,0,L|157:162,1,90,4|0,0:3|0:0,0:0:0:0:
165,344,98875,2,0,L|238:291,1,90,4|2,0:3|0:0,0:0:0:0:
366,193,99197,1,4,0:3:0:0:
478,310,99359,1,2,0:0:0:0:
320,352,99520,6,0,B|306:307|306:307|320:262,1,90,4|2,0:3|0:0,0:0:0:0:
364,107,99843,2,0,B|378:152|378:152|366:193,1,90,4|0,0:3|0:0,0:0:0:0:
205,171,100165,1,4,0:3:0:0:
209,175,100488,1,4,0:3:0:0:
483,271,100810,2,0,P|438:263|393:261,1,90,4|2,0:3|0:0,0:0:0:0:
221,310,101133,2,0,P|265:302|310:300,1,90,4|0,0:3|0:0,0:0:0:0:
308,139,101455,1,4,0:3:0:0:
312,135,101778,1,4,0:3:0:0:
129,336,102101,6,0,P|141:290|131:222,1,90,4|2,0:3|0:0,0:0:0:0:
18,115,102423,2,0,P|55:139|99:150,1,90,4|0,0:3|0:0,0:0:0:0:
279,88,102746,1,4,0:3:0:0:
275,92,103068,1,4,0:3:0:0:
419,315,103391,2,0,P|468:281|485:236,1,90,4|0,0:3|0:0,0:0:0:0:
346,127,103714,2,0,P|371:163|377:208,1,90,2|0,0:0|0:0,0:0:0:0:
312,296,104036,1,2,0:0:0:0:
150,144,104359,1,2,0:0:0:0:
225,222,104520,1,2,0:0:0:0:
312,296,104681,6,0,L|195:291,1,108,4|0,0:0|0:0,0:0:0:0:
97,309,105326,2,0,P|133:277|135:250,1,72,2|0,0:0|0:0,0:0:0:0:
127,183,105810,2,0,P|107:153|73:144,1,72,2|0,0:0|0:0,0:0:0:0:
21,194,106294,1,2,0:0:0:0:
202,218,106616,1,2,0:0:0:0:
128,62,106939,1,0,0:0:0:0:
316,128,107262,6,0,L|237:124,1,72,2|0,0:0|0:0,0:0:0:0:
370,247,107907,2,0,L|449:243,1,72,2|0,0:0|0:0,0:0:0:0:
483,184,108390,1,0,0:0:0:0:
467,113,108552,1,2,0:0:0:0:
411,67,108713,1,0,0:0:0:0:
339,71,108874,2,0,L|346:120,1,36,2|0,0:0|0:0,0:0:0:0:
308,169,109197,1,2,0:0:0:0:
304,173,109278,1,2,0:0:0:0:
300,177,109358,1,2,0:0:0:0:
260,237,109520,2,0,L|267:286,1,36,2|2,0:0|0:0,0:0:0:0:
207,355,109842,6,0,P|148:352|107:328,1,108,2|0,0:0|0:0,0:0:0:0:
70,265,110487,2,0,L|66:185,1,72,2|0,0:0|0:0,0:0:0:0:
134,167,110972,2,0,L|137:238,1,72,2|0,0:0|0:0,0:0:0:0:
185,292,111455,1,2,0:0:0:0:
282,185,111778,1,0,0:0:0:0:
337,318,112100,1,2,0:0:0:0:
309,251,112261,1,2,0:0:0:0:
282,185,112423,6,0,P|321:198|360:190,1,72,2|0,0:0|0:0,0:0:0:0:
421,261,112907,2,0,P|453:246|475:218,1,72,2|0,0:0|0:0,0:0:0:0:
498,104,113391,1,2,0:0:0:0:
498,104,113552,2,0,L|494:32,1,72,2|0,0:0|0:0,0:0:0:0:
339,26,114036,6,0,P|364:35|393:61,1,53.9999983520508,2|0,0:0|0:0,0:0:0:0:
343,195,114359,2,0,P|339:159|326:125,1,72,2|0,0:0|0:0,0:0:0:0:
172,124,114681,2,0,P|207:137|248:192,1,90,2|0,0:0|0:0,0:0:0:0:
90,363,115004,6,0,P|179:304|169:197,1,225,4|0,3:1|1:0,0:0:0:0:
0,215,115488,2,0,P|54:207|92:167,1,112.5,2|4,0:0|0:3,0:0:0:0:
38,0,115810,1,4,0:3:0:0:
236,75,115972,1,0,1:0:0:0:
31,93,116133,2,0,L|143:85,1,112.5,0|4,0:0|0:3,0:0:0:0:
266,229,116455,1,4,0:3:0:0:
337,50,116617,1,0,1:0:0:0:
509,244,116778,2,0,L|396:236,1,112.5,4|0,0:3|0:0,0:0:0:0:
204,158,117101,1,4,0:3:0:0:
308,317,117262,1,0,1:0:0:0:
117,289,117424,1,2,0:0:0:0:
256,102,117585,6,0,P|283:155|260:214,1,112.5,4|0,0:3|0:0,0:0:0:0:
165,363,117907,1,0,1:0:0:0:
121,164,118068,2,0,P|139:107|197:81,1,112.5,2|4,0:0|0:3,0:0:0:0:
368,138,118392,1,4,0:3:0:0:
170,237,118552,2,0,L|52:223,1,112.5,0|0,1:0|0:0,0:0:0:0:
173,377,118875,1,4,0:3:0:0:
363,366,119036,1,4,0:3:0:0:
481,214,119198,2,0,L|468:71,1,112.5,0|4,1:0|0:3,0:0:0:0:
281,70,119520,2,0,L|365:152,1,112.5,0|4,0:0|0:3,0:0:0:0:
489,297,119843,1,0,1:0:0:0:
257,226,120004,1,2,0:0:0:0:
257,226,120085,1,2,0:0:0:0:
257,226,120165,6,0,P|368:214|481:214,1,225,4|0,0:3|1:0,0:0:0:0:
333,33,120649,2,0,P|282:57|256:107,1,112.5,2|4,0:0|0:3,0:0:0:0:
314,288,120971,1,4,0:3:0:0:
106,152,121133,1,0,1:0:0:0:
327,206,121294,2,0,L|215:198,1,112.5,0|4,0:0|0:3,0:0:0:0:
149,18,121616,1,0,0:0:0:0:
317,110,121778,1,0,1:0:0:0:
93,239,121939,2,0,L|206:231,1,112.5,0|4,0:0|0:3,0:0:0:0:
371,327,122262,1,4,0:3:0:0:
262,169,122423,1,0,1:0:0:0:
215,344,122585,1,2,0:0:0:0:
110,131,122746,6,0,P|114:187|43:278,1,168.75,4|0,0:3|0:0,0:0:0:0:
46,270,123068,2,0,P|32:214|50:147,1,112.5,0|2,1:0|0:0,0:0:0:0:
166,14,123391,1,4,0:3:0:0:
261,180,123553,1,4,0:3:0:0:
46,83,123714,2,0,L|171:87,1,112.5,0|0,1:0|0:0,0:0:0:0:
352,96,124036,1,4,0:3:0:0:
352,96,124197,1,4,0:3:0:0:
190,250,124359,2,0,L|315:246,1,112.5,0|4,1:0|0:3,0:0:0:0:
494,239,124682,1,4,0:3:0:0:
352,96,124843,1,0,1:0:0:0:
352,96,124924,1,0,1:0:0:0:
352,96,125005,1,4,0:3:0:0:
317,320,125165,1,0,1:0:0:0:
317,320,125246,1,0,1:0:0:0:
317,319,125326,6,0,P|363:290|373:239,1,108,2|0,0:0|0:0,0:0:0:0:
321,165,125649,5,4,3:2:0:0:
163,223,125810,2,0,B|128:261|128:261|301:245,1,225
454,129,126294,1,0,1:0:0:0:
293,26,126455,2,0,P|304:91|302:154,1,112.5,0|4,0:0|0:3,0:0:0:0:
204,302,126778,1,4,0:3:0:0:
371,211,126939,1,0,1:0:0:0:
178,83,127101,2,0,P|167:148|169:211,1,112.5,4|0,0:3|0:0,0:0:0:0:
315,315,127423,1,4,0:3:0:0:
359,129,127584,1,0,1:0:0:0:
227,268,127746,1,2,0:0:0:0:
161,60,127907,6,0,L|43:78,1,112.5,4|0,0:3|0:0,0:0:0:0:
240,185,128229,2,0,L|351:198,1,112.5,0|2,1:0|0:0,0:0:0:0:
134,280,128552,1,4,0:3:0:0:
224,101,128713,1,4,0:3:0:0:
18,141,128875,1,0,1:0:0:0:
99,362,129036,2,0,P|154:368|192:218,1,225,0|4,0:0|0:3,0:0:0:0:
295,84,129519,2,0,P|290:138|245:169,1,112.5,0|4,1:0|0:3,0:0:0:0:
57,87,129843,1,0,0:0:0:0:
207,235,130004,1,4,0:3:0:0:
264,25,130165,1,0,1:0:0:0:
107,171,130326,1,2,0:0:0:0:
107,171,130406,1,2,0:0:0:0:
107,171,130488,6,0,P|189:124|290:150,1,168.75,4|0,0:3|0:0,0:0:0:0:
324,165,130810,1,0,1:0:0:0:
460,16,130971,2,0,P|418:51|402:104,1,112.5,2|4,0:0|0:3,0:0:0:0:
430,294,131294,1,4,0:3:0:0:
334,96,131455,1,0,1:0:0:0:
208,284,131616,2,0,P|271:260|351:269,1,112.5,0|4,0:0|0:3,0:0:0:0:
475,365,131939,1,0,0:0:0:0:
477,174,132100,1,0,1:0:0:0:
385,374,132261,2,0,P|337:347|282:338,1,112.5,0|4,0:0|0:3,0:0:0:0:
90,365,132584,1,4,0:3:0:0:
150,183,132745,1,0,1:0:0:0:
281,338,132907,1,2,0:0:0:0:
46,238,133068,6,0,B|145:284|145:284|273:253,1,225,4|0,0:3|1:0,0:0:0:0:
419,153,133552,2,0,B|360:161|360:161|293:118,1,112.5,2|4,0:0|0:3,0:0:0:0:
171,5,133875,1,4,0:3:0:0:
177,195,134036,1,0,1:0:0:0:
309,19,134197,1,0,0:0:0:0:
88,124,134358,2,0,P|137:89|190:87,1,112.5,4|4,0:3|0:3,0:0:0:0:
244,277,134681,2,0,P|222:226|177:195,1,112.5,0|4,1:0|0:3,0:0:0:0:
70,354,135004,1,4,0:3:0:0:
20,178,135165,1,0,1:0:0:0:
20,178,135246,1,0,1:0:0:0:
20,178,135327,1,4,0:3:0:0:
180,350,135487,1,0,1:0:0:0:
180,350,135568,1,0,1:0:0:0:
180,350,135649,6,0,L|383:345,1,180,4|0,0:2|1:0,0:0:0:0:
466,235,136133,1,2,0:0:0:0:
466,235,136456,1,2,0:0:0:0:
333,139,136617,2,0,L|344:249,1,90,0|0,1:0|0:0,0:0:0:0:
443,343,136939,1,4,0:3:0:0:
274,260,137101,2,0,L|265:170,1,90,2|0,0:0|1:0,0:0:0:0:
120,59,137424,2,0,B|189:117|225:22|298:68,1,180,2|0,0:0|0:0,0:0:0:0:
400,168,137907,1,0,1:0:0:0:
483,1,138069,6,0,P|437:22|404:69,1,90,2|4,0:0|0:3,0:0:0:0:
320,173,138391,1,2,0:0:0:0:
469,205,138552,2,0,P|473:154|449:102,1,90,0|0,1:0|0:0,0:0:0:0:
315,67,138875,1,4,0:3:0:0:
256,208,139036,1,2,0:0:0:0:
197,67,139197,1,0,1:0:0:0:
100,185,139359,1,0,0:0:0:0:
256,126,139520,5,4,0:3:0:0:
113,15,139682,2,0,L|120:128,1,90,2|0,0:0|1:0,0:0:0:0:
111,257,140004,1,0,0:0:0:0:
18,134,140166,1,4,0:3:0:0:
192,170,140327,1,0,0:0:0:0:
192,170,140488,1,0,1:0:0:0:
19,230,140649,1,2,0:0:0:0:
187,318,140811,6,0,B|278:341|278:341|381:300,1,180,4|0,0:3|1:0,0:0:0:0:
455,190,141295,1,2,0:0:0:0:
322,114,141455,2,0,P|324:158|339:201,1,90,4|2,0:3|0:0,0:0:0:0:
278,341,141778,2,0,P|292:298|295:253,1,90,0|2,1:0|0:0,0:0:0:0:
112,161,142101,2,0,P|193:194|219:277,1,180,4|0,0:3|1:0,0:0:0:0:
97,370,142585,1,2,0:0:0:0:
58,222,142746,2,0,B|99:248|99:248|148:236,1,90,4|2,0:3|0:0,0:0:0:0:
279,154,143068,2,0,B|238:144|238:144|197:170,1,90,0|2,1:0|0:0,0:0:0:0:
184,378,143391,6,0,B|199:301|199:301|178:201,1,180,4|0,0:3|1:0,0:0:0:0:
135,53,143875,1,2,0:0:0:0:
13,145,144036,2,0,L|118:135,1,90,4|2,0:3|0:0,0:0:0:0:
269,119,144359,2,0,L|179:127,1,90,0|2,1:0|0:0,0:0:0:0:
0,218,144682,2,0,L|200:199,1,180,4|0,0:3|1:0,0:0:0:0:
319,263,145166,1,2,0:0:0:0:
364,117,145327,1,4,0:3:0:0:
454,251,145488,1,0,1:0:0:0:
454,251,145569,1,0,1:0:0:0:
454,251,145650,1,4,0:3:0:0:
276,126,145811,1,0,1:0:0:0:
276,126,145892,1,0,1:0:0:0:
276,126,145972,6,0,P|287:74|326:37,1,107.999996704102,4|0,3:1|0:0,0:0:0:0:
495,109,146295,1,0,1:0:0:0:
352,224,146456,1,2,0:0:0:0:
418,53,146617,1,4,0:3:0:0:
456,232,146778,1,2,0:0:0:0:
330,96,146940,1,0,1:0:0:0:
277,271,147101,1,2,0:0:0:0:
78,184,147262,2,0,P|181:154|294:175,1,215.999993408203,4|0,0:3|1:0,0:0:0:0:
381,329,147746,1,2,0:0:0:0:
412,148,147907,1,4,0:3:0:0:
277,271,148068,1,2,0:0:0:0:
459,252,148230,1,0,1:0:0:0:
287,172,148391,1,2,0:0:0:0:
127,92,148553,6,0,L|139:219,1,107.999996704102,4|2,0:3|0:0,0:0:0:0:
49,361,148876,1,0,1:0:0:0:
192,246,149037,1,2,0:0:0:0:
368,295,149198,1,4,0:3:0:0:
225,180,149359,1,2,0:0:0:0:
48,230,149520,1,0,1:0:0:0:
191,115,149681,1,2,0:0:0:0:
148,371,149843,2,0,P|118:253|152:169,1,215.999993408203,4|0,0:3|1:0,0:0:0:0:
302,63,150327,1,2,0:0:0:0:
319,245,150488,1,4,0:3:0:0:
151,169,150649,1,2,0:0:0:0:
334,153,150811,1,0,1:0:0:0:
207,285,150972,1,2,0:0:0:0:
218,70,151133,6,0,P|234:115|228:176,1,107.999996704102,4|2,0:3|0:0,0:0:0:0:
56,240,151456,1,0,1:0:0:0:
74,57,151617,1,2,0:0:0:0:
229,174,151778,2,0,L|339:167,1,107.999996704102,4|2,0:3|0:0,0:0:0:0:
511,226,152101,2,0,L|401:219,1,107.999996704102,0|2,1:0|0:0,0:0:0:0:
190,304,152424,2,0,L|420:290,1,215.999993408203,4|0,0:3|1:0,0:0:0:0:
479,121,152908,1,2,0:0:0:0:
313,42,153069,2,0,P|299:89|321:159,1,107.999996704102,4|2,0:3|0:0,0:0:0:0:
138,205,153391,2,0,P|161:248|226:282,1,107.999996704102,0|2,1:0|0:0,0:0:0:0:
437,211,153714,6,0,P|387:209|326:249,1,107.999996704102,4|2,0:3|0:0,0:0:0:0:
196,354,154036,1,0,1:0:0:0:
380,346,154198,1,2,0:0:0:0:
251,202,154359,2,0,L|251:94,1,107.999996704102,4|2,0:3|0:0,0:0:0:0:
418,17,154681,2,0,L|417:124,1,107.999996704102,0|2,1:0|0:0,0:0:0:0:
179,262,155004,2,0,L|182:8,1,215.999993408203,4|0,0:3|1:0,0:0:0:0:
29,149,155488,1,2,0:0:0:0:
87,322,155649,1,4,0:3:0:0:
270,336,155811,1,8,0:2:0:0:
356,174,155972,1,8,1:2:0:0:
254,21,156133,1,8,0:2:0:0:
122,145,156294,6,0,P|156:154|192:153,1,72,6|2,0:0|0:0,0:0:0:0:
259,126,156617,1,0,0:0:0:0:
319,86,156778,1,2,0:0:0:0:
389,72,156939,1,0,0:0:0:0:
471,141,157101,1,2,0:0:0:0:
353,210,157262,1,2,0:0:0:0:
458,74,157423,1,0,0:0:0:0:
433,276,157585,6,0,L|426:174,1,72,2|2,0:0|0:0,0:0:0:0:
384,146,157907,1,0,0:0:0:0:
312,144,158068,1,2,0:0:0:0:
274,205,158229,1,0,0:0:0:0:
195,264,158391,1,2,0:0:0:0:
208,129,158552,1,2,0:0:0:0:
318,261,158713,1,0,0:0:0:0:
131,204,158875,6,0,L|224:194,1,72,2|2,0:0|0:0,0:0:0:0:
274,205,159197,1,0,0:0:0:0:
318,261,159358,1,2,0:0:0:0:
300,330,159519,1,0,0:0:0:0:
224,361,159681,1,2,0:0:0:0:
149,309,159842,1,2,0:0:0:0:
157,209,160003,1,0,0:0:0:0:
256,134,160165,6,0,P|269:166|296:190,1,72,2|2,0:0|0:0,0:0:0:0:
366,207,160488,1,0,0:0:0:0:
421,160,160649,1,2,0:0:0:0:
421,88,160810,1,0,0:0:0:0:
346,58,160972,2,0,P|339:87|350:130,2,72,2|2|0,0:0|0:0|0:0,0:0:0:0:
498,233,161455,6,0,L|425:230,1,72,2|2,0:0|0:0,0:0:0:0:
387,289,161777,1,0,0:0:0:0:
322,319,161939,1,2,0:0:0:0:
254,298,162101,1,0,0:0:0:0:
212,209,162261,1,2,0:0:0:0:
156,301,162422,1,2,0:0:0:0:
119,153,162585,1,0,0:0:0:0:
62,325,162746,6,0,P|60:285|80:242,1,72,2|2,0:0|0:0,0:0:0:0:
137,227,163068,1,0,0:0:0:0:
212,209,163229,1,2,0:0:0:0:
252,149,163390,1,0,0:0:0:0:
231,52,163552,1,2,0:0:0:0:
129,89,163713,1,2,0:0:0:0:
137,227,163874,1,0,0:0:0:0:
252,149,164036,6,0,P|285:160|308:187,1,72,2|2,0:0|0:0,0:0:0:0:
310,258,164358,1,0,0:0:0:0:
274,322,164519,1,2,0:0:0:0:
203,322,164680,1,0,0:0:0:0:
133,255,164842,1,2,0:0:0:0:
163,135,165003,1,2,0:0:0:0:
324,146,165164,1,0,0:0:0:0:
274,322,165326,6,0,L|253:230,1,72,2|0,0:0|0:0,0:0:0:0:
243,134,165648,1,2,0:0:0:0:
342,230,165809,1,2,0:0:0:0:
378,68,165972,1,2,0:0:0:0:
256,192,166778,12,0,168068,0:0:0:0:
