osu file format v14

[General]
AudioFilename: audio.ogg
AudioLeadIn: 0
PreviewTime: 87968
Countdown: 0
SampleSet: Soft
StackLeniency: 0.7
Mode: 0
LetterboxInBreaks: 0
WidescreenStoryboard: 1

[Editor]
Bookmarks: 6986,18553,30119,41685,53251,64818,76384,87950,99517,107830,111083,119757,122649,134215,145782,151203
DistanceSpacing: 1
BeatDivisor: 4
GridSize: 4
TimelineZoom: 1.2

[Metadata]
Title:Kuu ni Naru
TitleUnicode:くうになる
Artist:MIMI
ArtistUnicode:MIMI
Creator:ThunderBird2678
Version:Reiszen's Insane
Source:
Tags:japanese pop jpop j-pop vocaloid 初音ミク 可不 Hatsune Miku KAFU CeVIO Creative Studio AI けけ ktwr_ 瀬戸わらび yk__rm はるお haluo_haluo 空になる HlqlkKvcHhk Crypton Future Media クリプトン・フューチャー・メディア株式会社 Kuriputon Fyūchā Kabushiki gaisha Yamaha Corporation ヤマハ株式会社 kabushiki 音楽的同位体 Song Voice ソングボイス KAF 花譜 KAMITSUBAKI STUDIO 神椿スタジオ Reiszen PlainDarkness KuroNekowo Tiff tiffany yu tyu ft ft. feat featuring
BeatmapID:3438235
BeatmapSetID:1676605

[Difficulty]
HPDrainRate:5
CircleSize:4
OverallDifficulty:8
ApproachRate:8.8
SliderMultiplier:1.65
SliderTickRate:1

[Events]
//Background and Video events
0,0,"becoming the wind.jpg",0,0
Video,10,"kuu_ni_naru_vid_1_1.mp4"
//Break Periods
//Storyboard Layer 0 (Background)
//Storyboard Layer 1 (Fail)
//Storyboard Layer 2 (Pass)
//Storyboard Layer 3 (Foreground)
//Storyboard Layer 4 (Overlay)
//Storyboard Sound Samples

[TimingPoints]
-242,361.44578313253,4,2,1,70,1,0
480,-100,4,2,10,49,0,0
842,-100,4,2,10,63,0,0
1925,-100,4,2,10,52,0,0
2648,-100,4,2,10,56,0,0
3371,-100,4,2,10,59,0,0
4094,-100,4,2,10,52,0,0
4817,-100,4,2,10,56,0,0
5540,-100,4,2,10,59,0,0
6264,-100,4,2,10,42,0,0
6986,-100,4,2,11,49,0,0
7709,-100,4,2,12,49,0,0
7979,-100,4,2,13,49,0,0
8070,-100,4,2,13,56,0,0
8432,-100,4,2,14,56,0,0
8613,-100,4,2,11,56,0,0
8793,-100,4,2,11,52,0,0
9155,-100,4,2,15,49,0,0
9336,-100,4,2,10,49,0,0
9878,-100,4,2,15,52,0,0
10239,-100,4,2,10,52,0,0
10420,-100,4,2,11,52,0,0
10601,-100,4,2,15,49,0,0
10782,-100,4,2,16,49,0,0
11324,-100,4,2,17,52,0,0
11685,-100,4,2,17,56,0,0
11866,-100,4,2,18,56,0,0
12047,-100,4,2,17,63,0,0
12408,-100,4,2,10,63,0,0
12770,-100,4,2,11,49,0,0
13492,-100,4,2,12,49,0,0
13762,-100,4,2,13,49,0,0
13853,-100,4,2,13,56,0,0
14215,-100,4,2,14,56,0,0
14396,-100,4,2,19,56,0,0
14576,-100,4,2,19,52,0,0
14938,-100,4,2,12,49,0,0
15118,-100,4,2,10,49,0,0
15661,-100,4,2,15,52,0,0
16023,-100,4,2,10,52,0,0
16203,-100,4,2,11,52,0,0
16384,-100,4,2,15,49,0,0
16925,-100,4,2,20,49,0,0
17107,-100,4,2,21,52,0,0
17468,-100,4,2,21,56,0,0
17648,-100,4,2,16,56,0,0
17830,-100,4,2,17,52,0,0
18011,-100,4,2,10,42,0,0
18553,-100,4,2,22,49,0,0
18914,-100,4,2,24,49,0,0
19095,-100,4,2,22,49,0,0
19276,-100,4,2,20,49,0,0
19455,-100,4,2,25,49,0,0
19637,-100,4,2,26,56,0,0
19818,-100,4,2,20,56,0,0
19998,-100,4,2,27,56,0,0
20177,-100,4,2,22,56,0,0
20359,-100,4,2,28,52,0,0
20541,-100,4,2,22,52,0,0
20721,-100,4,2,26,49,0,0
20901,-100,4,2,10,49,0,0
21083,-100,4,2,23,49,0,0
21263,-100,4,2,22,49,0,0
21444,-100,4,2,26,52,0,0
21806,-100,4,2,23,52,0,0
21986,-100,4,2,22,52,0,0
22167,-100,4,2,26,49,0,0
22347,-100,4,2,29,49,0,0
22529,-100,4,2,25,49,0,0
22709,-100,4,2,24,49,0,0
22890,-100,4,2,28,52,0,0
23070,-100,4,2,29,52,0,0
23251,-100,4,2,23,56,0,0
23431,-100,4,2,25,56,0,0
23613,-100,4,2,28,63,0,0
23794,-100,4,2,10,42,0,0
24336,-100,4,2,22,49,0,0
24697,-100,4,2,23,49,0,0
24878,-100,4,2,22,49,0,0
25059,-100,4,2,20,49,0,0
25238,-100,4,2,26,49,0,0
25420,-100,4,2,25,56,0,0
25601,-100,4,2,20,56,0,0
25782,-100,4,2,27,56,0,0
25960,-100,4,2,28,56,0,0
26143,-100,4,2,26,52,0,0
26324,-100,4,2,27,52,0,0
26504,-100,4,2,20,49,0,0
26684,-100,4,2,10,49,0,0
26866,-100,4,2,28,49,0,0
27046,-100,4,2,22,49,0,0
27227,-100,4,2,26,52,0,0
27589,-100,4,2,24,52,0,0
27770,-100,4,2,22,52,0,0
27950,-100,4,2,26,49,0,0
28130,-100,4,2,23,49,0,0
28492,-100,4,2,30,49,0,0
28673,-100,4,2,23,52,0,0
28853,-100,4,2,29,52,0,0
29035,-100,4,2,23,56,0,0
29215,-100,4,2,24,56,0,0
29396,-100,4,2,28,42,0,0
29757,-100,4,2,31,42,0,0
30119,-100,4,2,32,56,0,0
30480,-100,4,2,31,49,0,0
30661,-100,4,2,33,49,0,0
30842,-100,4,2,34,63,0,0
31203,-100,4,2,31,56,0,0
31565,-100,4,2,35,49,0,0
31926,-100,4,2,31,49,0,0
32107,-100,4,2,36,46,0,0
32288,-100,4,2,37,46,0,0
32649,-100,4,2,31,42,0,0
33011,-100,4,2,37,56,0,0
33372,-100,4,2,31,49,0,0
33553,-100,4,2,33,49,0,0
33733,-100,4,2,34,63,0,0
34095,-100,4,2,31,56,0,0
34456,-100,4,2,35,49,0,0
34818,-100,4,2,31,49,0,0
34998,-100,4,2,36,49,0,0
35179,-100,4,2,38,49,0,0
35541,-100,4,2,31,49,0,0
35902,-100,4,2,39,63,0,0
36264,-100,4,2,31,56,0,0
36444,-100,4,2,33,56,0,0
36625,-100,4,2,40,70,0,0
36986,-100,4,2,31,59,0,0
37166,-100,4,2,41,59,0,0
37348,-100,4,2,42,59,0,0
37529,-100,4,2,31,59,0,0
37709,-100,4,2,31,63,0,0
37890,-100,4,2,36,63,0,0
38071,-100,4,2,43,63,0,0
38432,-100,4,2,31,66,0,0
38794,-100,4,2,44,70,0,0
39155,-100,4,2,10,70,0,0
39335,-100,4,2,45,70,0,0
39517,-100,4,2,40,63,0,0
39697,-100,4,2,31,63,0,0
39878,-100,4,2,31,66,0,0
40059,-100,4,2,46,66,0,0
40239,-100,4,2,47,59,0,0
40601,-100,4,2,36,56,0,0
40962,-100,4,2,48,59,0,0
41324,-100,4,2,31,52,0,0
41504,-100,4,2,31,59,0,0
41685,-100,4,2,49,66,0,0
41865,-100,4,2,15,66,0,0
42227,-100,4,2,51,66,0,0
42408,-100,4,2,52,66,0,0
42770,-100,4,2,53,70,0,0
42950,-100,4,2,26,70,0,0
43131,-100,4,2,54,70,0,0
43492,-100,4,2,55,63,0,0
43673,-100,4,2,18,63,0,0
43854,-100,4,2,17,63,0,0
44215,-100,4,2,52,56,0,0
44395,-100,4,2,27,56,0,0
44577,-100,4,2,21,56,0,0
44938,-100,4,2,15,63,0,0
45118,-100,4,2,51,63,0,0
45300,-100,4,2,52,63,0,0
45661,-100,4,2,53,52,0,0
45842,-100,4,2,26,52,0,0
46023,-100,4,2,54,56,0,0
46384,-100,4,2,15,56,0,0
46565,-100,4,2,18,56,0,0
46745,-100,4,2,17,63,0,0
46925,-100,4,2,54,63,0,0
47107,-100,4,2,18,63,0,0
47287,-100,4,2,10,63,0,0
47468,-100,4,2,21,59,0,0
47648,-100,4,2,15,59,0,0
48011,-100,4,2,51,59,0,0
48191,-100,4,2,52,63,0,0
48371,-100,4,2,27,63,0,0
48553,-100,4,2,53,63,0,0
48733,-100,4,2,54,63,0,0
48914,-100,4,2,54,66,0,0
49094,-100,4,2,57,66,0,0
49276,-100,4,2,20,66,0,0
49456,-100,4,2,18,66,0,0
49637,-100,4,2,17,66,0,0
49817,-100,4,2,26,66,0,0
49998,-100,4,2,58,59,0,0
50179,-100,4,2,21,59,0,0
50360,-100,4,2,49,63,0,1
50540,-100,4,2,15,63,0,1
50721,-100,4,2,59,66,0,1
50901,-100,4,2,17,66,0,1
51083,-100,4,2,58,70,0,1
51263,-100,4,2,27,70,0,1
51444,-100,4,2,22,66,0,1
51624,-100,4,2,57,66,0,1
51806,-100,4,2,54,70,0,1
51986,-100,4,2,21,70,0,1
52167,-100,4,2,52,63,0,1
52348,-100,4,2,21,63,0,1
52529,-100,4,2,21,56,0,1
52619,-100,4,2,31,56,0,1
52890,-100,4,2,20,49,0,1
53070,-100,4,2,11,52,0,1
53251,-86.9565217391304,4,2,49,59,0,0
53613,-86.9565217391304,4,2,31,59,0,0
53974,-86.9565217391304,4,2,11,59,0,0
54336,-86.9565217391304,4,2,11,52,0,0
54517,-86.9565217391304,4,2,31,52,0,0
54697,-86.9565217391304,4,2,10,56,0,0
55059,-86.9565217391304,4,2,11,56,0,0
55239,-86.9565217391304,4,2,31,59,0,0
55420,-86.9565217391304,4,2,11,59,0,0
55782,-86.9565217391304,4,2,11,52,0,0
55962,-86.9565217391304,4,2,31,52,0,0
56143,-86.9565217391304,4,2,10,49,0,0
56504,-86.9565217391304,4,2,11,49,0,0
56684,-86.9565217391304,4,2,31,49,0,0
56866,-86.9565217391304,4,2,11,52,0,0
57589,-86.9565217391304,4,2,11,59,0,0
57770,-86.9565217391304,4,2,10,59,0,0
57950,-86.9565217391304,4,2,11,59,0,0
58131,-86.9565217391304,4,2,10,59,0,0
58312,-86.9565217391304,4,2,10,66,0,0
58492,-86.9565217391304,4,2,11,66,0,0
58673,-86.9565217391304,4,2,11,49,0,0
59035,-86.9565217391304,4,2,11,59,0,0
59396,-86.9565217391304,4,2,31,59,0,0
59757,-86.9565217391304,4,2,11,59,0,0
60119,-86.9565217391304,4,2,11,52,0,0
60300,-86.9565217391304,4,2,31,52,0,0
60480,-86.9565217391304,4,2,10,56,0,0
60842,-86.9565217391304,4,2,11,56,0,0
60932,-86.9565217391304,4,2,10,56,0,0
61023,-86.9565217391304,4,2,11,59,0,0
61113,-86.9565217391304,4,2,10,59,0,0
61565,-86.9565217391304,4,2,11,52,0,0
61745,-86.9565217391304,4,2,31,52,0,0
61926,-86.9565217391304,4,2,10,49,0,0
62288,-86.9565217391304,4,2,11,49,0,0
62468,-86.9565217391304,4,2,31,49,0,0
62649,-86.9565217391304,4,2,11,52,0,0
63372,-86.9565217391304,4,2,11,59,0,0
63553,-86.9565217391304,4,2,10,59,0,0
63733,-86.9565217391304,4,2,11,59,0,0
63914,-86.9565217391304,4,2,10,59,0,0
64095,-86.9565217391304,4,2,10,66,0,0
64275,-86.9565217391304,4,2,11,66,0,0
64456,-86.9565217391304,4,2,11,49,0,0
65179,-100,4,2,16,49,0,0
65359,-100,4,2,11,49,0,0
65541,-100,4,2,13,49,0,0
65721,-100,4,2,18,49,0,0
65902,-100,4,2,56,56,0,0
66083,-100,4,2,13,56,0,0
66264,-100,4,2,19,56,0,0
66442,-100,4,2,11,56,0,0
66625,-100,4,2,60,52,0,0
66806,-100,4,2,11,52,0,0
66986,-100,4,2,56,49,0,0
67166,-100,4,2,10,49,0,0
67348,-100,4,2,27,49,0,0
67528,-100,4,2,11,49,0,0
67709,-100,4,2,56,52,0,0
68071,-100,4,2,27,52,0,0
68250,-100,4,2,11,52,0,0
68432,-100,4,2,56,49,0,0
68613,-100,4,2,26,49,0,0
68794,-100,4,2,61,49,0,0
68974,-100,4,2,16,49,0,0
69155,-100,4,2,51,52,0,0
69336,-100,4,2,26,52,0,0
69517,-100,4,2,27,56,0,0
69697,-100,4,2,18,56,0,0
69878,-100,4,2,51,63,0,0
70239,-100,4,2,10,42,0,0
70601,-100,4,2,11,49,0,0
70962,-100,4,2,27,49,0,0
71142,-100,4,2,11,49,0,0
71324,-100,4,2,13,49,0,0
71504,-100,4,2,56,49,0,0
71685,-100,4,2,61,56,0,0
71866,-100,4,2,13,56,0,0
72047,-100,4,2,19,56,0,0
72225,-100,4,2,51,56,0,0
72408,-100,4,2,56,52,0,0
72589,-100,4,2,19,52,0,0
72770,-100,4,2,13,49,0,0
72950,-100,4,2,10,49,0,0
73131,-100,4,2,60,49,0,0
73311,-100,4,2,11,49,0,0
73492,-100,4,2,56,52,0,0
73854,-100,4,2,16,52,0,0
74033,-100,4,2,11,52,0,0
74215,-100,4,2,56,49,0,0
74396,-100,4,2,27,49,0,0
74757,-100,4,2,20,49,0,0
74938,-100,4,2,27,52,0,0
75119,-100,4,2,26,52,0,0
75300,-100,4,2,27,56,0,0
75480,-100,4,2,16,56,0,0
75570,-100,4,2,10,56,0,0
75661,-100,4,2,60,42,0,0
76023,-100,4,2,31,42,0,0
76384,-100,4,2,62,56,0,0
76745,-100,4,2,31,49,0,0
76926,-100,4,2,63,49,0,0
77107,-100,4,2,64,63,0,0
77468,-100,4,2,31,56,0,0
77830,-100,4,2,65,49,0,0
78191,-100,4,2,31,49,0,0
78371,-100,4,2,66,46,0,0
78553,-100,4,2,67,46,0,0
78914,-100,4,2,31,42,0,0
79276,-100,4,2,68,56,0,0
79637,-100,4,2,31,49,0,0
79818,-100,4,2,63,49,0,0
79998,-100,4,2,64,63,0,0
80360,-100,4,2,31,56,0,0
80721,-100,4,2,65,49,0,0
81083,-100,4,2,31,49,0,0
81263,-100,4,2,66,49,0,0
81444,-100,4,2,69,49,0,0
81806,-100,4,2,31,49,0,0
82167,-100,4,2,68,63,0,0
82529,-100,4,2,31,56,0,0
82709,-100,4,2,63,56,0,0
82890,-100,4,2,64,70,0,0
83251,-100,4,2,31,59,0,0
83431,-100,4,2,70,59,0,0
83613,-100,4,2,65,59,0,0
83794,-100,4,2,31,59,0,0
83974,-100,4,2,31,63,0,0
84154,-100,4,2,66,63,0,0
84336,-100,4,2,71,63,0,0
84697,-100,4,2,31,66,0,0
85059,-100,4,2,72,70,0,0
85420,-100,4,2,10,70,0,0
85600,-100,4,2,73,70,0,0
85782,-100,4,2,64,63,0,0
85962,-100,4,2,31,63,0,0
86143,-100,4,2,31,66,0,0
86323,-100,4,2,74,66,0,0
86504,-100,4,2,75,59,0,0
86866,-100,4,2,66,56,0,0
87227,-100,4,2,76,59,0,0
87589,-100,4,2,77,52,0,0
87950,-100,4,2,49,66,0,0
88130,-100,4,2,15,66,0,0
88492,-100,4,2,51,66,0,0
88673,-100,4,2,52,59,0,0
89035,-100,4,2,53,63,0,0
89215,-100,4,2,26,63,0,0
89396,-100,4,2,54,63,0,0
89757,-100,4,2,55,56,0,0
89937,-100,4,2,18,56,0,0
90119,-100,4,2,17,56,0,0
90480,-100,4,2,52,49,0,0
90660,-100,4,2,27,49,0,0
90842,-100,4,2,21,49,0,0
91203,-100,4,2,15,56,0,0
91383,-100,4,2,51,56,0,0
91565,-100,4,2,52,56,0,0
91926,-100,4,2,53,46,0,0
92107,-100,4,2,26,46,0,0
92288,-100,4,2,54,49,0,0
92649,-100,4,2,15,49,0,0
92830,-100,4,2,18,49,0,0
93011,-100,4,2,17,56,0,0
93191,-100,4,2,54,56,0,0
93372,-100,4,2,18,56,0,0
93552,-100,4,2,10,56,0,0
93733,-100,4,2,21,52,0,0
93913,-100,4,2,15,52,0,0
94276,-100,4,2,51,52,0,0
94456,-100,4,2,52,56,0,0
94636,-100,4,2,27,56,0,0
94818,-100,4,2,53,56,0,0
94998,-100,4,2,54,56,0,0
95179,-100,4,2,54,59,0,0
95359,-100,4,2,57,59,0,0
95541,-100,4,2,20,59,0,0
95721,-100,4,2,18,59,0,0
95902,-100,4,2,17,59,0,0
96082,-100,4,2,26,59,0,0
96264,-100,4,2,61,42,0,0
96444,-100,4,2,27,42,0,0
96625,-100,4,2,49,56,0,1
96806,-100,4,2,15,56,0,1
96986,-100,4,2,59,59,0,1
97167,-100,4,2,17,59,0,1
97348,-100,4,2,58,63,0,1
97528,-100,4,2,27,63,0,1
97709,-100,4,2,22,59,0,1
97889,-100,4,2,57,59,0,1
98071,-100,4,2,54,63,0,1
98251,-100,4,2,21,63,0,1
98432,-100,4,2,52,56,0,1
98613,-100,4,2,21,56,0,1
98794,-100,4,2,21,49,0,1
98884,-100,4,2,31,49,0,1
99155,-100,4,2,20,42,0,1
99335,-100,4,2,11,46,0,1
99517,-86.9565217391304,4,2,78,66,0,0
99697,-86.9565217391304,4,2,15,66,0,0
100058,-86.9565217391304,4,2,79,66,0,0
100239,-86.9565217391304,4,2,80,66,0,0
100418,-86.9565217391304,4,2,27,66,0,0
100601,-86.9565217391304,4,2,53,70,0,0
100781,-86.9565217391304,4,2,26,70,0,0
100962,-86.9565217391304,4,2,81,70,0,0
101142,-86.9565217391304,4,2,54,70,0,0
101324,-86.9565217391304,4,2,55,63,0,0
101504,-86.9565217391304,4,2,82,63,0,0
101685,-86.9565217391304,4,2,83,63,0,0
101866,-86.9565217391304,4,2,26,63,0,0
102047,-86.9565217391304,4,2,52,56,0,0
102227,-86.9565217391304,4,2,27,56,0,0
102408,-86.9565217391304,4,2,84,56,0,0
102586,-86.9565217391304,4,2,56,56,0,0
102679,-86.9565217391304,4,2,50,56,0,0
102770,-86.9565217391304,4,2,15,63,0,0
102950,-86.9565217391304,4,2,79,63,0,0
103131,-86.9565217391304,4,2,80,63,0,0
103309,-86.9565217391304,4,2,27,63,0,0
103492,-86.9565217391304,4,2,53,52,0,0
103672,-86.9565217391304,4,2,26,52,0,0
103854,-86.9565217391304,4,2,81,56,0,0
104035,-86.9565217391304,4,2,26,56,0,0
104215,-86.9565217391304,4,2,15,56,0,0
104396,-86.9565217391304,4,2,82,56,0,0
104577,-86.9565217391304,4,2,85,63,0,0
104667,-86.9565217391304,4,2,10,63,0,0
104755,-86.9565217391304,4,2,54,63,0,0
104938,-86.9565217391304,4,2,52,63,0,0
105119,-86.9565217391304,4,2,10,63,0,0
105300,-86.9565217391304,4,2,84,59,0,0
105480,-86.9565217391304,4,2,15,59,0,0
105661,-86.9565217391304,4,2,56,59,0,0
105841,-86.9565217391304,4,2,79,59,0,0
106023,-86.9565217391304,4,2,80,63,0,0
106201,-86.9565217391304,4,2,86,63,0,0
106384,-86.9565217391304,4,2,53,63,0,0
106564,-86.9565217391304,4,2,87,63,0,0
106745,-86.9565217391304,4,2,81,66,0,0
106925,-86.9565217391304,4,2,57,66,0,0
107107,-86.9565217391304,4,2,20,66,0,0
107287,-86.9565217391304,4,2,82,66,0,0
107468,-86.9565217391304,4,2,88,66,0,0
107647,-86.9565217391304,4,2,57,66,0,0
107830,-86.9565217391304,4,2,58,59,0,0
108010,-86.9565217391304,4,2,21,59,0,0
108101,-86.9565217391304,4,2,10,59,0,0
108191,-86.9565217391304,4,2,78,63,0,0
108372,-86.9565217391304,4,2,15,63,0,0
108553,-86.9565217391304,4,2,15,66,0,0
108733,-86.9565217391304,4,2,89,66,0,0
108914,-86.9565217391304,4,2,90,70,0,0
109094,-86.9565217391304,4,2,27,70,0,0
109276,-86.9565217391304,4,2,22,66,0,0
109456,-86.9565217391304,4,2,91,66,0,0
109637,-86.9565217391304,4,2,81,70,0,0
109817,-86.9565217391304,4,2,21,70,0,0
109998,-86.9565217391304,4,2,52,63,0,0
110179,-86.9565217391304,4,2,92,63,0,0
110360,-86.9565217391304,4,2,93,56,0,0
110450,-86.9565217391304,4,2,31,56,0,0
110721,-86.9565217391304,4,2,94,49,0,0
110901,-86.9565217391304,4,2,11,52,0,0
111083,-86.9565217391304,4,2,95,56,0,0
111264,-100,4,2,10,46,0,0
111444,-100,4,2,11,46,0,0
111625,-100,4,2,31,46,0,0
111806,-100,4,2,11,52,0,0
112167,-100,4,2,11,49,0,0
112347,-100,4,2,31,49,0,0
112529,-100,4,2,10,56,0,0
112890,-100,4,2,11,56,0,0
113071,-100,4,2,31,56,0,0
113251,-100,4,2,11,52,0,0
113613,-100,4,2,11,46,0,0
113793,-100,4,2,31,46,0,0
113974,-100,4,2,10,59,0,0
114155,-100,4,2,10,52,0,0
114335,-100,4,2,11,52,0,0
114517,-100,4,2,31,52,0,0
114697,-100,4,2,11,56,0,0
115059,-100,4,2,11,59,0,0
115420,-100,4,2,11,56,0,0
115601,-100,4,2,10,56,0,0
115782,-100,4,2,11,56,0,0
115962,-100,4,2,10,56,0,0
116143,-100,4,2,10,63,0,0
116324,-100,4,2,11,63,0,0
116504,-100,4,2,11,49,0,0
116684,-100,4,2,31,49,0,0
116866,-100,4,2,10,63,0,0
117047,-100,4,2,10,49,0,0
117227,-100,4,2,11,49,0,0
117408,-100,4,2,31,49,0,0
117589,-100,4,2,10,52,0,0
117950,-100,4,2,11,52,0,0
118131,-100,4,2,31,52,0,0
118312,-100,4,2,10,56,0,0
118492,-100,4,2,10,52,0,0
118673,-100,4,2,11,49,0,0
118764,-100,4,2,10,49,0,0
118854,-100,4,2,11,56,0,0
118944,-100,4,2,10,56,0,0
119035,-100,4,2,10,63,0,0
119396,-100,4,2,11,52,0,0
119577,-100,4,2,31,52,0,0
119757,-100,4,2,10,63,0,0
120119,-100,4,2,11,63,0,0
120300,-100,4,2,31,63,0,0
120480,-100,4,2,11,59,0,0
121203,-100,4,2,11,63,0,0
121384,-100,4,2,10,63,0,0
121565,-100,4,2,11,63,0,0
121745,-100,4,2,10,63,0,0
121926,-100,4,2,10,66,0,0
122107,-100,4,2,11,66,0,0
122468,-100,4,2,31,66,0,0
122649,-86.9565217391304,4,2,10,70,0,0
123011,-86.9565217391304,4,2,96,49,0,0
123191,-86.9565217391304,4,2,97,49,0,0
123372,-86.9565217391304,4,2,80,59,0,0
123550,-86.9565217391304,4,2,27,59,0,0
123733,-86.9565217391304,4,2,53,63,0,0
123913,-86.9565217391304,4,2,26,63,0,0
124095,-86.9565217391304,4,2,81,63,0,0
124275,-86.9565217391304,4,2,54,63,0,0
124456,-86.9565217391304,4,2,55,56,0,0
124636,-86.9565217391304,4,2,82,56,0,0
124818,-86.9565217391304,4,2,83,56,0,0
124996,-86.9565217391304,4,2,26,56,0,0
125179,-86.9565217391304,4,2,52,49,0,0
125360,-86.9565217391304,4,2,27,49,0,0
125450,-86.9565217391304,4,2,10,49,0,0
125541,-86.9565217391304,4,2,84,49,0,0
125719,-86.9565217391304,4,2,56,49,0,0
125812,-86.9565217391304,4,2,50,49,0,0
125902,-86.9565217391304,4,2,15,56,0,0
126083,-86.9565217391304,4,2,79,56,0,0
126264,-86.9565217391304,4,2,80,56,0,0
126442,-86.9565217391304,4,2,27,56,0,0
126625,-86.9565217391304,4,2,53,46,0,0
126805,-86.9565217391304,4,2,26,46,0,0
126986,-86.9565217391304,4,2,81,49,0,0
127167,-86.9565217391304,4,2,26,49,0,0
127348,-86.9565217391304,4,2,15,49,0,0
127529,-86.9565217391304,4,2,82,49,0,0
127709,-86.9565217391304,4,2,85,56,0,0
127889,-86.9565217391304,4,2,54,56,0,0
128071,-86.9565217391304,4,2,52,56,0,0
128251,-86.9565217391304,4,2,10,56,0,0
128432,-86.9565217391304,4,2,84,52,0,0
128612,-86.9565217391304,4,2,15,52,0,0
128794,-86.9565217391304,4,2,56,52,0,0
128974,-86.9565217391304,4,2,79,52,0,0
129155,-86.9565217391304,4,2,80,56,0,0
129333,-86.9565217391304,4,2,86,56,0,0
129517,-86.9565217391304,4,2,53,56,0,0
129697,-86.9565217391304,4,2,87,56,0,0
129878,-86.9565217391304,4,2,81,59,0,0
130058,-86.9565217391304,4,2,57,59,0,0
130239,-86.9565217391304,4,2,20,59,0,0
130419,-86.9565217391304,4,2,82,59,0,0
130601,-86.9565217391304,4,2,88,59,0,0
130779,-86.9565217391304,4,2,57,59,0,0
130962,-86.9565217391304,4,2,61,42,0,0
131143,-86.9565217391304,4,2,27,42,0,0
131233,-86.9565217391304,4,2,10,42,0,0
131324,-86.9565217391304,4,2,78,56,0,0
131504,-86.9565217391304,4,2,15,56,0,0
131685,-86.9565217391304,4,2,15,59,0,0
131866,-86.9565217391304,4,2,89,59,0,0
132047,-86.9565217391304,4,2,90,63,0,0
132227,-86.9565217391304,4,2,27,63,0,0
132408,-86.9565217391304,4,2,22,59,0,0
132589,-86.9565217391304,4,2,91,59,0,0
132770,-86.9565217391304,4,2,81,63,0,0
132950,-86.9565217391304,4,2,21,63,0,0
133131,-86.9565217391304,4,2,52,56,0,0
133312,-86.9565217391304,4,2,92,56,0,0
133492,-86.9565217391304,4,2,98,49,0,0
133583,-86.9565217391304,4,2,31,49,0,0
133854,-86.9565217391304,4,2,11,42,0,0
134034,-86.9565217391304,4,2,11,46,0,0
134215,-68.9655172413793,4,2,99,86,0,1
134395,-68.9655172413793,4,2,100,86,0,1
134757,-68.9655172413793,4,2,102,86,0,1
134938,-68.9655172413793,4,2,103,86,0,1
135118,-68.9655172413793,4,2,104,66,0,1
135300,-68.9655172413793,4,2,105,90,0,1
135480,-68.9655172413793,4,2,106,90,0,1
135661,-68.9655172413793,4,2,107,90,0,1
135842,-68.9655172413793,4,2,108,90,0,1
136023,-68.9655172413793,4,2,110,81,0,1
136203,-68.9655172413793,4,2,111,81,0,1
136384,-68.9655172413793,4,2,112,81,0,1
136564,-68.9655172413793,4,2,113,63,0,1
136745,-68.9655172413793,4,2,114,72,0,1
136926,-68.9655172413793,4,2,115,72,0,1
137017,-68.9655172413793,4,2,10,56,0,1
137107,-68.9655172413793,4,2,116,72,0,1
137285,-68.9655172413793,4,2,117,56,0,1
137378,-68.9655172413793,4,2,118,56,0,1
137468,-68.9655172413793,4,2,119,81,0,1
137649,-68.9655172413793,4,2,120,81,0,1
137830,-68.9655172413793,4,2,121,81,0,1
138008,-68.9655172413793,4,2,104,63,0,1
138191,-68.9655172413793,4,2,122,68,0,1
138371,-68.9655172413793,4,2,123,68,0,1
138553,-68.9655172413793,4,2,124,72,0,1
138733,-68.9655172413793,4,2,106,72,0,1
138914,-68.9655172413793,4,2,100,72,0,1
139095,-68.9655172413793,4,2,125,72,0,1
139276,-68.9655172413793,4,2,126,81,0,1
139366,-68.9655172413793,4,2,10,63,0,1
139456,-68.9655172413793,4,2,127,63,0,1
139637,-68.9655172413793,4,2,128,81,0,1
139818,-68.9655172413793,4,2,129,81,0,1
139908,-68.9655172413793,4,2,10,63,0,1
139998,-68.9655172413793,4,2,130,76,0,1
140178,-68.9655172413793,4,2,100,76,0,1
140360,-68.9655172413793,4,2,131,76,0,1
140540,-68.9655172413793,4,2,102,76,0,1
140721,-68.9655172413793,4,2,103,81,0,1
140901,-68.9655172413793,4,2,104,63,0,1
141083,-68.9655172413793,4,2,105,81,0,1
141263,-68.9655172413793,4,2,132,81,0,1
141444,-68.9655172413793,4,2,107,86,0,1
141625,-68.9655172413793,4,2,123,86,0,1
141806,-68.9655172413793,4,2,133,86,0,1
141986,-68.9655172413793,4,2,111,86,0,1
142167,-68.9655172413793,4,2,134,86,0,1
142347,-68.9655172413793,4,2,113,66,0,1
142529,-68.9655172413793,4,2,135,76,0,1
142709,-68.9655172413793,4,2,136,76,0,1
142800,-68.9655172413793,4,2,10,59,0,1
142890,-68.9655172413793,4,2,137,81,0,1
143071,-68.9655172413793,4,2,117,63,0,1
143251,-68.9655172413793,4,2,138,86,0,1
143432,-68.9655172413793,4,2,139,86,0,1
143613,-68.9655172413793,4,2,140,90,0,1
143793,-68.9655172413793,4,2,141,90,0,1
143974,-68.9655172413793,4,2,142,86,0,1
144154,-68.9655172413793,4,2,143,86,0,1
144336,-68.9655172413793,4,2,144,90,0,1
144517,-68.9655172413793,4,2,141,90,0,1
144697,-68.9655172413793,4,2,145,81,0,1
144878,-68.9655172413793,4,2,146,81,0,1
145059,-68.9655172413793,4,2,147,72,0,1
145149,-68.9655172413793,4,2,31,56,0,1
145420,-68.9655172413793,4,2,148,63,0,1
145510,-68.9655172413793,4,2,148,49,0,1
145600,-68.9655172413793,4,2,11,52,0,1
145782,-86.9565217391304,4,2,149,76,0,0
145961,-86.9565217391304,4,2,10,59,0,0
146143,-86.9565217391304,4,2,31,59,0,0
146324,-86.9565217391304,4,2,10,59,0,0
146683,-86.9565217391304,4,2,31,59,0,0
146866,-86.9565217391304,4,2,11,52,0,0
147047,-86.9565217391304,4,2,31,52,0,0
147227,-86.9565217391304,4,2,10,56,0,0
147589,-86.9565217391304,4,2,11,56,0,0
147770,-86.9565217391304,4,2,31,59,0,0
147950,-86.9565217391304,4,2,11,59,0,0
148312,-86.9565217391304,4,2,11,52,0,0
148492,-86.9565217391304,4,2,31,52,0,0
148673,-86.9565217391304,4,2,10,49,0,0
149035,-86.9565217391304,4,2,11,49,0,0
149215,-86.9565217391304,4,2,31,49,0,0
149396,-86.9565217391304,4,2,11,52,0,0
150119,-86.9565217391304,4,2,11,59,0,0
150300,-86.9565217391304,4,2,10,59,0,0
150480,-86.9565217391304,4,2,11,59,0,0
150661,-86.9565217391304,4,2,10,59,0,0
150842,-86.9565217391304,4,2,10,66,0,0
151022,-86.9565217391304,4,2,11,66,0,0
151203,-86.9565217391304,4,2,10,42,0,0

[Colours]
Combo1 : 210,255,236
Combo2 : 248,210,255
Combo3 : 255,252,210
Combo4 : 255,210,211

[HitObjects]
127,324,480,5,2,2:0:0:0:
145,296,661,1,2,2:0:0:0:
195,254,842,1,2,2:0:0:0:
290,233,1023,1,2,2:0:0:0:
382,268,1203,1,4,3:0:0:0:
399,283,1745,6,0,P|402:238|419:199,1,82.5,2|2,2:0|3:2,2:0:0:0:
309,147,2468,2,0,P|306:102|289:63,1,82.5,2|2,2:0|3:2,2:0:0:0:
97,149,3191,6,0,P|142:146|181:129,1,82.5,2|2,2:0|3:2,2:0:0:0:
82,248,3914,2,0,P|42:231|0:229,1,82.5,2|2,2:0|3:2,2:0:0:0:
324,290,4637,22,0,P|307:329|305:371,1,82.5,2|2,2:0|3:2,2:0:0:0:
228,251,5360,2,0,P|225:208|209:169,1,82.5,2|2,2:0|3:2,2:0:0:0:
57,155,5902,5,2,3:2:0:0:
126,236,6083,1,2,2:0:0:0:
310,181,6264,1,6,3:0:0:0:
323,165,6986,5,6,3:2:0:0:
336,149,7348,1,0,2:0:0:0:
246,199,7529,1,2,3:2:0:0:
174,127,7709,2,0,B|108:102|71:160|71:160|92:138|120:141,1,165,6|0,3:2|2:0,2:0:0:0:
166,211,8251,1,2,3:2:0:0:
338,257,8432,22,0,B|404:282|441:224|441:224|420:246|392:243,1,165,6|0,3:2|2:0,2:0:0:0:
346,173,8974,1,2,3:2:0:0:
261,202,9155,1,6,3:2:0:0:
196,138,9336,2,0,P|233:114|275:115,1,82.5,2|2,2:0|2:0,2:0:0:0:
170,228,9697,1,0,2:0:0:0:
111,88,9878,5,6,3:2:0:0:
98,71,10239,1,2,2:0:0:0:
188,128,10420,1,2,3:2:0:0:
139,223,10601,2,0,B|56:246|56:246|1:190,1,165,6|0,3:2|2:0,2:0:0:0:
82,153,11143,1,2,3:2:0:0:
155,321,11324,5,6,3:2:0:0:
252,309,11504,1,0,2:0:0:0:
166,313,11685,1,0,2:0:0:0:
263,325,11866,1,2,3:2:0:0:
366,332,12047,2,0,B|452:344|452:344|510:286,1,165,6|2,3:2|2:0,2:0:0:0:
488,32,12770,21,6,3:2:0:0:
480,42,13131,1,0,2:0:0:0:
391,94,13312,1,2,3:2:0:0:
318,30,13492,6,0,B|277:29|242:56|242:56|220:20|176:13,1,165,6|0,3:2|2:0,2:0:0:0:
49,95,14035,1,2,3:2:0:0:
82,243,14215,2,0,B|123:242|158:269|158:269|180:233|224:226,1,165,6|0,3:2|2:0,2:0:0:0:
297,150,14757,1,10,3:2:0:0:
415,261,14938,2,0,L|498:246,1,82.5,6|2,3:2|2:0,2:0:0:0:
507,153,15300,2,0,L|424:168,1,82.5,2|0,2:0|2:0,2:0:0:0:
222,203,15661,1,6,3:2:0:0:
202,208,16023,5,2,2:0:0:0:
121,290,16203,1,2,3:2:0:0:
21,182,16384,2,0,P|76:177|101:191,1,82.5,6|0,3:2|2:0,2:0:0:0:
221,307,16745,2,0,L|305:288,1,82.5,0|2,2:0|3:2,2:0:0:0:
355,167,17107,22,0,P|317:151|276:159,1,82.5,6|0,3:2|2:0,2:0:0:0:
391,349,17468,2,0,P|432:356|470:340,1,82.5,0|2,2:0|3:2,2:0:0:0:
417,240,17830,1,6,3:2:0:0:
287,303,18011,2,0,L|293:345,2,41.25,8|8|12,2:3|2:3|2:3,2:0:0:0:
275,221,18372,1,8,2:3:0:0:
264,139,18553,5,6,1:2:0:0:
260,126,18914,1,10,2:0:0:0:
361,202,19095,1,2,3:2:0:0:
287,303,19276,6,0,B|203:335|212:269|123:300,1,165,6|10,2:0|2:0,2:0:0:0:
161,375,19818,1,2,3:2:0:0:
251,207,19998,2,0,B|335:239|326:173|415:204,1,165,6|10,3:2|2:0,2:0:0:0:
374,286,20541,1,2,3:2:0:0:
289,132,20721,22,0,P|252:117|207:132,1,82.5,6|8,3:2|2:3,2:0:0:0:
176,156,20992,1,8,2:3:0:0:
176,156,21083,2,0,L|162:239,1,82.5,10|10,2:0|2:0,2:0:0:0:
83,103,21444,1,6,3:2:0:0:
72,309,21806,5,10,2:0:0:0:
164,243,21986,1,2,3:2:0:0:
237,322,22167,2,0,B|322:309,1,82.5,6|2,3:2|2:0,2:0:0:0:
436,225,22529,2,0,B|351:212,1,82.5,10|2,2:0|3:2,2:0:0:0:
241,62,22890,6,0,P|279:46|320:54,1,82.5,6|2,3:2|2:0,2:0:0:0:
214,229,23251,2,0,P|173:236|135:220,1,82.5,10|2,2:0|3:2,2:0:0:0:
184,126,23613,1,6,3:2:0:0:
324,201,23794,2,0,L|366:188,2,41.25,8|8|8,2:3|2:3|2:3,2:0:0:0:
214,229,24155,1,8,2:3:0:0:
385,293,24336,21,6,1:2:0:0:
394,288,24697,1,10,2:0:0:0:
286,343,24878,1,2,3:2:0:0:
199,255,25059,6,0,P|115:253|28:234,1,165,6|10,3:2|2:0,2:0:0:0:
178,111,25601,1,2,3:2:0:0:
290,169,25782,6,0,P|374:167|461:148,1,165,6|10,3:2|2:0,2:0:0:0:
362,269,26324,1,2,3:2:0:0:
252,69,26504,2,0,P|211:56|169:70,1,82.5,6|8,3:2|2:3,2:0:0:0:
159,101,26776,1,8,2:3:0:0:
156,113,26866,2,0,P|111:126|77:120,1,82.5,10|10,2:0|2:0,2:0:0:0:
12,62,27227,1,6,3:2:0:0:
7,56,27589,21,10,2:0:0:0:
178,200,27770,1,2,3:2:0:0:
250,105,27950,2,0,L|334:91,1,82.5,6|2,3:2|2:0,2:0:0:0:
446,195,28312,2,0,L|362:181,1,82.5,10|2,2:0|3:2,2:0:0:0:
241,311,28673,6,0,P|287:317|320:300,1,82.5,14|10,3:2|3:2,2:0:0:0:
189,173,29035,2,0,P|151:155|109:161,1,82.5,14|10,3:2|3:2,2:0:0:0:
87,185,29306,1,0,2:0:0:0:
87,185,29396,1,14,1:2:0:0:
275,272,29757,21,10,2:0:0:0:
291,196,29938,1,2,2:0:0:0:
307,121,30119,1,6,3:2:0:0:
312,296,30480,5,10,2:0:0:0:
291,196,30661,1,2,2:0:0:0:
270,96,30842,1,6,3:2:0:0:
163,303,31203,2,0,L|79:289,1,82.5,10|2,2:0|2:0,2:0:0:0:
225,129,31565,5,6,2:0:0:0:
300,260,31745,1,0,2:0:0:0:
372,95,31926,1,10,2:0:0:0:
308,173,32107,1,6,2:0:0:0:
264,1,32288,1,6,3:2:0:0:
143,221,32649,21,10,2:0:0:0:
218,205,32830,1,2,2:0:0:0:
294,189,33011,1,6,3:2:0:0:
118,184,33372,5,10,2:0:0:0:
218,205,33553,1,2,2:0:0:0:
318,226,33733,1,6,3:2:0:0:
259,57,34095,2,0,P|272:98|280:139,1,82.5,10|2,2:0|2:0,2:0:0:0:
236,223,34456,5,6,2:0:0:0:
367,148,34637,1,0,2:0:0:0:
203,78,34818,1,10,2:0:0:0:
280,140,34998,1,6,2:0:0:0:
108,184,35179,1,6,3:2:0:0:
368,45,35541,21,10,2:0:0:0:
384,120,35721,1,2,2:0:0:0:
400,196,35902,1,6,2:0:0:0:
405,20,36264,5,10,2:0:0:0:
384,120,36444,1,2,2:0:0:0:
363,220,36625,1,6,3:2:0:0:
502,179,36986,2,0,P|498:137|491:97,1,82.5,10|2,2:0|2:0,2:0:0:0:
314,0,37348,5,6,2:0:0:0:
219,160,37529,1,2,2:0:0:0:
264,83,37709,21,10,2:0:0:0:
337,216,37890,1,6,2:0:0:0:
401,49,38071,1,6,3:2:0:0:
510,167,38432,2,0,P|498:218|501:294,1,123.75,2|0,2:0|2:0,2:0:0:0:
450,364,38794,5,6,3:2:0:0:
327,185,38974,1,0,3:0:0:0:
334,355,39155,2,0,P|332:311|339:271,1,82.5,8|6,3:2|2:0,2:0:0:0:
233,128,39517,2,0,P|240:169|238:212,1,82.5,14|8,3:2|3:2,2:0:0:0:
390,138,39878,1,10,3:2:0:0:
305,58,40059,1,6,2:0:0:0:
145,156,40239,6,0,L|58:144,1,82.5,14|0,3:2|3:0,2:0:0:0:
196,298,40601,2,0,L|283:286,1,82.5,8|10,3:2|3:2,2:0:0:0:
357,218,40962,1,6,3:2:0:0:
447,267,41143,1,0,2:0:0:0:
362,118,41324,37,2,2:0:0:0:
217,206,41504,1,2,2:0:0:0:
117,89,41685,2,0,P|157:71|196:77,1,82.5,6|2,1:2|3:2,2:0:0:0:
85,244,42047,2,0,P|43:249|5:232,1,82.5,10|6,3:2|3:2,2:0:0:0:
20,96,42408,1,6,3:2:0:0:
184,292,42770,5,10,3:2:0:0:
246,146,42950,1,2,3:2:0:0:
334,295,43131,2,0,P|374:309|419:295,1,82.5,6|2,3:2|3:2,2:0:0:0:
434,105,43492,1,10,3:2:0:0:
372,210,43673,1,6,3:2:0:0:
326,46,43854,1,6,3:2:0:0:
221,284,44215,6,0,L|199:371,1,82.5,10|2,3:2|3:2,2:0:0:0:
160,207,44577,1,6,3:2:0:0:
322,216,44938,22,0,L|344:303,1,82.5,10|6,3:2|3:2,2:0:0:0:
383,139,45300,1,6,3:2:0:0:
388,129,45661,5,10,3:2:0:0:
283,281,45842,1,2,3:2:0:0:
245,93,46023,2,0,P|205:79|160:93,1,82.5,6|2,3:2|3:2,2:0:0:0:
140,262,46384,1,10,3:2:0:0:
206,183,46565,1,6,3:2:0:0:
34,228,46745,2,0,L|54:312,1,82.5,6|6,3:2|3:2,2:0:0:0:
217,179,47107,2,0,L|236:96,1,82.5,2|4,3:2|3:0,2:0:0:0:
315,313,47468,6,0,P|273:323|235:307,1,82.5,6|10,1:2|3:2,2:0:0:0:
316,120,47830,1,6,3:2:0:0:
400,250,48011,1,10,3:2:0:0:
435,66,48191,2,0,P|473:50|514:60,1,82.5,6|2,3:2|3:2,2:0:0:0:
389,240,48553,2,0,L|304:226,1,82.5,6|10,3:2|3:2,2:0:0:0:
165,125,48914,22,0,L|247:113,1,82.5,6|10,3:2|3:2,2:0:0:0:
169,251,49276,1,6,3:2:0:0:
69,100,49456,1,10,3:2:0:0:
5,271,49637,2,0,P|44:246|68:210,1,82.5,6|2,3:2|2:0,2:0:0:0:
216,35,49998,1,6,3:2:0:0:
265,150,50179,1,2,3:2:0:0:
410,70,50360,6,0,P|371:54|331:59,1,82.5,6|2,3:2|3:2,2:0:0:0:
430,285,50721,2,0,P|470:289|508:273,1,82.5,6|2,3:2|3:2,2:0:0:0:
270,245,51083,2,0,L|286:328,1,82.5,6|2,2:0|2:0,2:0:0:0:
459,197,51444,2,0,L|474:115,1,82.5,6|10,3:2|3:2,2:0:0:0:
293,3,51806,5,14,3:2:0:0:
191,166,51986,1,6,3:2:0:0:
363,112,52167,1,14,3:2:0:0:
199,43,52348,1,6,3:2:0:0:
246,280,52529,21,6,3:2:0:0:
246,280,52619,1,2,3:2:0:0:
246,280,52709,2,0,L|257:320,1,41.25,2|2,3:2|3:2,2:0:0:0:
318,218,52890,2,0,L|329:178,3,41.25,14|0|8|0,3:2|3:0|3:0|3:0,2:0:0:0:
314,91,53251,6,0,B|265:104|251:138|251:138|225:122|192:124,1,142.3125,6|0,3:2|2:0,2:0:0:0:
149,133,53613,1,2,2:0:0:0:
46,71,53794,1,2,3:2:0:0:
99,244,53974,6,0,P|168:274|227:248,1,142.3125,6|0,3:0|2:0,2:0:0:0:
260,223,54336,1,10,3:0:0:0:
354,151,54517,1,2,3:2:0:0:
163,163,54697,21,4,3:0:0:0:
332,295,54878,1,2,3:2:0:0:
332,295,54968,1,2,3:2:0:0:
332,295,55059,2,0,L|428:272,1,94.875,10|2,3:0|3:2,2:0:0:0:
490,168,55420,2,0,P|444:148|400:157,1,94.875,4|8,3:0|3:0,2:0:0:0:
252,189,55782,1,14,3:0:0:0:
362,42,55962,1,2,3:2:0:0:
340,247,56143,5,4,3:0:0:0:
245,59,56324,1,2,3:2:0:0:
245,59,56414,1,2,3:2:0:0:
245,59,56504,2,0,L|226:152,1,94.875,10|2,3:0|3:2,2:0:0:0:
181,258,56866,1,6,3:0:0:0:
115,137,57047,1,0,3:0:0:0:
78,311,57227,2,0,L|59:218,1,94.875,10|0,3:0|3:0,2:0:0:0:
87,48,57589,5,6,3:0:0:0:
186,177,57770,1,2,3:2:0:0:
281,44,57950,1,10,3:0:0:0:
166,91,58131,1,2,3:2:0:0:
295,227,58312,2,0,P|346:211|393:204,2,94.875,6|8|10,3:0|3:0|3:0,2:0:0:0:
225,318,58854,1,0,3:0:0:0:
80,200,59035,22,0,B|129:213|143:247|143:247|169:231|202:233,1,142.3125,6|0,3:0|2:0,2:0:0:0:
228,208,59396,1,2,2:0:0:0:
255,117,59577,1,2,3:2:0:0:
309,273,59757,6,0,P|378:303|437:277,1,142.3125,6|0,3:0|2:0,2:0:0:0:
446,233,60119,1,10,3:0:0:0:
329,164,60300,1,2,3:2:0:0:
196,285,60480,5,4,3:0:0:0:
95,260,60661,1,2,3:2:0:0:
106,230,60751,1,2,3:2:0:0:
127,206,60842,1,10,3:0:0:0:
154,190,60932,1,2,3:2:0:0:
185,183,61023,1,10,3:0:0:0:
216,186,61113,1,2,3:2:0:0:
245,199,61203,22,0,P|237:152|256:110,1,94.875,4|0,3:0|2:0,2:0:0:0:
376,78,61565,1,14,3:0:0:0:
325,239,61745,1,2,3:2:0:0:
249,94,61926,5,4,3:0:0:0:
412,183,62107,1,2,3:2:0:0:
412,183,62197,1,2,3:2:0:0:
412,183,62288,2,0,L|505:163,1,94.875,10|2,3:0|3:2,2:0:0:0:
268,145,62649,1,6,3:0:0:0:
422,57,62830,1,0,3:0:0:0:
255,25,63011,2,0,L|162:5,1,94.875,10|0,3:0|3:0,2:0:0:0:
138,195,63372,5,6,3:0:0:0:
311,219,63553,1,2,3:2:0:0:
189,116,63733,1,10,3:0:0:0:
224,271,63914,1,2,3:2:0:0:
322,132,64095,2,0,P|373:116|420:109,2,94.875,6|8|10,3:0|3:0|3:0,2:0:0:0:
24,125,64818,21,6,1:2:0:0:
16,134,65179,2,0,L|31:215,1,82.5,10|2,2:0|2:0,2:0:0:0:
101,287,65541,2,0,L|86:368,1,82.5,6|2,3:2|2:0,2:0:0:0:
262,239,65902,1,10,2:0:0:0:
172,182,66083,1,2,2:0:0:0:
221,332,66264,6,0,P|267:345|334:305,1,123.75,6|0,3:2|2:0,2:0:0:0:
349,278,66625,1,10,2:0:0:0:
397,172,66806,1,2,2:0:0:0:
512,303,66986,2,0,L|433:324,1,82.5,6|8,3:2|2:3,2:0:0:0:
312,147,67348,2,0,L|391:167,1,82.5,10|10,2:0|2:0,2:0:0:0:
215,261,67709,1,6,3:2:0:0:
203,261,68071,6,0,B|146:286|143:240|83:265,1,123.75,10|0,2:0|2:0,2:0:0:0:
42,297,68432,1,6,3:2:0:0:
62,184,68613,1,2,2:0:0:0:
121,351,68794,2,0,P|162:366|205:360,1,82.5,10|2,2:0|2:0,2:0:0:0:
292,224,69155,21,6,3:2:0:0:
169,278,69336,1,2,2:0:0:0:
204,184,69517,1,10,2:0:0:0:
297,327,69697,1,2,2:0:0:0:
381,270,69878,1,6,3:2:0:0:
391,266,70239,1,8,2:3:0:0:
329,71,70601,5,6,1:2:0:0:
295,203,70962,2,0,P|252:217|218:208,1,82.5,10|2,2:0|2:0,2:0:0:0:
149,23,71324,2,0,P|106:9|72:18,1,82.5,6|2,3:2|2:0,2:0:0:0:
171,127,71685,1,10,2:0:0:0:
249,57,71866,1,2,2:0:0:0:
63,122,72047,6,0,P|80:165|91:252,1,123.75,6|0,3:2|2:0,2:0:0:0:
79,274,72408,1,10,2:0:0:0:
19,373,72589,1,2,2:0:0:0:
186,288,72770,2,0,L|267:301,1,82.5,6|8,3:2|2:3,2:0:0:0:
358,166,73131,2,0,L|277:179,1,82.5,10|10,2:0|2:0,2:0:0:0:
430,305,73492,21,6,3:2:0:0:
442,322,73854,2,0,P|435:255|440:197,1,123.75,10|0,2:0|2:0,2:0:0:0:
459,158,74215,1,6,3:2:0:0:
352,208,74396,1,2,2:0:0:0:
434,44,74577,2,0,P|475:36|514:50,1,82.5,10|2,2:0|2:0,2:0:0:0:
467,150,74938,5,14,3:2:0:0:
310,71,75119,1,10,3:2:0:0:
358,246,75300,1,14,3:2:0:0:
379,142,75480,2,0,L|340:154,1,41.25,10|8,3:2|2:3,2:0:0:0:
240,182,75661,1,14,3:2:0:0:
32,233,76023,21,10,2:0:0:0:
5,92,76203,1,2,2:0:0:0:
70,151,76384,1,6,3:2:0:0:
162,245,76745,5,10,2:0:0:0:
256,225,76926,1,2,2:0:0:0:
350,206,77107,1,6,3:2:0:0:
260,57,77468,2,0,P|251:100|249:140,1,82.5,10|2,2:0|2:0,2:0:0:0:
272,292,77830,5,6,2:0:0:0:
341,160,78011,1,0,2:0:0:0:
173,241,78191,2,0,P|170:199|161:159,1,82.5,10|6,2:0|2:0,2:0:0:0:
92,99,78553,1,14,3:2:0:0:
111,332,78914,21,10,2:0:0:0:
252,305,79095,1,2,2:0:0:0:
170,267,79276,1,6,3:2:0:0:
337,368,79637,5,10,2:0:0:0:
350,272,79818,1,2,2:0:0:0:
365,177,79998,1,6,3:2:0:0:
258,10,80360,2,0,P|266:52|271:94,1,82.5,10|2,2:0|2:0,2:0:0:0:
226,209,80721,5,6,2:0:0:0:
174,56,80902,1,0,2:0:0:0:
329,158,81083,2,0,L|416:139,1,82.5,10|6,2:0|2:0,2:0:0:0:
511,115,81444,1,14,3:2:0:0:
389,252,81806,21,10,2:0:0:0:
245,219,81986,1,2,2:0:0:0:
330,181,82167,1,6,2:0:0:0:
140,91,82529,5,10,2:0:0:0:
154,186,82709,1,2,2:0:0:0:
168,281,82890,1,6,3:2:0:0:
310,140,83251,2,0,P|270:126|227:132,1,82.5,10|2,2:0|2:0,2:0:0:0:
90,247,83613,5,6,2:0:0:0:
140,91,83794,1,2,2:0:0:0:
239,241,83974,2,0,L|320:226,1,82.5,10|6,2:0|2:0,2:0:0:0:
390,278,84336,1,14,3:2:0:0:
504,138,84697,2,0,P|434:155|394:121,1,123.75,2|0,2:0|2:0,2:0:0:0:
395,83,85059,22,0,L|309:107,1,82.5,6|0,3:2|3:0,2:0:0:0:
300,205,85420,2,0,L|214:181,1,82.5,8|6,3:2|2:0,2:0:0:0:
98,77,85782,1,14,3:2:0:0:
229,97,85962,1,8,3:2:0:0:
131,241,86143,2,0,P|130:198|124:152,1,82.5,10|6,3:2|2:0,2:0:0:0:
22,214,86504,5,14,3:2:0:0:
158,332,86685,1,0,3:0:0:0:
216,240,86866,2,0,P|178:223|138:228,1,82.5,8|10,3:2|3:2,2:0:0:0:
342,128,87227,1,6,3:2:0:0:
293,306,87408,1,0,2:0:0:0:
245,152,87589,1,2,2:0:0:0:
364,361,87950,6,0,P|407:369|444:351,1,82.5,6|2,1:2|3:2,2:0:0:0:
408,199,88312,2,0,L|394:285,1,82.5,10|6,3:2|3:2,2:0:0:0:
338,132,88673,1,6,3:2:0:0:
332,125,89035,5,10,3:2:0:0:
257,214,89215,1,2,3:2:0:0:
135,125,89396,2,0,L|215:105,1,82.5,6|2,3:2|3:2,2:0:0:0:
80,210,89757,2,0,L|0:190,1,82.5,10|6,3:2|3:2,2:0:0:0:
72,51,90119,1,6,3:2:0:0:
149,279,90480,22,0,P|184:283|230:261,1,82.5,10|2,3:2|3:2,2:0:0:0:
171,196,90842,1,6,3:2:0:0:
380,193,91203,6,0,P|345:197|299:175,1,82.5,10|6,3:2|3:2,2:0:0:0:
358,110,91565,1,6,3:2:0:0:
368,102,91926,5,10,3:2:0:0:
298,256,92107,1,2,3:2:0:0:
237,102,92288,2,0,L|156:120,1,82.5,6|2,3:2|3:2,2:0:0:0:
0,148,92649,1,10,3:2:0:0:
99,46,92830,1,6,3:2:0:0:
104,209,93011,2,0,L|124:293,1,82.5,6|6,3:2|3:2,2:0:0:0:
238,373,93372,2,0,L|257:290,1,82.5,2|4,3:2|3:0,2:0:0:0:
300,113,93733,22,0,P|341:102|378:113,1,82.5,6|10,1:2|3:2,2:0:0:0:
247,276,94095,1,6,3:2:0:0:
174,121,94276,1,10,3:2:0:0:
91,289,94456,2,0,P|44:285|13:265,1,82.5,6|2,3:2|3:2,2:0:0:0:
188,122,94818,2,0,P|200:165|204:204,1,82.5,6|10,3:2|3:2,2:0:0:0:
310,368,95179,6,0,P|314:327|325:287,1,82.5,6|10,3:2|3:2,2:0:0:0:
399,160,95541,1,6,3:2:0:0:
435,300,95721,1,10,3:2:0:0:
266,199,95902,2,0,P|226:189|185:198,1,82.5,6|2,3:2|2:0,2:0:0:0:
84,345,96264,2,0,P|112:315|125:275,1,82.5,6|2,3:2|3:2,2:0:0:0:
129,92,96625,5,6,3:2:0:0:
1,241,96806,1,2,3:2:0:0:
56,42,96986,1,6,3:2:0:0:
184,185,97167,1,2,3:2:0:0:
265,93,97348,22,0,L|347:75,1,82.5,6|2,2:0|2:0,2:0:0:0:
312,265,97709,2,0,P|272:275|234:263,1,82.5,6|10,3:2|3:2,2:0:0:0:
121,123,98071,5,14,3:2:0:0:
139,299,98251,1,6,3:2:0:0:
263,169,98432,1,14,3:2:0:0:
96,215,98613,1,6,3:2:0:0:
213,346,98794,5,6,3:2:0:0:
253,339,98884,1,2,3:2:0:0:
294,332,98974,1,2,3:2:0:0:
334,325,99065,1,2,3:2:0:0:
375,318,99155,2,0,L|415:308,3,41.25,14|0|8|0,3:2|3:0|3:0|3:0,2:0:0:0:
497,289,99517,22,0,L|512:195,1,94.875,6|2,1:2|3:2,2:0:0:0:
332,94,99878,2,0,L|347:188,1,94.875,10|6,3:2|3:2,2:0:0:0:
386,18,100239,2,0,P|344:-3|261:32,1,142.3125,6|0,3:2|2:0,2:0:0:0:
242,127,100601,2,0,P|187:130|147:106,1,94.875,10|2,3:2|3:2,2:0:0:0:
44,12,100962,6,0,L|66:106,1,94.875,6|2,3:2|3:2,2:0:0:0:
136,209,101324,2,0,L|157:116,1,94.875,10|6,3:2|3:2,2:0:0:0:
51,265,101685,2,0,P|119:311|174:300,1,142.3125,6|0,3:2|2:0,2:0:0:0:
288,271,102047,6,10,P|273:225|247:186,1,94.8750000000001,10|10,3:2|3:2,3:2:0:0:
371,194,102318,1,0,2:0:0:0:
382,205,102408,2,0,P|451:231|506:192,1,142.3125,6|2,3:2|3:2,2:0:0:0:
468,112,102770,21,10,3:2:0:0:
375,311,102950,1,6,3:2:0:0:
315,123,103131,2,0,P|256:87|193:113,1,142.3125,6|0,3:2|2:0,2:0:0:0:
135,181,103492,2,0,P|150:230|154:273,1,94.875,10|2,3:2|3:2,2:0:0:0:
206,367,103854,5,6,3:2:0:0:
268,225,104035,1,2,3:2:0:0:
77,306,104215,1,10,3:2:0:0:
296,378,104396,1,6,3:2:0:0:
367,280,104577,1,6,3:2:0:0:
375,275,104667,2,0,L|472:258,1,94.875,2|0,2:0|2:0,2:0:0:0:
505,248,104938,1,10,3:2:0:0:
507,60,105119,1,6,3:0:0:0:
507,60,105209,1,2,3:2:0:0:
507,60,105300,6,0,P|459:71|415:58,1,94.875,6|10,1:2|3:2,2:0:0:0:
277,166,105661,2,0,P|322:153|367:164,1,94.875,2|10,3:2|3:2,2:0:0:0:
234,257,106023,2,0,P|182:225|185:144,1,142.3125,6|0,3:2|2:0,2:0:0:0:
101,86,106384,2,0,L|7:72,1,94.875,6|10,3:2|3:2,2:0:0:0:
260,0,106745,22,0,P|278:45|282:91,1,94.875,6|10,3:2|3:2,2:0:0:0:
363,241,107107,2,0,P|367:193|385:150,1,94.875,2|10,3:2|3:2,2:0:0:0:
418,314,107468,2,0,P|352:335|293:300,1,142.3125,6|0,3:2|2:0,2:0:0:0:
240,234,107830,2,0,P|185:231|145:255,1,94.875,6|2,3:2|3:2,2:0:0:0:
107,331,108101,1,2,3:2:0:0:
107,331,108191,5,6,3:2:0:0:
101,165,108372,1,2,3:2:0:0:
224,348,108553,1,2,3:2:0:0:
10,282,108733,1,2,3:2:0:0:
228,135,108914,6,0,P|235:186|238:229,1,94.875,6|2,2:0|2:0,2:0:0:0:
299,320,109276,1,6,3:2:0:0:
351,161,109456,1,10,3:2:0:0:
410,353,109637,22,0,P|413:305|420:258,1,94.875,14|6,3:2|3:2,2:0:0:0:
461,130,109998,1,14,3:2:0:0:
512,290,110179,1,6,3:2:0:0:
304,163,110360,5,6,3:2:0:0:
268,169,110450,1,2,3:2:0:0:
233,175,110541,1,2,3:2:0:0:
198,181,110631,1,2,3:2:0:0:
163,187,110721,2,0,L|151:234,3,47.4375,14|0|8|0,3:2|3:0|3:0|3:0,2:0:0:0:
107,112,111083,5,6,3:2:0:0:
239,260,111264,2,0,L|246:300,2,41.25,2|2|10,3:2|3:2|3:0,2:0:0:0:
203,77,111625,1,2,3:2:0:0:
152,185,111806,1,6,3:0:0:0:
327,89,111986,1,0,3:0:0:0:
213,72,112167,2,0,P|227:117|234:158,1,82.5,10|2,3:0|3:2,2:0:0:0:
387,263,112529,22,0,P|431:250|471:243,1,82.5,4|2,3:0|3:2,2:0:0:0:
493,242,112800,1,2,3:2:0:0:
493,242,112890,1,10,3:0:0:0:
393,368,113071,1,2,3:2:0:0:
252,233,113251,1,4,3:0:0:0:
343,164,113432,1,8,3:0:0:0:
268,363,113613,2,0,P|225:349|181:345,1,82.5,14|2,3:0|3:2,2:0:0:0:
242,228,113974,5,4,3:0:0:0:
130,144,114155,2,0,L|123:187,2,41.25,2|2|10,3:2|3:2|3:0,2:0:0:0:
153,22,114517,1,2,3:2:0:0:
240,139,114697,1,6,3:0:0:0:
63,67,114878,1,0,3:0:0:0:
255,23,115059,2,0,P|306:13|349:8,1,82.5,10|0,3:0|3:0,2:0:0:0:
211,133,115420,5,6,3:0:0:0:
406,224,115601,1,2,3:2:0:0:
329,103,115782,2,0,P|320:160|315:193,1,82.5,10|2,3:0|3:2,2:0:0:0:
250,340,116143,1,6,3:0:0:0:
373,306,116324,1,8,3:0:0:0:
199,235,116504,2,0,P|158:249|118:244,1,82.5,10|2,3:0|3:2,2:0:0:0:
102,78,116866,21,6,3:0:0:0:
273,170,117047,2,0,P|293:168|313:163,2,41.25,2|2|10,3:2|3:2|3:0,2:0:0:0:
78,167,117408,1,2,3:2:0:0:
179,5,117589,6,0,L|195:104,1,82.5,6|2,3:0|3:2,2:0:0:0:
200,114,117860,1,2,3:2:0:0:
200,114,117950,1,10,3:0:0:0:
357,178,118131,1,2,3:2:0:0:
293,57,118312,5,4,3:0:0:0:
241,229,118492,1,2,3:2:0:0:
205,249,118583,1,2,3:2:0:0:
164,252,118673,1,10,3:0:0:0:
126,238,118764,1,2,3:2:0:0:
97,209,118854,1,10,3:0:0:0:
68,181,118944,1,2,3:2:0:0:
27,181,119035,2,0,P|6:218|11:262,1,82.5,4|0,3:0|3:0,2:0:0:0:
123,61,119396,1,14,3:0:0:0:
0,85,119577,1,2,3:2:0:0:
177,162,119757,22,0,P|216:147|271:141,1,82.5,4|2,3:0|3:2,2:0:0:0:
463,140,120119,1,10,3:0:0:0:
285,45,120300,1,2,3:2:0:0:
350,182,120480,2,0,P|360:134|373:98,1,82.5,6|0,3:0|3:0,2:0:0:0:
412,273,120842,2,0,P|365:288|327:295,1,82.5,10|0,3:0|3:0,2:0:0:0:
142,209,121203,5,6,3:0:0:0:
250,122,121384,1,2,3:2:0:0:
225,306,121565,1,10,3:0:0:0:
144,118,121745,1,2,3:2:0:0:
274,220,121926,1,6,3:0:0:0:
67,242,122107,1,8,3:0:0:0:
151,121,122288,1,10,3:0:0:0:
42,137,122468,1,2,3:2:0:0:
120,321,122649,6,0,P|165:338|210:329,1,94.875,6|0,2:3|2:0,2:0:0:0:
240,156,123011,21,14,3:2:0:0:
173,243,123191,1,6,3:2:0:0:
319,333,123372,2,0,P|318:269|334:192,1,142.3125,6|0,3:2|2:0,2:0:0:0:
341,160,123733,2,0,P|294:179|252:168,1,94.875,10|2,3:2|3:2,2:0:0:0:
13,65,124095,6,0,L|35:159,1,94.875,6|2,3:2|3:2,2:0:0:0:
119,269,124456,2,0,L|140:176,1,94.875,10|6,3:2|3:2,2:0:0:0:
39,327,124818,2,0,P|106:370|165:355,1,142.3125,6|0,3:2|2:0,2:0:0:0:
201,322,125179,5,10,3:2:0:0:
321,347,125360,2,0,L|370:334,1,47.4375,2|2,3:2|3:2,2:0:0:0:
472,235,125541,2,0,P|416:195|351:217,1,142.3125,6|2,3:2|3:2,2:0:0:0:
335,257,125902,21,10,3:2:0:0:
276,154,126083,1,6,3:2:0:0:
229,339,126264,2,0,P|165:364|107:328,1,142.3125,6|0,3:2|2:0,2:0:0:0:
106,294,126625,2,0,P|101:246|87:201,1,94.875,10|2,3:2|3:2,2:0:0:0:
93,103,126986,5,6,3:2:0:0:
26,283,127167,1,2,3:2:0:0:
0,133,127348,1,10,3:2:0:0:
188,218,127529,1,6,3:2:0:0:
251,133,127709,2,0,P|207:113|157:119,1,94.875,6|6,3:2|3:2,2:0:0:0:
279,275,128071,2,0,P|325:278|368:259,1,94.875,10|6,3:2|3:0,2:0:0:0:
411,186,128342,1,2,3:2:0:0:
411,186,128432,6,0,L|425:93,1,94.875,6|10,1:2|3:2,2:0:0:0:
181,279,128794,2,0,L|195:372,1,94.875,2|10,3:2|3:2,2:0:0:0:
251,195,129155,2,0,P|193:166|121:186,1,142.3125,6|0,3:2|2:0,2:0:0:0:
101,222,129517,2,0,L|7:213,1,94.875,6|10,3:2|3:2,2:0:0:0:
161,363,129878,22,0,P|161:315|177:267,1,94.875,6|10,3:2|3:2,2:0:0:0:
78,132,130239,2,0,P|91:177|92:224,1,94.875,2|10,3:2|3:2,2:0:0:0:
0,95,130601,2,0,P|51:47|126:58,1,142.3125,6|0,3:2|2:0,2:0:0:0:
195,100,130962,1,6,3:2:0:0:
263,221,131143,5,2,3:2:0:0:
263,221,131233,1,2,3:2:0:0:
263,221,131324,1,6,3:2:0:0:
319,54,131504,1,2,3:2:0:0:
374,235,131685,1,2,3:2:0:0:
156,138,131866,1,2,3:2:0:0:
107,262,132047,6,0,P|151:249|199:245,1,94.875,6|2,2:0|2:0,2:0:0:0:
323,87,132408,1,6,3:2:0:0:
157,147,132589,1,10,3:2:0:0:
323,314,132770,22,0,P|326:266|333:219,1,94.875,14|6,3:2|3:2,2:0:0:0:
409,66,133131,1,14,3:2:0:0:
254,161,133312,1,6,3:2:0:0:
469,273,133492,5,6,3:2:0:0:
475,237,133583,1,2,3:2:0:0:
481,202,133673,1,2,3:2:0:0:
487,167,133764,1,2,3:2:0:0:
493,132,133854,2,0,L|501:80,3,47.4375,12|0|8|0,3:0|3:0|3:0|3:0,2:0:0:0:
508,13,134215,6,0,P|462:40|399:28,1,119.625,6|2,1:2|3:2,2:0:0:0:
260,71,134577,2,0,P|306:97|322:158,1,119.625,10|6,3:2|3:2,2:0:0:0:
210,171,134938,2,0,L|90:151,1,119.625,6|2,3:2|3:2,2:0:0:0:
0,158,135209,1,0,2:0:0:0:
0,158,135300,2,0,B|15:206|18:278,1,119.625,10|2,3:2|3:2,2:0:0:0:
112,70,135661,21,6,3:2:0:0:
159,269,135842,1,2,3:2:0:0:
252,85,136023,1,10,3:2:0:0:
105,161,136203,1,6,3:2:0:0:
254,293,136384,2,0,B|375:261,1,119.625,6|2,3:2|3:2,2:0:0:0:
386,166,136745,1,10,3:2:0:0:
474,342,136926,1,2,3:2:0:0:
474,342,137017,1,2,3:2:0:0:
474,342,137107,2,0,P|471:274|492:165,1,179.4375,6|2,3:2|3:2,2:0:0:0:
505,82,137468,5,10,3:2:0:0:
381,247,137649,1,6,3:2:0:0:
278,74,137830,2,0,P|293:149|274:253,1,179.4375,6|0,3:2|2:0,2:0:0:0:
230,318,138191,2,0,P|176:294|114:308,1,119.625,10|2,3:2|3:2,2:0:0:0:
39,346,138553,5,6,3:2:0:0:
138,184,138733,1,2,3:2:0:0:
163,376,138914,1,10,3:2:0:0:
36,208,139095,1,6,3:2:0:0:
253,287,139276,1,6,3:2:0:0:
253,287,139366,1,2,2:0:0:0:
253,287,139456,1,6,3:2:0:0:
153,186,139637,1,10,3:2:0:0:
316,100,139818,21,6,3:2:0:0:
316,100,139908,1,2,3:2:0:0:
316,100,139998,2,0,P|329:150|316:218,1,119.625,6|10,1:2|3:2,2:0:0:0:
422,344,140360,2,0,P|414:293|432:226,1,119.625,2|10,3:2|3:2,2:0:0:0:
299,305,140721,2,0,L|182:283,1,119.625,6|10,3:2|3:2,2:0:0:0:
101,267,140992,1,0,2:0:0:0:
101,267,141083,2,0,P|110:216|106:144,1,119.625,6|10,3:2|3:2,2:0:0:0:
55,37,141444,5,6,3:2:0:0:
0,210,141625,1,10,3:2:0:0:
208,82,141806,1,2,3:2:0:0:
14,120,141986,1,10,3:2:0:0:
223,258,142167,2,0,B|343:228,1,119.625,6|10,3:2|3:2,2:0:0:0:
450,176,142529,1,6,3:2:0:0:
389,341,142709,5,2,3:2:0:0:
389,341,142800,1,2,3:2:0:0:
389,341,142890,1,6,3:2:0:0:
334,129,143071,1,2,2:0:0:0:
505,282,143251,1,6,3:2:0:0:
435,69,143432,1,2,3:2:0:0:
259,217,143613,22,0,P|207:236|147:214,1,119.625,6|2,2:0|2:0,2:0:0:0:
252,22,143974,2,0,P|298:3|363:25,1,119.625,6|2,2:0|2:0,2:0:0:0:
364,251,144336,1,14,3:2:0:0:
223,97,144517,1,6,3:2:0:0:
142,223,144697,1,14,3:2:0:0:
359,139,144878,1,6,3:2:0:0:
218,84,145059,5,6,3:2:0:0:
229,120,145149,1,2,3:2:0:0:
237,158,145239,1,2,3:2:0:0:
242,197,145330,1,2,3:2:0:0:
243,235,145420,2,0,L|251:294,3,59.8125,14|0|8|0,3:2|3:0|3:0|3:0,2:0:0:0:
244,334,145782,6,0,B|294:334|316:364|316:364|337:342|370:336,1,142.3125,6|0,3:2|2:0,2:0:0:0:
402,313,146143,1,2,3:2:0:0:
399,177,146324,1,2,3:2:0:0:
496,346,146504,22,0,P|492:278|506:194,1,142.3125,6|0,3:0|2:0,2:0:0:0:
511,165,146866,1,10,3:0:0:0:
391,242,147047,1,2,3:2:0:0:
335,102,147227,1,4,3:0:0:0:
283,280,147408,5,2,3:2:0:0:
258,299,147498,1,2,3:2:0:0:
229,311,147589,1,10,3:0:0:0:
197,314,147679,1,0,2:0:0:0:
167,307,147770,1,2,3:2:0:0:
139,291,147860,1,0,2:0:0:0:
117,268,147950,6,0,L|132:173,1,94.875,4|8,3:0|3:0,2:0:0:0:
116,50,148312,1,14,3:0:0:0:
35,152,148492,1,2,3:2:0:0:
1,39,148673,21,4,3:0:0:0:
207,123,148854,1,2,3:2:0:0:
207,123,148944,1,2,3:2:0:0:
207,123,149035,2,0,L|300:104,1,94.875,10|2,3:0|3:2,2:0:0:0:
152,33,149396,1,6,3:0:0:0:
102,164,149577,1,0,3:0:0:0:
250,296,149757,2,0,P|255:242|265:203,1,94.875,10|0,3:0|3:0,2:0:0:0:
318,68,150119,5,6,3:0:0:0:
361,236,150300,1,2,3:2:0:0:
211,102,150480,1,10,3:0:0:0:
389,142,150661,1,2,3:2:0:0:
170,231,150842,2,0,P|119:215|72:208,1,94.875,6|8,3:0|3:0,2:0:0:0:
3,155,151203,1,4,2:0:0:0:
