osu file format v14

[General]
AudioFilename: audio.ogg
AudioLeadIn: 0
PreviewTime: 87968
Countdown: 0
SampleSet: Soft
StackLeniency: 0.7
Mode: 0
LetterboxInBreaks: 0
WidescreenStoryboard: 1

[Editor]
Bookmarks: 6986,18553,30119,41685,53251,64818,76384,87950,99517,107830,111083,119757,122649,134215,145782,151203
DistanceSpacing: 0.9
BeatDivisor: 4
GridSize: 4
TimelineZoom: 2.3

[Metadata]
Title:Kuu ni Naru
TitleUnicode:くうになる
Artist:MIMI
ArtistUnicode:MIMI
Creator:ThunderBird2678
Version:Kaze
Source:
Tags:japanese pop jpop j-pop vocaloid 初音ミク 可不 Hatsune Miku KAFU CeVIO Creative Studio AI けけ ktwr_ 瀬戸わらび yk__rm はるお haluo_haluo 空になる HlqlkKvcHhk Crypton Future Media クリプトン・フューチャー・メディア株式会社 Kuriputon Fyūchā Kabushiki gaisha Yamaha Corporation ヤマハ株式会社 kabushiki 音楽的同位体 Song Voice ソングボイス KAF 花譜 KAMITSUBAKI STUDIO 神椿スタジオ Reiszen PlainDarkness KuroNekowo Tiff tiffany yu tyu ft ft. feat featuring
BeatmapID:3425143
BeatmapSetID:1676605

[Difficulty]
HPDrainRate:6
CircleSize:3.8
OverallDifficulty:8.4
ApproachRate:9
SliderMultiplier:1.7
SliderTickRate:1

[Events]
//Background and Video events
0,0,"becoming the wind.jpg",0,0
Video,10,"kuu_ni_naru_vid_1_1.mp4"
//Break Periods
//Storyboard Layer 0 (Background)
//Storyboard Layer 1 (Fail)
//Storyboard Layer 2 (Pass)
//Storyboard Layer 3 (Foreground)
//Storyboard Layer 4 (Overlay)
//Storyboard Sound Samples

[TimingPoints]
-242,361.44578313253,4,2,1,70,1,0
480,-100,4,2,10,49,0,0
842,-100,4,2,10,63,0,0
1926,-100,4,2,10,52,0,0
2649,-100,4,2,10,56,0,0
3372,-100,4,2,10,59,0,0
4095,-100,4,2,10,52,0,0
4818,-100,4,2,10,56,0,0
5541,-100,4,2,10,59,0,0
6264,-100,4,2,10,42,0,0
6986,-100,4,2,11,49,0,0
7167,-100,4,2,10,49,0,0
7528,-100,4,2,11,49,0,0
7709,-100,4,2,12,49,0,0
8071,-100,4,2,12,56,0,0
8251,-100,4,2,13,56,0,0
8432,-100,4,2,14,56,0,0
8794,-100,4,2,14,52,0,0
8974,-100,4,2,11,52,0,0
9155,-100,4,2,15,49,0,0
9336,-100,4,2,10,49,0,0
9878,-100,4,2,15,52,0,0
10239,-100,4,2,10,52,0,0
10419,-100,4,2,11,52,0,0
10601,-100,4,2,15,49,0,0
11143,-100,4,2,16,49,0,0
11324,-100,4,2,17,52,0,0
11685,-100,4,2,17,56,0,0
11866,-100,4,2,18,56,0,0
12047,-100,4,2,17,63,0,0
12408,-100,4,2,10,63,0,0
12770,-100,4,2,11,49,0,0
12950,-100,4,2,10,49,0,0
13311,-100,4,2,11,49,0,0
13492,-100,4,2,12,49,0,0
13854,-100,4,2,12,56,0,0
14035,-100,4,2,13,56,0,0
14215,-100,4,2,14,56,0,0
14577,-100,4,2,14,52,0,0
14757,-100,4,2,19,52,0,0
14938,-100,4,2,12,49,0,0
15119,-100,4,2,10,49,0,0
15661,-100,4,2,15,52,0,0
16023,-100,4,2,10,52,0,0
16202,-100,4,2,11,52,0,0
16384,-100,4,2,15,49,0,0
16926,-100,4,2,20,49,0,0
17107,-100,4,2,21,52,0,0
17468,-100,4,2,21,56,0,0
17649,-100,4,2,16,56,0,0
17830,-100,4,2,17,52,0,0
18011,-100,4,2,10,42,0,0
18553,-100,4,2,22,49,0,0
18733,-100,4,2,23,49,0,0
18914,-100,4,2,24,49,0,0
19093,-100,4,2,22,49,0,0
19276,-100,4,2,20,49,0,0
19456,-100,4,2,25,49,0,0
19637,-100,4,2,26,56,0,0
19818,-100,4,2,20,56,0,0
19998,-100,4,2,27,56,0,0
20178,-100,4,2,22,56,0,0
20360,-100,4,2,28,52,0,0
20541,-100,4,2,22,52,0,0
20721,-100,4,2,26,49,0,0
20902,-100,4,2,10,49,0,0
21083,-100,4,2,23,49,0,0
21264,-100,4,2,22,49,0,0
21444,-100,4,2,26,52,0,0
21806,-100,4,2,23,52,0,0
21986,-100,4,2,22,52,0,0
22167,-100,4,2,26,49,0,0
22347,-100,4,2,29,49,0,0
22529,-100,4,2,25,49,0,0
22709,-100,4,2,24,49,0,0
22890,-100,4,2,28,52,0,0
23071,-100,4,2,29,52,0,0
23251,-100,4,2,23,56,0,0
23431,-100,4,2,25,56,0,0
23613,-100,4,2,28,63,0,0
23794,-100,4,2,10,42,0,0
24336,-100,4,2,22,49,0,0
24517,-100,4,2,24,49,0,0
24697,-100,4,2,23,49,0,0
24877,-100,4,2,22,49,0,0
25059,-100,4,2,20,49,0,0
25239,-100,4,2,26,49,0,0
25420,-100,4,2,25,56,0,0
25601,-100,4,2,20,56,0,0
25782,-100,4,2,27,56,0,0
25962,-100,4,2,28,56,0,0
26143,-100,4,2,26,52,0,0
26324,-100,4,2,27,52,0,0
26504,-100,4,2,20,49,0,0
26685,-100,4,2,10,49,0,0
26866,-100,4,2,28,49,0,0
27047,-100,4,2,22,49,0,0
27227,-100,4,2,26,52,0,0
27407,-100,4,2,23,52,0,0
27589,-100,4,2,24,52,0,0
27770,-100,4,2,22,52,0,0
27950,-100,4,2,26,49,0,0
28131,-100,4,2,23,49,0,0
28492,-100,4,2,30,49,0,0
28673,-100,4,2,23,52,0,0
28854,-100,4,2,29,52,0,0
29035,-100,4,2,23,56,0,0
29215,-100,4,2,24,56,0,0
29396,-100,4,2,28,42,0,0
29757,-100,4,2,31,42,0,0
30119,-100,4,2,32,56,0,0
30480,-100,4,2,31,49,0,0
30661,-100,4,2,33,49,0,0
30842,-100,4,2,34,63,0,0
31023,-100,4,2,31,63,0,0
31203,-100,4,2,31,56,0,0
31565,-100,4,2,35,49,0,0
31926,-100,4,2,31,49,0,0
32107,-100,4,2,36,46,0,0
32287,-100,4,2,37,46,0,0
32468,-100,4,2,31,46,0,0
32649,-100,4,2,31,42,0,0
33011,-100,4,2,37,56,0,0
33372,-100,4,2,31,49,0,0
33553,-100,4,2,33,49,0,0
33733,-100,4,2,34,63,0,0
33914,-100,4,2,31,63,0,0
34095,-100,4,2,31,56,0,0
34456,-100,4,2,35,49,0,0
34818,-100,4,2,31,49,0,0
34998,-100,4,2,36,49,0,0
35178,-100,4,2,38,49,0,0
35360,-100,4,2,31,46,0,0
35541,-100,4,2,31,49,0,0
35902,-100,4,2,39,63,0,0
36264,-100,4,2,31,56,0,0
36444,-100,4,2,33,56,0,0
36625,-100,4,2,40,70,0,0
36806,-100,4,2,31,70,0,0
36986,-100,4,2,31,59,0,0
37167,-100,4,2,41,59,0,0
37347,-100,4,2,42,59,0,0
37529,-100,4,2,31,59,0,0
37709,-100,4,2,31,63,0,0
37890,-100,4,2,36,63,0,0
38070,-100,4,2,43,63,0,0
38251,-100,4,2,31,63,0,0
38432,-100,4,2,31,66,0,0
38794,-100,4,2,44,70,0,0
39155,-100,4,2,10,70,0,0
39336,-100,4,2,45,70,0,0
39517,-100,4,2,40,63,0,0
39697,-100,4,2,31,63,0,0
39878,-100,4,2,31,66,0,0
40059,-100,4,2,46,66,0,0
40239,-100,4,2,47,59,0,0
40601,-100,4,2,36,56,0,0
40962,-100,4,2,48,59,0,0
41143,-100,4,2,31,59,0,0
41324,-100,4,2,31,52,0,0
41504,-100,4,2,31,59,0,0
41685,-100,4,2,49,66,0,0
41866,-100,4,2,15,66,0,0
41956,-100,4,2,50,66,0,0
42047,-100,4,2,15,66,0,0
42227,-100,4,2,51,66,0,0
42408,-83.3333333333333,4,2,52,66,0,0
42588,-83.3333333333333,4,2,27,66,0,0
42770,-83.3333333333333,4,2,53,70,0,0
42950,-83.3333333333333,4,2,26,70,0,0
43131,-83.3333333333333,4,2,54,70,0,0
43402,-83.3333333333333,4,2,53,70,0,0
43492,-83.3333333333333,4,2,55,63,0,0
43673,-83.3333333333333,4,2,18,63,0,0
43854,-83.3333333333333,4,2,17,63,0,0
44033,-83.3333333333333,4,2,26,63,0,0
44215,-83.3333333333333,4,2,52,56,0,0
44396,-83.3333333333333,4,2,27,56,0,0
44577,-83.3333333333333,4,2,21,56,0,0
44757,-83.3333333333333,4,2,56,56,0,0
44848,-83.3333333333333,4,2,50,56,0,0
44938,-83.3333333333333,4,2,15,63,0,0
45119,-83.3333333333333,4,2,51,63,0,0
45300,-83.3333333333333,4,2,52,63,0,0
45480,-83.3333333333333,4,2,27,63,0,0
45661,-83.3333333333333,4,2,53,52,0,0
45842,-83.3333333333333,4,2,26,52,0,0
46023,-83.3333333333333,4,2,54,56,0,0
46294,-83.3333333333333,4,2,21,56,0,0
46384,-83.3333333333333,4,2,15,56,0,0
46565,-83.3333333333333,4,2,18,56,0,0
46745,-83.3333333333333,4,2,17,63,0,0
46926,-83.3333333333333,4,2,54,63,0,0
47107,-83.3333333333333,4,2,18,63,0,0
47287,-83.3333333333333,4,2,10,63,0,0
47468,-83.3333333333333,4,2,21,59,0,0
47649,-83.3333333333333,4,2,15,59,0,0
47739,-83.3333333333333,4,2,50,59,0,0
47830,-83.3333333333333,4,2,15,59,0,0
48011,-83.3333333333333,4,2,51,59,0,0
48191,-83.3333333333333,4,2,52,63,0,0
48371,-83.3333333333333,4,2,27,63,0,0
48553,-83.3333333333333,4,2,53,63,0,0
48733,-83.3333333333333,4,2,54,63,0,0
48914,-83.3333333333333,4,2,54,66,0,0
49095,-83.3333333333333,4,2,57,66,0,0
49185,-83.3333333333333,4,2,22,66,0,0
49275,-83.3333333333333,4,2,20,66,0,0
49456,-83.3333333333333,4,2,18,66,0,0
49637,-83.3333333333333,4,2,17,66,0,0
49816,-83.3333333333333,4,2,26,66,0,0
49998,-83.3333333333333,4,2,58,59,0,1
50179,-83.3333333333333,4,2,21,59,0,1
50360,-83.3333333333333,4,2,49,63,0,1
50541,-83.3333333333333,4,2,15,63,0,1
50721,-83.3333333333333,4,2,59,66,0,1
50902,-83.3333333333333,4,2,17,66,0,1
51083,-100,4,2,58,70,0,1
51263,-100,4,2,27,70,0,1
51444,-100,4,2,22,66,0,1
51625,-100,4,2,57,66,0,1
51806,-100,4,2,54,70,0,1
51986,-100,4,2,21,70,0,1
52167,-100,4,2,52,63,0,1
52348,-100,4,2,21,63,0,1
52529,-100,4,2,21,56,0,0
52619,-100,4,2,31,56,0,0
52890,-100,4,2,20,49,0,0
53071,-100,4,2,11,52,0,0
53251,-100,4,2,49,59,0,0
53522,-100,4,2,31,59,0,0
53974,-100,4,2,11,59,0,0
54336,-100,4,2,11,52,0,0
54517,-100,4,2,31,52,0,0
54697,-100,4,2,10,56,0,0
55059,-100,4,2,11,56,0,0
55239,-100,4,2,31,59,0,0
55420,-100,4,2,11,59,0,0
55782,-100,4,2,11,52,0,0
55962,-100,4,2,31,52,0,0
56143,-100,4,2,10,49,0,0
56504,-100,4,2,11,49,0,0
56685,-100,4,2,31,49,0,0
56866,-100,4,2,11,52,0,0
57589,-100,4,2,11,59,0,0
57770,-100,4,2,10,59,0,0
57950,-100,4,2,11,59,0,0
58131,-100,4,2,10,59,0,0
58312,-100,4,2,10,66,0,0
58492,-100,4,2,11,66,0,0
58673,-100,4,2,11,49,0,0
59035,-100,4,2,11,59,0,0
59396,-100,4,2,31,59,0,0
59757,-100,4,2,11,59,0,0
60119,-100,4,2,11,52,0,0
60300,-100,4,2,31,52,0,0
60480,-100,4,2,10,56,0,0
60842,-100,4,2,11,56,0,0
60932,-100,4,2,10,56,0,0
61023,-100,4,2,11,59,0,0
61113,-100,4,2,10,59,0,0
61565,-100,4,2,11,52,0,0
61745,-100,4,2,31,52,0,0
61926,-100,4,2,10,49,0,0
62288,-100,4,2,11,49,0,0
62468,-100,4,2,31,49,0,0
62649,-100,4,2,11,52,0,0
63372,-100,4,2,11,59,0,0
63553,-100,4,2,10,59,0,0
63733,-100,4,2,11,59,0,0
63914,-100,4,2,10,59,0,0
64095,-100,4,2,10,66,0,0
64275,-100,4,2,11,66,0,0
64456,-100,4,2,11,49,0,0
64998,-100,4,2,27,49,0,0
65179,-100,4,2,16,49,0,0
65359,-100,4,2,11,49,0,0
65541,-100,4,2,13,49,0,0
65721,-100,4,2,18,49,0,0
65902,-100,4,2,56,56,0,0
66083,-100,4,2,13,56,0,0
66264,-100,4,2,19,56,0,0
66444,-100,4,2,11,56,0,0
66625,-100,4,2,60,52,0,0
66806,-100,4,2,11,52,0,0
66986,-100,4,2,56,49,0,0
67167,-100,4,2,10,49,0,0
67348,-100,4,2,27,49,0,0
67529,-100,4,2,11,49,0,0
67709,-100,4,2,56,52,0,0
68071,-100,4,2,27,52,0,0
68250,-100,4,2,11,52,0,0
68432,-100,4,2,56,49,0,0
68612,-100,4,2,26,49,0,0
68794,-100,4,2,61,49,0,0
68974,-100,4,2,16,49,0,0
69155,-100,4,2,51,52,0,0
69336,-100,4,2,26,52,0,0
69517,-100,4,2,27,56,0,0
69697,-100,4,2,18,56,0,0
69878,-100,4,2,51,63,0,0
70059,-100,4,2,10,42,0,0
70601,-100,4,2,11,49,0,0
70782,-100,4,2,16,49,0,0
70962,-100,4,2,27,49,0,0
71142,-100,4,2,11,49,0,0
71324,-100,4,2,13,49,0,0
71504,-100,4,2,56,49,0,0
71685,-100,4,2,61,56,0,0
71866,-100,4,2,13,56,0,0
72047,-100,4,2,19,56,0,0
72227,-100,4,2,51,56,0,0
72408,-100,4,2,56,52,0,0
72589,-100,4,2,19,52,0,0
72770,-100,4,2,13,49,0,0
72950,-100,4,2,10,49,0,0
73131,-100,4,2,60,49,0,0
73312,-100,4,2,11,49,0,0
73492,-100,4,2,56,52,0,0
73672,-100,4,2,27,52,0,0
73854,-100,4,2,16,52,0,0
74034,-100,4,2,11,52,0,0
74215,-100,4,2,56,49,0,0
74396,-100,4,2,27,49,0,0
74757,-100,4,2,20,49,0,0
74938,-100,4,2,27,52,0,0
75119,-100,4,2,26,52,0,0
75300,-100,4,2,27,56,0,0
75480,-100,4,2,16,56,0,0
75661,-100,4,2,60,42,0,0
76023,-100,4,2,31,42,0,0
76384,-100,4,2,62,56,0,0
76745,-100,4,2,31,49,0,0
76926,-100,4,2,63,49,0,0
77107,-100,4,2,64,63,0,0
77288,-100,4,2,31,63,0,0
77468,-100,4,2,31,56,0,0
77830,-100,4,2,65,49,0,0
78191,-100,4,2,31,49,0,0
78372,-100,4,2,66,46,0,0
78552,-100,4,2,67,46,0,0
78733,-100,4,2,31,46,0,0
78914,-100,4,2,31,42,0,0
79276,-100,4,2,68,56,0,0
79637,-100,4,2,31,49,0,0
79818,-100,4,2,63,49,0,0
79998,-100,4,2,64,63,0,0
80179,-100,4,2,31,63,0,0
80360,-100,4,2,31,56,0,0
80721,-100,4,2,65,49,0,0
81083,-100,4,2,31,49,0,0
81264,-100,4,2,66,49,0,0
81444,-100,4,2,69,49,0,0
81625,-100,4,2,31,46,0,0
81806,-100,4,2,31,49,0,0
82167,-100,4,2,68,63,0,0
82529,-100,4,2,31,56,0,0
82709,-100,4,2,63,56,0,0
82890,-100,4,2,64,70,0,0
83071,-100,4,2,31,70,0,0
83251,-100,4,2,31,59,0,0
83432,-100,4,2,70,59,0,0
83612,-100,4,2,65,59,0,0
83794,-100,4,2,31,59,0,0
83974,-100,4,2,31,63,0,0
84155,-100,4,2,66,63,0,0
84336,-100,4,2,71,63,0,0
84517,-100,4,2,31,63,0,0
84697,-100,4,2,31,66,0,0
85059,-100,4,2,72,70,0,0
85420,-100,4,2,10,70,0,0
85601,-100,4,2,73,70,0,0
85782,-100,4,2,64,63,0,0
85962,-100,4,2,31,63,0,0
86143,-100,4,2,31,66,0,0
86324,-100,4,2,74,66,0,0
86504,-100,4,2,75,59,0,0
86866,-100,4,2,66,56,0,0
87227,-100,4,2,76,59,0,0
87408,-100,4,2,10,59,0,0
87589,-100,4,2,77,52,0,0
87950,-100,4,2,49,66,0,0
88131,-100,4,2,15,66,0,0
88221,-100,4,2,50,66,0,0
88312,-100,4,2,15,66,0,0
88492,-100,4,2,51,66,0,0
88673,-83.3333333333333,4,2,52,59,0,0
88853,-83.3333333333333,4,2,27,59,0,0
89035,-83.3333333333333,4,2,53,63,0,0
89215,-83.3333333333333,4,2,26,63,0,0
89396,-83.3333333333333,4,2,54,63,0,0
89667,-83.3333333333333,4,2,53,63,0,0
89757,-83.3333333333333,4,2,55,56,0,0
89938,-83.3333333333333,4,2,18,56,0,0
90119,-83.3333333333333,4,2,17,56,0,0
90298,-83.3333333333333,4,2,26,56,0,0
90480,-83.3333333333333,4,2,52,49,0,0
90661,-83.3333333333333,4,2,27,49,0,0
90842,-83.3333333333333,4,2,21,49,0,0
91022,-83.3333333333333,4,2,56,49,0,0
91113,-83.3333333333333,4,2,50,49,0,0
91203,-83.3333333333333,4,2,15,56,0,0
91384,-83.3333333333333,4,2,51,56,0,0
91565,-83.3333333333333,4,2,52,56,0,0
91745,-83.3333333333333,4,2,27,56,0,0
91926,-83.3333333333333,4,2,53,46,0,0
92107,-83.3333333333333,4,2,26,46,0,0
92288,-83.3333333333333,4,2,54,49,0,0
92559,-83.3333333333333,4,2,21,49,0,0
92649,-83.3333333333333,4,2,15,49,0,0
92830,-83.3333333333333,4,2,18,49,0,0
93011,-83.3333333333333,4,2,17,56,0,0
93191,-83.3333333333333,4,2,54,56,0,0
93372,-83.3333333333333,4,2,18,56,0,0
93552,-83.3333333333333,4,2,10,56,0,0
93733,-83.3333333333333,4,2,21,52,0,0
93914,-83.3333333333333,4,2,15,52,0,0
94004,-83.3333333333333,4,2,50,52,0,0
94095,-83.3333333333333,4,2,15,52,0,0
94276,-83.3333333333333,4,2,51,52,0,0
94456,-83.3333333333333,4,2,52,56,0,0
94636,-83.3333333333333,4,2,27,56,0,0
94818,-83.3333333333333,4,2,53,56,0,0
94998,-83.3333333333333,4,2,54,56,0,0
95179,-83.3333333333333,4,2,54,59,0,0
95360,-83.3333333333333,4,2,57,59,0,0
95450,-83.3333333333333,4,2,22,59,0,0
95540,-83.3333333333333,4,2,20,59,0,0
95721,-83.3333333333333,4,2,18,59,0,0
95902,-83.3333333333333,4,2,17,59,0,0
96081,-83.3333333333333,4,2,26,59,0,0
96264,-83.3333333333333,4,2,61,42,0,1
96444,-83.3333333333333,4,2,27,42,0,1
96625,-83.3333333333333,4,2,49,56,0,1
96806,-83.3333333333333,4,2,15,56,0,1
96986,-83.3333333333333,4,2,59,59,0,1
97167,-83.3333333333333,4,2,17,59,0,1
97348,-100,4,2,58,63,0,1
97528,-100,4,2,27,63,0,1
97709,-100,4,2,22,59,0,1
97890,-100,4,2,57,59,0,1
98071,-100,4,2,54,63,0,1
98251,-100,4,2,21,63,0,1
98432,-100,4,2,52,56,0,1
98613,-100,4,2,21,56,0,1
98794,-100,4,2,21,49,0,0
98884,-100,4,2,31,49,0,0
99155,-100,4,2,20,42,0,0
99336,-100,4,2,11,46,0,0
99517,-66.6666666666667,4,2,78,66,0,0
99697,-66.6666666666667,4,2,15,66,0,0
100059,-66.6666666666667,4,2,79,66,0,0
100239,-66.6666666666667,4,2,80,66,0,0
100419,-66.6666666666667,4,2,27,66,0,0
100601,-66.6666666666667,4,2,53,70,0,0
100782,-66.6666666666667,4,2,26,70,0,0
100872,-66.6666666666667,4,2,31,70,0,0
100962,-66.6666666666667,4,2,81,70,0,0
101143,-66.6666666666667,4,2,54,70,0,0
101324,-66.6666666666667,4,2,55,63,0,0
101504,-66.6666666666667,4,2,82,63,0,0
101685,-66.6666666666667,4,2,83,63,0,0
101865,-66.6666666666667,4,2,26,63,0,0
102047,-66.6666666666667,4,2,52,56,0,0
102227,-66.6666666666667,4,2,27,56,0,0
102318,-66.6666666666667,4,2,10,56,0,0
102408,-66.6666666666667,4,2,84,56,0,0
102588,-66.6666666666667,4,2,56,56,0,0
102679,-66.6666666666667,4,2,50,56,0,0
102770,-66.6666666666667,4,2,15,63,0,0
102950,-66.6666666666667,4,2,79,63,0,0
103131,-66.6666666666667,4,2,80,63,0,0
103311,-66.6666666666667,4,2,27,63,0,0
103492,-66.6666666666667,4,2,53,52,0,0
103673,-66.6666666666667,4,2,26,52,0,0
103854,-66.6666666666667,4,2,81,56,0,0
104035,-66.6666666666667,4,2,26,56,0,0
104125,-66.6666666666667,4,2,27,56,0,0
104215,-66.6666666666667,4,2,15,56,0,0
104396,-66.6666666666667,4,2,82,56,0,0
104577,-66.6666666666667,4,2,85,63,0,0
104667,-66.6666666666667,4,2,10,63,0,0
104757,-66.6666666666667,4,2,54,63,0,0
104938,-66.6666666666667,4,2,52,63,0,0
105119,-66.6666666666667,4,2,10,63,0,0
105300,-66.6666666666667,4,2,84,59,0,0
105480,-66.6666666666667,4,2,15,59,0,0
105571,-66.6666666666667,4,2,11,59,0,0
105661,-66.6666666666667,4,2,56,59,0,0
105842,-66.6666666666667,4,2,79,59,0,0
106023,-66.6666666666667,4,2,80,63,0,0
106203,-66.6666666666667,4,2,86,63,0,0
106384,-66.6666666666667,4,2,53,63,0,0
106565,-66.6666666666667,4,2,87,63,0,0
106745,-66.6666666666667,4,2,81,66,0,0
106925,-66.6666666666667,4,2,57,66,0,0
107017,-66.6666666666667,4,2,22,66,0,0
107107,-66.6666666666667,4,2,20,66,0,0
107288,-66.6666666666667,4,2,82,66,0,0
107468,-66.6666666666667,4,2,88,66,0,0
107648,-66.6666666666667,4,2,57,66,0,0
107830,-66.6666666666667,4,2,58,59,0,1
108011,-66.6666666666667,4,2,21,59,0,1
108101,-66.6666666666667,4,2,10,59,0,1
108191,-100,4,2,78,63,0,1
108371,-100,4,2,15,63,0,1
108553,-100,4,2,15,66,0,1
108733,-100,4,2,89,66,0,1
108914,-100,4,2,90,70,0,1
109095,-100,4,2,27,70,0,1
109276,-100,4,2,22,66,0,1
109456,-100,4,2,91,66,0,1
109637,-100,4,2,81,70,0,1
109818,-100,4,2,21,70,0,1
109998,-100,4,2,52,63,0,1
110179,-100,4,2,92,63,0,1
110360,-100,4,2,93,56,0,0
110450,-100,4,2,31,56,0,0
110721,-100,4,2,94,49,0,0
110902,-100,4,2,11,52,0,0
111083,-100,4,2,95,56,0,0
111264,-100,4,2,10,46,0,0
111444,-100,4,2,11,46,0,0
111625,-100,4,2,31,46,0,0
111806,-100,4,2,11,52,0,0
112167,-100,4,2,11,49,0,0
112348,-100,4,2,31,49,0,0
112529,-100,4,2,10,56,0,0
112890,-100,4,2,11,56,0,0
113071,-100,4,2,31,56,0,0
113251,-100,4,2,11,52,0,0
113613,-100,4,2,11,46,0,0
113794,-100,4,2,31,46,0,0
113974,-100,4,2,10,59,0,0
114155,-100,4,2,10,52,0,0
114336,-100,4,2,11,52,0,0
114517,-100,4,2,31,52,0,0
114697,-100,4,2,11,56,0,0
115059,-100,4,2,11,59,0,0
115420,-100,4,2,11,56,0,0
115601,-100,4,2,10,56,0,0
115782,-100,4,2,11,56,0,0
115962,-100,4,2,10,56,0,0
116143,-100,4,2,10,63,0,0
116323,-100,4,2,11,63,0,0
116504,-100,4,2,11,49,0,0
116685,-100,4,2,31,49,0,0
116866,-100,4,2,10,63,0,0
117047,-100,4,2,10,49,0,0
117227,-100,4,2,11,49,0,0
117408,-100,4,2,31,49,0,0
117589,-100,4,2,10,52,0,0
117950,-100,4,2,11,52,0,0
118131,-100,4,2,31,52,0,0
118312,-100,4,2,10,56,0,0
118492,-100,4,2,10,52,0,0
118673,-100,4,2,11,49,0,0
118764,-100,4,2,10,49,0,0
118854,-100,4,2,11,56,0,0
118944,-100,4,2,10,56,0,0
119035,-100,4,2,10,63,0,0
119396,-100,4,2,11,52,0,0
119577,-100,4,2,31,52,0,0
119757,-100,4,2,10,63,0,0
120119,-100,4,2,11,63,0,0
120300,-100,4,2,31,63,0,0
120480,-100,4,2,11,59,0,0
121203,-100,4,2,11,63,0,0
121383,-100,4,2,10,63,0,0
121565,-100,4,2,11,63,0,0
121745,-100,4,2,10,63,0,0
121926,-100,4,2,10,66,0,0
122106,-100,4,2,11,66,0,0
122468,-100,4,2,31,66,0,0
122649,-222.222222222222,4,2,10,70,0,1
122920,-222.222222222222,4,2,10,49,0,0
123011,-222.222222222222,4,2,96,49,0,0
123191,-222.222222222222,4,2,97,49,0,0
123372,-74.0740740740741,4,2,80,59,0,0
123552,-74.0740740740741,4,2,27,59,0,0
123733,-74.0740740740741,4,2,53,63,0,0
123914,-74.0740740740741,4,2,26,63,0,0
124004,-74.0740740740741,4,2,31,63,0,0
124095,-74.0740740740741,4,2,81,63,0,0
124276,-74.0740740740741,4,2,54,63,0,0
124456,-74.0740740740741,4,2,55,56,0,0
124637,-74.0740740740741,4,2,82,56,0,0
124818,-74.0740740740741,4,2,83,56,0,0
124998,-74.0740740740741,4,2,26,56,0,0
125179,-74.0740740740741,4,2,52,49,0,0
125360,-74.0740740740741,4,2,27,49,0,0
125450,-74.0740740740741,4,2,10,49,0,0
125541,-74.0740740740741,4,2,84,49,0,0
125721,-74.0740740740741,4,2,56,49,0,0
125812,-74.0740740740741,4,2,50,49,0,0
125902,-74.0740740740741,4,2,15,56,0,0
126083,-74.0740740740741,4,2,79,56,0,0
126264,-74.0740740740741,4,2,80,56,0,0
126444,-74.0740740740741,4,2,27,56,0,0
126625,-74.0740740740741,4,2,53,46,0,0
126806,-74.0740740740741,4,2,26,46,0,0
126986,-74.0740740740741,4,2,81,49,0,0
127167,-74.0740740740741,4,2,26,49,0,0
127257,-74.0740740740741,4,2,27,49,0,0
127348,-74.0740740740741,4,2,15,49,0,0
127529,-74.0740740740741,4,2,82,49,0,0
127709,-74.0740740740741,4,2,85,56,0,0
127889,-74.0740740740741,4,2,54,56,0,0
128071,-74.0740740740741,4,2,52,56,0,0
128251,-74.0740740740741,4,2,10,56,0,0
128432,-74.0740740740741,4,2,84,52,0,0
128612,-74.0740740740741,4,2,15,52,0,0
128703,-74.0740740740741,4,2,11,52,0,0
128794,-74.0740740740741,4,2,56,52,0,0
128974,-74.0740740740741,4,2,79,52,0,0
129155,-74.0740740740741,4,2,80,56,0,0
129335,-74.0740740740741,4,2,86,56,0,0
129517,-74.0740740740741,4,2,53,56,0,0
129697,-74.0740740740741,4,2,87,56,0,0
129878,-74.0740740740741,4,2,81,59,0,0
130058,-74.0740740740741,4,2,57,59,0,0
130149,-74.0740740740741,4,2,22,59,0,0
130239,-74.0740740740741,4,2,20,59,0,0
130420,-74.0740740740741,4,2,82,59,0,0
130601,-74.0740740740741,4,2,88,59,0,0
130781,-74.0740740740741,4,2,57,59,0,0
130962,-74.0740740740741,4,2,61,42,0,0
131143,-74.0740740740741,4,2,27,42,0,0
131233,-74.0740740740741,4,2,10,42,0,0
131324,-100,4,2,78,56,0,1
131504,-100,4,2,15,56,0,1
131685,-100,4,2,15,59,0,1
131866,-100,4,2,89,59,0,1
132047,-100,4,2,90,63,0,1
132227,-100,4,2,27,63,0,1
132408,-100,4,2,22,59,0,1
132589,-100,4,2,91,59,0,1
132770,-100,4,2,81,63,0,1
132950,-100,4,2,21,63,0,1
133131,-100,4,2,52,56,0,1
133312,-100,4,2,92,56,0,1
133492,-100,4,2,98,49,0,0
133583,-100,4,2,31,49,0,0
133854,-100,4,2,11,42,0,0
134035,-100,4,2,11,46,0,0
134215,-62.5,4,2,99,86,0,1
134395,-62.5,4,2,100,86,0,1
134486,-62.5,4,2,101,66,0,1
134577,-62.5,4,2,100,86,0,1
134757,-62.5,4,2,102,86,0,1
134938,-62.5,4,2,103,86,0,1
135118,-62.5,4,2,104,66,0,1
135300,-62.5,4,2,105,90,0,1
135480,-62.5,4,2,106,90,0,1
135661,-62.5,4,2,107,90,0,1
135842,-62.5,4,2,108,90,0,1
135932,-62.5,4,2,109,70,0,1
136023,-62.5,4,2,110,81,0,1
136203,-62.5,4,2,111,81,0,1
136384,-62.5,4,2,112,81,0,1
136564,-62.5,4,2,113,63,0,1
136745,-62.5,4,2,114,72,0,1
136926,-62.5,4,2,115,72,0,1
137016,-62.5,4,2,10,56,0,1
137107,-62.5,4,2,116,72,0,1
137287,-62.5,4,2,117,56,0,1
137378,-62.5,4,2,118,56,0,1
137468,-62.5,4,2,119,81,0,1
137649,-62.5,4,2,120,81,0,1
137830,-62.5,4,2,121,81,0,1
138010,-62.5,4,2,104,63,0,1
138191,-62.5,4,2,122,68,0,1
138372,-62.5,4,2,123,68,0,1
138553,-62.5,4,2,124,72,0,1
138733,-62.5,4,2,106,72,0,1
138824,-62.5,4,2,104,56,0,1
138914,-62.5,4,2,100,72,0,1
139095,-62.5,4,2,125,72,0,1
139276,-62.5,4,2,126,81,0,1
139366,-62.5,4,2,10,63,0,1
139456,-62.5,4,2,127,63,0,1
139637,-62.5,4,2,128,81,0,1
139818,-62.5,4,2,129,81,0,1
139908,-62.5,4,2,10,63,0,1
139998,-62.5,4,2,130,76,0,1
140178,-62.5,4,2,100,76,0,1
140270,-62.5,4,2,101,59,0,1
140360,-62.5,4,2,131,76,0,1
140541,-62.5,4,2,102,76,0,1
140721,-62.5,4,2,103,81,0,1
140901,-62.5,4,2,104,63,0,1
141083,-62.5,4,2,105,81,0,1
141264,-62.5,4,2,132,81,0,1
141444,-62.5,4,2,107,86,0,1
141624,-62.5,4,2,123,86,0,1
141715,-62.5,4,2,109,66,0,1
141806,-62.5,4,2,133,86,0,1
141986,-62.5,4,2,111,86,0,1
142167,-62.5,4,2,134,86,0,1
142347,-62.5,4,2,113,66,0,1
142529,-62.5,4,2,135,76,0,1
142709,-62.5,4,2,136,76,0,1
142800,-62.5,4,2,10,59,0,1
142890,-62.5,4,2,137,81,0,1
143070,-62.5,4,2,117,63,0,1
143251,-62.5,4,2,138,86,0,1
143432,-62.5,4,2,139,86,0,1
143613,-62.5,4,2,140,90,0,1
143794,-62.5,4,2,141,90,0,1
143974,-62.5,4,2,142,86,0,1
144155,-62.5,4,2,143,86,0,1
144336,-62.5,4,2,144,90,0,1
144517,-62.5,4,2,141,90,0,1
144697,-62.5,4,2,145,81,0,1
144878,-62.5,4,2,146,81,0,1
145059,-62.5,4,2,147,72,0,1
145149,-62.5,4,2,31,56,0,1
145420,-62.5,4,2,148,63,0,1
145510,-62.5,4,2,148,49,0,1
145601,-62.5,4,2,11,52,0,1
145782,-62.5,4,2,149,76,0,0
145962,-100,4,2,10,59,0,0
146142,-100,4,2,31,59,0,0
146324,-100,4,2,10,59,0,0
146684,-100,4,2,31,59,0,0
146866,-100,4,2,11,52,0,0
147047,-100,4,2,31,52,0,0
147227,-100,4,2,10,56,0,0
147589,-100,4,2,11,56,0,0
147770,-100,4,2,31,59,0,0
147950,-100,4,2,11,59,0,0
148312,-100,4,2,11,52,0,0
148492,-100,4,2,31,52,0,0
148673,-100,4,2,10,49,0,0
149035,-100,4,2,11,49,0,0
149215,-100,4,2,31,49,0,0
149396,-100,4,2,11,52,0,0
150119,-100,4,2,11,59,0,0
150300,-100,4,2,10,59,0,0
150480,-100,4,2,11,59,0,0
150661,-100,4,2,10,59,0,0
150842,-100,4,2,10,66,0,0
151022,-100,4,2,11,66,0,0
151203,-100,4,2,10,42,0,0

[Colours]
Combo1 : 210,255,236
Combo2 : 248,210,255
Combo3 : 255,252,210
Combo4 : 255,210,211

[HitObjects]
180,86,480,6,0,P|173:130|172:174,1,85,2|2,2:0|2:0,2:0:0:0:
258,183,842,2,0,P|259:140|266:98,1,85,2|2,2:0|2:0,2:0:0:0:
104,342,1203,5,4,3:0:0:0:
87,334,1745,5,2,2:0:0:0:
328,247,1926,1,2,3:2:0:0:
343,261,2468,21,2,2:0:0:0:
512,323,2649,1,2,3:2:0:0:
497,307,3191,5,2,2:0:0:0:
243,260,3372,1,2,3:2:0:0:
235,277,3914,5,2,2:0:0:0:
343,51,4095,1,2,3:2:0:0:
350,62,4637,21,2,2:0:0:0:
391,345,4818,1,2,3:2:0:0:
385,368,5360,5,2,2:0:0:0:
335,262,5541,1,2,3:2:0:0:
347,241,5902,5,2,3:2:0:0:
372,156,6083,1,2,2:0:0:0:
234,6,6264,1,6,3:0:0:0:
41,203,6986,21,6,3:2:0:0:
136,173,7167,1,2,2:0:0:0:
298,247,7348,2,0,P|236:240|185:242,1,85,0|2,2:0|3:2,2:0:0:0:
153,162,7709,2,0,P|155:98|163:25,1,127.5,6|0,3:2|2:0,2:0:0:0:
239,0,8071,5,0,2:0:0:0:
313,66,8251,1,2,3:2:0:0:
398,22,8432,2,0,L|495:14,1,85,6|0,3:2|2:0,2:0:0:0:
304,82,8794,5,0,2:0:0:0:
381,245,8974,1,2,3:2:0:0:
405,152,9155,1,6,3:2:0:0:
316,169,9336,21,2,2:0:0:0:
477,217,9517,1,2,2:0:0:0:
396,63,9697,1,0,2:0:0:0:
447,313,9878,1,6,3:2:0:0:
468,336,10239,6,0,P|403:343|341:360,1,127.5,2|0,2:0|2:0,2:0:0:0:
259,294,10601,2,0,L|160:281,1,85,6|0,3:2|2:0,2:0:0:0:
85,304,10962,1,0,2:0:0:0:
245,182,11143,1,2,3:2:0:0:
143,375,11324,5,6,3:2:0:0:
145,189,11504,1,0,2:0:0:0:
242,328,11685,1,0,2:0:0:0:
79,273,11866,1,2,3:2:0:0:
159,170,12047,2,0,P|169:120|170:-10,1,170,6|2,3:2|2:0,2:0:0:0:
410,66,12770,21,6,3:2:0:0:
459,146,12950,1,2,2:0:0:0:
378,293,13131,2,0,P|380:249|388:208,1,85,0|2,2:0|3:2,2:0:0:0:
290,290,13492,2,0,P|228:293|154:306,1,127.5,6|0,3:2|2:0,2:0:0:0:
104,371,13854,5,0,2:0:0:0:
14,333,14035,1,2,3:2:0:0:
79,267,14215,2,0,P|69:224|64:181,1,85,6|0,3:2|2:0,2:0:0:0:
246,64,14577,5,0,2:0:0:0:
157,122,14757,1,10,3:2:0:0:
150,19,14938,21,6,3:2:0:0:
271,164,15119,1,2,2:0:0:0:
341,94,15300,2,0,L|350:9,1,85,2|0,2:0|2:0,2:0:0:0:
398,295,15661,1,6,3:2:0:0:
415,322,16023,6,0,P|355:300|291:295,1,127.5,2|0,2:0|2:0,2:0:0:0:
194,343,16384,1,6,3:2:0:0:
263,98,16565,1,0,2:0:0:0:
296,316,16745,1,0,2:0:0:0:
151,190,16926,1,2,3:2:0:0:
358,156,17107,5,6,3:2:0:0:
260,219,17288,1,0,2:0:0:0:
355,45,17468,1,0,2:0:0:0:
459,214,17649,1,2,3:2:0:0:
249,197,17830,21,6,3:2:0:0:
133,206,18011,2,0,L|57:190,2,42.5,8|8|12,2:3|2:3|2:3,2:0:0:0:
348,233,18372,1,8,2:3:0:0:
188,115,18553,5,6,1:2:0:0:
258,318,18733,1,2,2:0:0:0:
444,198,18914,2,0,P|372:193|304:210,1,127.5,10|0,2:0|2:0,2:0:0:0:
229,339,19276,2,0,P|232:296|223:253,1,85,6|2,2:0|2:0,2:0:0:0:
242,22,19637,5,10,2:0:0:0:
165,107,19818,1,2,3:2:0:0:
345,156,19998,2,0,P|383:146|440:143,1,85,6|2,3:2|2:0,2:0:0:0:
138,10,20360,21,10,2:0:0:0:
267,113,20541,1,2,3:2:0:0:
75,81,20721,1,6,3:2:0:0:
176,232,20902,5,8,2:3:0:0:
176,232,20992,1,8,2:3:0:0:
176,232,21083,1,10,2:0:0:0:
238,27,21264,1,10,2:0:0:0:
84,178,21444,2,0,L|-13:187,1,85,6|0,3:2|2:0,2:0:0:0:
276,203,21806,5,10,2:0:0:0:
354,355,21986,1,2,3:2:0:0:
436,289,22167,2,0,L|446:185,1,85,6|2,3:2|2:0,2:0:0:0:
349,43,22529,2,0,L|357:127,1,85,10|2,2:0|3:2,2:0:0:0:
467,89,22890,21,6,3:2:0:0:
348,242,23071,1,2,2:0:0:0:
242,184,23251,2,0,P|232:140|239:74,1,85,10|2,2:0|3:2,2:0:0:0:
258,0,23613,5,6,3:2:0:0:
116,70,23794,1,8,2:3:0:0:
140,66,23884,1,8,2:3:0:0:
162,61,23974,1,8,2:3:0:0:
373,41,24155,1,8,2:3:0:0:
246,277,24336,5,6,1:2:0:0:
165,217,24517,1,2,2:0:0:0:
4,324,24697,2,0,P|71:309|139:300,1,127.5,10|0,2:0|2:0,2:0:0:0:
283,376,25059,2,0,P|274:340|280:281,1,85,6|2,3:2|2:0,2:0:0:0:
334,121,25420,21,10,2:0:0:0:
404,190,25601,1,2,3:2:0:0:
245,177,25782,6,0,L|156:185,1,85,6|2,3:2|2:0,2:0:0:0:
92,114,26143,1,10,2:0:0:0:
296,256,26324,1,2,3:2:0:0:
167,57,26504,5,6,3:2:0:0:
120,264,26685,1,8,2:3:0:0:
120,264,26776,1,8,2:3:0:0:
120,264,26866,1,10,2:0:0:0:
244,153,27047,1,10,2:0:0:0:
85,140,27227,22,0,L|-18:125,1,85,6|2,3:2|2:0,2:0:0:0:
303,87,27589,1,10,2:0:0:0:
205,232,27770,1,2,3:2:0:0:
210,58,27950,5,6,3:2:0:0:
286,283,28131,1,2,2:0:0:0:
286,283,28312,1,10,2:0:0:0:
367,167,28492,1,2,3:2:0:0:
410,319,28673,5,14,3:2:0:0:
359,73,28854,1,10,3:2:0:0:
395,336,29035,21,14,3:2:0:0:
430,240,29215,1,10,3:2:0:0:
459,142,29396,1,14,1:2:0:0:
395,336,29757,37,10,2:0:0:0:
287,384,29938,1,2,2:0:0:0:
48,258,30119,1,6,3:2:0:0:
32,273,30480,5,10,2:0:0:0:
86,364,30661,1,2,2:0:0:0:
195,72,30842,1,6,3:2:0:0:
184,88,31023,2,0,L|119:107,1,42.5,8|0,2:0|2:0,2:0:0:0:
252,145,31203,5,10,2:0:0:0:
116,14,31384,1,2,2:0:0:0:
50,83,31565,2,0,P|54:137|83:176,1,85,6|0,2:0|2:0,2:0:0:0:
340,177,31926,1,10,2:0:0:0:
500,160,32107,2,0,P|459:141|406:142,1,85,6|6,2:0|3:2,2:0:0:0:
168,228,32468,22,0,L|160:186,1,42.5,8|0,2:0|2:0,2:0:0:0:
165,249,32649,1,10,2:0:0:0:
249,186,32830,1,2,2:0:0:0:
432,377,33011,1,6,3:2:0:0:
451,363,33372,5,10,2:0:0:0:
409,279,33553,1,2,2:0:0:0:
464,51,33733,1,6,3:2:0:0:
451,41,33914,2,0,L|442:-7,1,42.5,8|0,2:0|2:0,2:0:0:0:
431,136,34095,5,10,2:0:0:0:
351,195,34276,1,2,2:0:0:0:
261,163,34456,2,0,L|160:148,1,85,6|0,2:0|2:0,2:0:0:0:
48,283,34818,1,10,2:0:0:0:
117,331,34998,2,0,L|201:318,1,85,6|6,2:0|3:2,2:0:0:0:
107,69,35360,22,0,L|62:77,1,42.5,8|0,2:0|2:0,2:0:0:0:
127,81,35541,1,10,2:0:0:0:
214,15,35721,1,2,2:0:0:0:
281,259,35902,1,6,2:0:0:0:
292,271,36264,5,10,2:0:0:0:
374,319,36444,1,2,2:0:0:0:
90,355,36625,1,6,3:2:0:0:
77,344,36806,2,0,L|58:291,1,42.5,8|0,2:0|2:0,2:0:0:0:
220,351,36986,5,10,2:0:0:0:
170,246,37167,2,0,P|168:200|175:155,1,85,2|6,2:0|2:0,2:0:0:0:
246,95,37529,1,2,2:0:0:0:
273,190,37709,1,10,2:0:0:0:
154,70,37890,2,0,L|57:61,1,85,6|6,2:0|3:2,2:0:0:0:
296,180,38251,2,0,L|344:185,1,42.5,8|0,2:0|2:0,2:0:0:0:
363,176,38432,2,0,B|374:115|374:115|363:42,1,127.5,2|0,2:0|2:0,2:0:0:0:
285,11,38794,21,6,3:2:0:0:
331,281,38974,1,0,3:0:0:0:
189,163,39155,1,8,3:2:0:0:
345,68,39336,1,6,2:0:0:0:
106,101,39517,6,0,P|92:138|99:203,1,85,14|8,3:2|3:2,2:0:0:0:
155,369,39878,1,10,3:2:0:0:
234,336,40059,2,0,P|242:295|233:248,1,85,6|14,2:0|3:2,2:0:0:0:
77,207,40420,1,0,3:0:0:0:
325,342,40601,2,0,L|368:348,1,42.5,8|0,3:2|3:0,2:0:0:0:
399,347,40782,1,10,3:2:0:0:
420,127,40962,2,0,P|357:127|308:187,1,127.5,6|0,3:2|3:0,2:0:0:0:
362,246,41324,5,2,2:0:0:0:
249,88,41504,1,2,2:0:0:0:
100,323,41685,5,6,1:2:0:0:
170,205,41866,1,2,3:2:0:0:
168,170,41956,1,2,3:2:0:0:
166,136,42047,1,10,3:2:0:0:
276,248,42227,1,6,3:2:0:0:
332,331,42408,2,0,P|384:342|442:323,1,102,6|2,3:2|3:2,2:0:0:0:
331,130,42770,21,10,3:2:0:0:
255,270,42950,1,2,3:2:0:0:
163,113,43131,1,6,3:2:0:0:
230,286,43312,2,0,L|222:337,2,51,2|2|10,3:2|3:2|3:2,2:0:0:0:
253,53,43673,1,6,3:2:0:0:
426,98,43854,2,0,B|444:151|418:181|415:175|392:212|412:254,1,153,6|0,3:2|3:0,2:0:0:0:
493,270,44215,5,10,3:2:0:0:
321,362,44396,1,2,3:2:0:0:
236,253,44577,2,0,L|248:110,1,102,6|2,3:2|3:2,2:0:0:0:
251,118,44848,1,2,3:2:0:0:
251,118,44938,5,10,3:2:0:0:
381,227,45119,1,6,3:2:0:0:
118,337,45300,2,0,L|111:235,1,102,6|2,3:2|3:2,2:0:0:0:
234,296,45661,21,10,3:2:0:0:
333,330,45842,1,2,3:2:0:0:
152,154,46023,5,6,3:2:0:0:
173,62,46203,1,2,3:2:0:0:
173,62,46294,1,2,3:2:0:0:
173,62,46384,1,10,3:2:0:0:
82,100,46565,1,6,3:2:0:0:
251,118,46745,5,6,3:2:0:0:
328,66,46926,1,6,3:2:0:0:
398,118,47107,2,0,P|449:123|505:114,1,102,2|4,3:2|3:0,2:0:0:0:
326,170,47468,21,6,1:2:0:0:
259,248,47649,1,10,3:2:0:0:
263,283,47739,1,2,3:2:0:0:
266,323,47830,1,6,3:2:0:0:
33,276,48011,1,10,3:2:0:0:
85,209,48191,2,0,P|132:202|196:209,1,102,6|2,3:2|3:2,2:0:0:0:
331,382,48553,5,6,3:2:0:0:
174,292,48733,1,10,3:2:0:0:
328,201,48914,1,6,3:2:0:0:
174,320,49095,2,0,L|102:331,2,51,10|2|6,3:2|3:2|3:2,2:0:0:0:
401,335,49456,1,10,3:2:0:0:
427,144,49637,2,0,B|412:205|444:248|444:248|459:221|455:186,1,153,6|0,3:2|3:0,2:0:0:0:
494,80,49998,5,6,3:2:0:0:
254,145,50179,1,2,3:2:0:0:
300,230,50360,21,6,3:2:0:0:
369,69,50541,1,2,3:2:0:0:
367,301,50721,1,6,3:2:0:0:
279,38,50902,1,2,3:2:0:0:
106,205,51083,2,0,L|8:190,1,85,6|2,2:0|2:0,2:0:0:0:
125,85,51444,5,6,3:2:0:0:
211,279,51625,1,10,3:2:0:0:
29,217,51806,5,14,3:2:0:0:
223,118,51986,1,6,3:2:0:0:
97,354,52167,1,14,3:2:0:0:
21,58,52348,1,6,3:2:0:0:
156,204,52529,21,6,3:2:0:0:
203,222,52619,1,2,3:2:0:0:
257,232,52709,1,2,3:2:0:0:
316,227,52800,1,2,3:2:0:0:
370,195,52890,2,0,P|397:187|438:196,1,42.5,14|0,3:2|3:0,2:0:0:0:
421,270,53071,2,0,P|445:287|466:323,1,42.5,8|0,3:0|3:0,2:0:0:0:
303,138,53251,6,0,B|260:89|306:26|306:26|306:63|329:89,1,170,6|2,3:2|2:0,2:0:0:0:
404,28,53794,1,2,3:2:0:0:
121,109,53974,2,0,L|8:94,1,85,6|0,3:0|3:0,2:0:0:0:
198,40,54336,5,10,3:0:0:0:
100,264,54517,1,2,3:2:0:0:
103,3,54697,21,4,3:0:0:0:
161,353,54878,1,2,3:2:0:0:
198,324,54968,1,2,3:2:0:0:
207,278,55059,1,10,3:0:0:0:
15,198,55239,1,2,3:2:0:0:
373,243,55420,6,0,L|479:231,1,85,4|8,3:0|3:0,2:0:0:0:
220,162,55782,1,14,3:0:0:0:
297,312,55962,1,2,3:2:0:0:
370,19,56143,5,4,3:0:0:0:
456,267,56324,1,2,3:2:0:0:
455,296,56414,1,2,3:2:0:0:
453,325,56504,1,10,3:0:0:0:
512,126,56685,1,2,3:2:0:0:
361,384,56866,21,6,3:0:0:0:
302,107,57047,1,0,3:0:0:0:
372,160,57227,1,10,3:0:0:0:
487,18,57408,1,0,3:0:0:0:
289,196,57589,5,6,3:0:0:0:
196,19,57770,1,2,3:2:0:0:
115,201,57950,1,10,3:0:0:0:
282,63,58131,1,2,3:2:0:0:
104,91,58312,2,0,P|61:86|7:58,1,85,6|8,3:0|3:0,2:0:0:0:
207,129,58673,2,0,P|230:176|217:255,1,127.5,10|0,3:0|3:0,2:0:0:0:
291,324,59035,6,0,B|334:380|398:339|398:339|370:343|345:325,1,170,6|2,3:0|2:0,2:0:0:0:
193,344,59577,1,2,3:2:0:0:
397,131,59757,2,0,P|445:139|488:177,1,85,6|0,3:0|3:0,2:0:0:0:
398,241,60119,21,10,3:0:0:0:
474,53,60300,1,2,3:2:0:0:
497,289,60480,1,4,3:0:0:0:
297,205,60661,5,2,3:2:0:0:
276,242,60751,1,2,3:2:0:0:
234,262,60842,1,10,3:0:0:0:
183,263,60932,1,2,3:2:0:0:
136,232,61023,1,10,3:0:0:0:
100,184,61113,1,2,3:2:0:0:
84,128,61203,2,0,P|83:64|91:16,1,85,4|0,3:0|2:0,2:0:0:0:
16,272,61565,5,14,3:0:0:0:
300,112,61745,1,2,3:2:0:0:
247,346,61926,21,4,3:0:0:0:
232,39,62107,1,2,3:2:0:0:
277,7,62197,1,2,3:2:0:0:
332,1,62288,1,10,3:0:0:0:
500,155,62468,1,2,3:2:0:0:
132,25,62649,5,6,3:0:0:0:
325,111,62830,1,0,3:0:0:0:
262,182,63011,1,10,3:0:0:0:
353,37,63191,1,0,3:0:0:0:
399,306,63372,5,6,3:0:0:0:
431,13,63553,1,2,3:2:0:0:
463,239,63733,21,10,3:0:0:0:
415,95,63914,1,2,3:2:0:0:
310,277,64095,6,0,P|265:270|216:267,1,85,6|8,3:0|3:0,2:0:0:0:
38,347,64456,2,0,P|86:305|106:227,1,127.5,10|0,3:0|3:0,2:0:0:0:
60,148,64818,5,6,1:2:0:0:
206,280,64998,1,2,2:0:0:0:
269,158,65179,2,0,P|234:138|169:140,1,85,10|2,2:0|2:0,2:0:0:0:
401,203,65541,2,0,P|411:160|401:120,1,85,6|2,3:2|2:0,2:0:0:0:
200,34,65902,21,10,2:0:0:0:
161,136,66083,1,2,2:0:0:0:
344,49,66264,2,0,P|378:34|439:36,1,85,6|2,3:2|2:0,2:0:0:0:
97,58,66625,5,10,2:0:0:0:
209,251,66806,1,2,2:0:0:0:
261,147,66986,1,6,3:2:0:0:
67,253,67167,5,8,2:3:0:0:
67,253,67257,1,8,2:3:0:0:
67,253,67348,1,10,2:0:0:0:
114,43,67529,1,10,2:0:0:0:
184,249,67709,2,0,L|174:340,1,85,6|0,3:2|2:0,2:0:0:0:
285,41,68071,22,0,P|327:56|367:135,1,127.5,10|0,2:0|2:0,2:0:0:0:
305,266,68432,2,0,L|198:255,1,85,6|2,3:2|2:0,2:0:0:0:
145,143,68794,2,0,L|238:130,1,85,10|2,2:0|2:0,2:0:0:0:
410,254,69155,5,6,3:2:0:0:
394,46,69336,1,2,2:0:0:0:
336,126,69517,1,10,2:0:0:0:
496,47,69697,1,2,2:0:0:0:
395,286,69878,5,6,3:2:0:0:
229,131,70059,1,8,2:3:0:0:
225,101,70149,1,8,2:3:0:0:
221,71,70239,1,8,2:3:0:0:
156,272,70420,1,8,2:3:0:0:
321,153,70601,21,6,1:2:0:0:
254,216,70782,1,2,2:0:0:0:
325,286,70962,2,0,P|388:288|450:303,1,127.5,10|0,2:0|2:0,2:0:0:0:
243,317,71324,2,0,L|143:308,1,85,6|2,3:2|2:0,2:0:0:0:
321,271,71685,5,10,2:0:0:0:
190,101,71866,1,2,2:0:0:0:
261,41,72047,6,0,P|279:91|275:139,1,85,6|2,3:2|2:0,2:0:0:0:
106,277,72408,1,10,2:0:0:0:
169,90,72589,1,2,2:0:0:0:
232,347,72770,21,6,3:2:0:0:
90,168,72950,1,8,2:3:0:0:
90,168,73041,1,8,2:3:0:0:
90,168,73131,1,10,2:0:0:0:
299,246,73312,1,10,2:0:0:0:
94,302,73492,6,0,B|54:314|54:314|-14:298,1,85,6|2,3:2|2:0,2:0:0:0:
260,156,73854,2,0,B|300:144|300:144|368:160,1,85,10|2,2:0|2:0,2:0:0:0:
205,330,74215,5,6,3:2:0:0:
246,134,74396,1,2,2:0:0:0:
246,134,74577,1,10,2:0:0:0:
176,222,74757,1,2,2:0:0:0:
107,26,74938,21,14,3:2:0:0:
280,244,75119,1,10,3:2:0:0:
126,7,75300,5,14,3:2:0:0:
102,132,75480,1,10,3:2:0:0:
78,256,75661,1,14,3:2:0:0:
220,33,76023,21,10,2:0:0:0:
283,124,76203,1,2,2:0:0:0:
503,12,76384,1,6,3:2:0:0:
491,32,76745,5,10,2:0:0:0:
380,4,76926,1,2,2:0:0:0:
170,144,77107,1,6,3:2:0:0:
98,56,77288,2,0,L|104:-1,1,42.5,8|0,2:0|2:0,2:0:0:0:
185,163,77468,5,10,2:0:0:0:
86,80,77649,1,2,2:0:0:0:
21,251,77830,2,0,L|118:235,1,85,6|0,2:0|2:0,2:0:0:0:
307,294,78191,1,10,2:0:0:0:
230,342,78372,2,0,L|138:327,1,85,6|14,2:0|3:2,2:0:0:0:
234,215,78733,22,0,L|226:169,1,42.5,8|0,2:0|2:0,2:0:0:0:
320,323,78914,1,10,2:0:0:0:
214,228,79095,1,2,2:0:0:0:
302,38,79276,1,6,3:2:0:0:
285,62,79637,5,10,2:0:0:0:
372,169,79818,1,2,2:0:0:0:
320,360,79998,1,6,3:2:0:0:
421,337,80179,2,0,L|479:347,1,42.5,8|0,2:0|2:0,2:0:0:0:
308,254,80360,5,10,2:0:0:0:
405,315,80541,1,2,2:0:0:0:
279,157,80721,2,0,P|238:142|184:142,1,85,6|0,2:0|2:0,2:0:0:0:
110,347,81083,1,10,2:0:0:0:
189,320,81264,2,0,P|206:289|208:226,1,85,6|14,2:0|3:2,2:0:0:0:
96,117,81625,22,0,L|44:127,1,42.5,8|0,2:0|2:0,2:0:0:0:
224,18,81806,1,10,2:0:0:0:
104,88,81986,1,2,2:0:0:0:
419,34,82167,1,6,2:0:0:0:
400,58,82529,5,10,2:0:0:0:
497,134,82709,1,2,2:0:0:0:
190,44,82890,1,6,3:2:0:0:
108,107,83071,2,0,L|37:116,1,42.5,8|0,2:0|2:0,2:0:0:0:
222,63,83251,5,10,2:0:0:0:
289,230,83432,2,0,L|277:339,1,85,2|6,2:0|2:0,2:0:0:0:
312,14,83794,1,2,2:0:0:0:
198,178,83974,21,10,2:0:0:0:
383,82,84155,1,6,2:0:0:0:
255,334,84336,1,14,3:2:0:0:
325,219,84517,2,0,P|347:217|373:224,1,42.5,8|0,2:0|2:0,2:0:0:0:
172,273,84697,2,0,P|109:280|34:268,1,127.5,2|0,2:0|2:0,2:0:0:0:
0,179,85059,5,6,3:2:0:0:
228,361,85239,1,0,3:0:0:0:
163,156,85420,1,8,3:2:0:0:
148,250,85601,1,6,2:0:0:0:
80,95,85782,6,0,B|72:58|72:58|78:10,1,85,14|8,3:2|3:2,2:0:0:0:
191,174,86143,1,10,3:2:0:0:
310,131,86324,2,0,B|318:88|318:88|311:48,1,85,6|14,2:0|3:2,2:0:0:0:
193,67,86685,1,0,3:0:0:0:
271,256,86866,2,0,L|261:313,1,42.5,8|0,3:2|3:0,2:0:0:0:
318,156,87047,1,10,3:2:0:0:
371,248,87227,2,0,P|429:258|511:262,1,127.5,6|0,3:2|3:0,2:0:0:0:
459,161,87589,6,0,B|476:133|439:106|439:106|412:138|440:168,1,127.5,2|0,2:0|2:0,2:0:0:0:
512,351,87950,21,6,1:2:0:0:
288,291,88131,1,2,3:2:0:0:
263,297,88221,1,2,3:2:0:0:
238,303,88312,1,10,3:2:0:0:
318,156,88492,1,6,3:2:0:0:
144,264,88673,2,0,P|140:319|154:364,1,102,6|2,3:2|3:2,2:0:0:0:
362,357,89035,5,10,3:2:0:0:
244,97,89215,1,2,3:2:0:0:
144,264,89396,1,6,3:2:0:0:
261,76,89577,2,0,P|259:43|248:3,2,51,2|2|10,3:2|3:2|3:2,2:0:0:0:
117,84,89938,1,6,3:2:0:0:
336,205,90119,2,0,B|292:193|292:193|243:195|243:195|185:183,1,153,6|0,3:2|3:0,2:0:0:0:
116,112,90480,5,10,3:2:0:0:
284,287,90661,1,2,3:2:0:0:
453,173,90842,2,0,P|417:123|343:105,1,102,6|2,3:2|3:2,2:0:0:0:
359,112,91113,1,2,3:2:0:0:
359,112,91203,21,10,3:2:0:0:
324,367,91384,1,6,3:2:0:0:
378,292,91565,2,0,P|362:231|304:190,1,102,6|2,3:2|3:2,2:0:0:0:
198,321,91926,5,10,3:2:0:0:
105,345,92107,1,2,3:2:0:0:
28,287,92288,5,6,3:2:0:0:
280,380,92468,1,2,3:2:0:0:
280,380,92559,1,2,3:2:0:0:
280,380,92649,1,10,3:2:0:0:
123,256,92830,1,6,3:2:0:0:
156,355,93011,21,6,3:2:0:0:
225,284,93191,1,6,3:2:0:0:
191,181,93372,2,0,B|181:130|181:130|193:65,1,102,2|4,3:2|3:0,2:0:0:0:
265,11,93733,5,6,1:2:0:0:
93,95,93914,1,10,3:2:0:0:
68,100,94004,1,2,3:2:0:0:
43,105,94095,1,6,3:2:0:0:
139,0,94276,1,10,3:2:0:0:
333,76,94456,2,0,P|346:130|335:181,1,102,6|2,3:2|3:2,2:0:0:0:
273,256,94818,5,6,3:2:0:0:
438,92,94998,1,10,3:2:0:0:
395,331,95179,1,6,3:2:0:0:
427,74,95360,2,0,P|422:42|424:15,2,51,10|2|6,3:2|3:2|3:2,2:0:0:0:
505,238,95721,1,10,3:2:0:0:
316,170,95902,2,0,B|276:152|235:165|243:170|196:187|161:173,1,153,6|0,3:2|3:0,2:0:0:0:
95,112,96264,21,6,3:2:0:0:
273,256,96444,1,2,3:2:0:0:
71,206,96625,5,6,3:2:0:0:
194,81,96806,1,2,3:2:0:0:
206,317,96986,1,6,3:2:0:0:
123,20,97167,1,2,3:2:0:0:
345,154,97348,2,0,P|394:163|459:167,1,85,6|2,2:0|2:0,2:0:0:0:
287,70,97709,5,6,3:2:0:0:
99,309,97890,1,10,3:2:0:0:
367,258,98071,21,14,3:2:0:0:
194,81,98251,1,6,3:2:0:0:
305,339,98432,1,14,3:2:0:0:
379,60,98613,1,6,3:2:0:0:
123,20,98794,5,6,3:2:0:0:
104,57,98884,1,2,3:2:0:0:
102,104,98974,1,2,3:2:0:0:
128,147,99065,1,2,3:2:0:0:
170,176,99155,2,0,P|200:176|235:164,1,42.5,14|0,3:2|3:0,2:0:0:0:
277,220,99336,2,0,P|293:201|298:167,1,42.5,8|0,3:0|3:0,2:0:0:0:
499,238,99517,6,0,P|436:243|372:251,1,127.5,6|2,1:2|3:2,2:0:0:0:
194,81,99878,1,10,3:2:0:0:
386,231,100059,1,6,3:2:0:0:
209,291,100239,2,0,P|165:303|74:248,1,127.5,6|2,3:2|3:2,2:0:0:0:
107,16,100601,21,10,3:2:0:0:
161,186,100782,1,2,3:2:0:0:
161,186,100872,1,2,3:2:0:0:
161,186,100962,1,6,3:2:0:0:
375,40,101143,1,2,3:2:0:0:
224,88,101324,5,10,3:2:0:0:
349,28,101504,1,6,3:2:0:0:
453,125,101685,2,0,P|457:193|448:261,1,127.5,6|2,3:2|3:2,2:0:0:0:
468,25,102047,5,10,3:2:0:0:
350,206,102227,1,2,3:2:0:0:
338,255,102318,1,2,3:2:0:0:
349,304,102408,2,0,B|374:348|432:336|432:336|408:337|386:315,1,127.5,6|2,3:2|3:2,2:0:0:0:
449,251,102679,1,2,3:2:0:0:
449,251,102770,21,10,3:2:0:0:
269,140,102950,1,6,3:2:0:0:
76,231,103131,2,0,L|228:216,1,127.5,6|2,3:2|3:2,2:0:0:0:
354,103,103492,5,10,3:2:0:0:
231,301,103673,1,2,3:2:0:0:
156,26,103854,5,6,3:2:0:0:
250,104,104035,1,2,3:2:0:0:
250,104,104125,1,2,3:2:0:0:
250,104,104215,1,10,3:2:0:0:
61,56,104396,1,6,3:2:0:0:
336,53,104577,21,6,3:2:0:0:
382,73,104667,2,0,P|417:64|490:58,1,63.75,2|6,2:0|3:2,2:0:0:0:
128,141,104938,5,10,3:2:0:0:
309,251,105119,1,6,3:0:0:0:
273,236,105209,1,2,3:2:0:0:
235,229,105300,6,0,P|171:237|110:285,1,127.5,6|10,1:2|3:2,2:0:0:0:
98,304,105571,1,2,3:2:0:0:
98,304,105661,1,2,3:2:0:0:
13,148,105842,1,10,3:2:0:0:
266,356,106023,2,0,L|417:342,1,127.5,6|10,3:2|3:2,2:0:0:0:
213,96,106384,21,6,3:2:0:0:
246,334,106565,1,10,3:2:0:0:
378,150,106745,2,0,B|425:120|395:56|395:56|372:85,1,127.5,6|10,3:2|3:2,2:0:0:0:
274,184,107017,1,2,3:2:0:0:
274,184,107107,5,2,3:2:0:0:
303,95,107288,1,10,3:2:0:0:
177,252,107468,2,0,L|50:240,1,127.5,6|10,3:2|3:2,2:0:0:0:
265,11,107830,5,6,3:2:0:0:
109,69,108011,1,2,3:2:0:0:
109,69,108101,1,2,3:2:0:0:
109,69,108191,22,0,P|105:115|129:158,1,85,6|2,3:2|3:2,2:0:0:0:
351,233,108553,1,2,3:2:0:0:
213,96,108733,1,2,3:2:0:0:
77,330,108914,5,6,2:0:0:0:
196,70,109095,1,2,2:0:0:0:
191,372,109276,5,6,3:2:0:0:
43,193,109456,1,10,3:2:0:0:
287,327,109637,21,14,3:2:0:0:
428,33,109818,1,6,3:2:0:0:
482,384,109998,1,14,3:2:0:0:
401,307,110179,1,6,3:2:0:0:
478,114,110360,5,6,3:2:0:0:
471,172,110450,1,2,3:2:0:0:
422,207,110541,1,2,3:2:0:0:
362,205,110631,1,2,3:2:0:0:
311,171,110721,2,0,L|319:95,1,42.5,14|0,3:2|3:0,2:0:0:0:
375,60,110902,2,0,L|365:-20,1,42.5,8|0,3:0|3:0,2:0:0:0:
238,226,111083,5,6,3:2:0:0:
50,95,111264,1,2,3:2:0:0:
53,57,111354,1,2,3:2:0:0:
80,30,111444,1,10,3:0:0:0:
291,101,111625,1,2,3:2:0:0:
45,201,111806,21,6,3:0:0:0:
265,307,111986,1,0,3:0:0:0:
210,221,112167,1,10,3:0:0:0:
426,159,112348,1,2,3:2:0:0:
167,307,112529,5,4,3:0:0:0:
195,120,112709,1,2,3:2:0:0:
196,81,112800,1,2,3:2:0:0:
197,42,112890,1,10,3:0:0:0:
83,353,113071,1,2,3:2:0:0:
365,290,113251,2,0,P|340:242|302:223,1,85,4|8,3:0|3:0,2:0:0:0:
182,364,113613,5,14,3:0:0:0:
278,136,113794,1,2,3:2:0:0:
265,307,113974,21,4,3:0:0:0:
448,248,114155,1,2,3:2:0:0:
457,285,114245,1,2,3:2:0:0:
453,322,114336,1,10,3:0:0:0:
211,210,114517,1,2,3:2:0:0:
348,384,114697,5,6,3:0:0:0:
365,88,114878,1,0,3:0:0:0:
453,145,115059,1,10,3:0:0:0:
178,116,115239,1,0,3:0:0:0:
256,40,115420,5,6,3:0:0:0:
179,207,115601,1,2,3:2:0:0:
87,165,115782,1,10,3:0:0:0:
155,369,115962,1,2,3:2:0:0:
158,105,116143,2,0,L|153:-1,1,85,6|8,3:0|3:0,2:0:0:0:
97,261,116504,21,10,3:0:0:0:
276,134,116685,1,2,3:2:0:0:
333,373,116866,5,6,3:0:0:0:
76,165,117047,1,2,3:2:0:0:
39,175,117137,1,2,3:2:0:0:
15,205,117227,1,10,3:0:0:0:
187,209,117408,1,2,3:2:0:0:
53,78,117589,5,6,3:0:0:0:
291,222,117770,1,2,3:2:0:0:
328,212,117860,1,2,3:2:0:0:
355,185,117950,1,10,3:0:0:0:
219,303,118131,1,2,3:2:0:0:
447,368,118312,21,4,3:0:0:0:
276,137,118492,1,2,3:2:0:0:
290,97,118583,1,2,3:2:0:0:
322,61,118673,1,10,3:0:0:0:
376,53,118764,1,2,3:2:0:0:
430,69,118854,1,10,3:0:0:0:
463,123,118944,1,2,3:2:0:0:
472,178,119035,2,0,L|455:280,1,85,4|0,3:0|3:0,2:0:0:0:
507,8,119396,5,14,3:0:0:0:
370,303,119577,1,2,3:2:0:0:
227,19,119757,5,4,3:0:0:0:
376,144,119938,1,2,3:2:0:0:
430,69,120119,1,10,3:0:0:0:
166,87,120300,1,2,3:2:0:0:
90,31,120480,21,6,3:0:0:0:
187,353,120661,1,0,3:0:0:0:
192,102,120842,1,10,3:0:0:0:
126,274,121023,1,0,3:0:0:0:
279,310,121203,6,0,P|322:300|371:296,1,85,6|2,3:0|3:2,2:0:0:0:
465,327,121565,1,10,3:0:0:0:
216,374,121745,1,2,3:2:0:0:
128,302,121926,6,0,P|80:299|36:308,1,85,6|8,3:0|3:0,2:0:0:0:
258,226,122288,1,10,3:0:0:0:
152,96,122468,1,2,3:2:0:0:
312,29,122649,22,0,L|383:40,1,57.3750000000001,6|2,2:3|3:2,2:0:0:0:
214,18,123011,5,14,3:2:0:0:
374,148,123191,1,6,3:2:0:0:
179,302,123372,2,0,P|156:265|164:190,1,114.75,6|2,3:2|3:2,2:0:0:0:
449,218,123733,5,10,3:2:0:0:
254,123,123914,1,2,3:2:0:0:
254,123,124004,1,2,3:2:0:0:
254,123,124095,1,6,3:2:0:0:
359,307,124276,1,2,3:2:0:0:
451,79,124456,21,10,3:2:0:0:
300,228,124637,1,6,3:2:0:0:
168,174,124818,2,0,P|109:168|45:183,1,114.75,6|2,3:2|3:2,2:0:0:0:
194,285,125179,5,10,3:2:0:0:
460,366,125360,1,2,3:2:0:0:
460,366,125450,1,2,3:2:0:0:
460,366,125541,2,0,B|480:302|480:302|457:209,1,114.75,6|2,3:2|3:2,2:0:0:0:
458,215,125812,1,2,3:2:0:0:
458,215,125902,5,10,3:2:0:0:
488,101,126083,1,6,3:2:0:0:
382,24,126264,2,0,B|369:80|369:80|386:152,1,114.75,6|2,3:2|3:2,2:0:0:0:
480,0,126625,21,10,3:2:0:0:
351,231,126806,1,2,3:2:0:0:
280,146,126986,5,6,3:2:0:0:
227,332,127167,1,2,3:2:0:0:
227,332,127257,1,2,3:2:0:0:
227,332,127348,1,10,3:2:0:0:
114,41,127529,1,6,3:2:0:0:
156,130,127709,2,0,P|149:176|146:253,1,114.75,6|6,3:2|3:2,2:0:0:0:
127,350,128071,5,10,3:2:0:0:
298,255,128251,1,6,3:0:0:0:
331,294,128342,1,2,3:2:0:0:
375,320,128432,22,0,P|423:306|467:227,1,114.75,6|10,1:2|3:2,2:0:0:0:
474,226,128703,1,2,3:2:0:0:
474,226,128794,1,2,3:2:0:0:
220,304,128974,1,10,3:2:0:0:
124,258,129155,2,0,L|1:245,1,114.75,6|10,3:2|3:2,2:0:0:0:
212,204,129517,5,6,3:2:0:0:
289,382,129697,1,10,3:2:0:0:
378,200,129878,2,0,P|377:128|355:82,1,114.75,6|10,3:2|3:2,2:0:0:0:
341,66,130149,1,2,3:2:0:0:
341,66,130239,5,2,3:2:0:0:
479,124,130420,1,10,3:2:0:0:
230,76,130601,2,0,B|170:72|170:72|115:86,1,114.75,6|10,3:2|3:2,2:0:0:0:
440,26,130962,21,6,3:2:0:0:
286,163,131143,1,2,3:2:0:0:
286,163,131233,1,2,3:2:0:0:
286,163,131324,6,0,P|282:209|306:252,1,85,6|2,3:2|3:2,2:0:0:0:
458,271,131685,1,2,3:2:0:0:
318,37,131866,1,2,3:2:0:0:
204,326,132047,5,6,2:0:0:0:
474,159,132227,1,2,2:0:0:0:
293,276,132408,21,6,3:2:0:0:
59,163,132589,1,10,3:2:0:0:
290,382,132770,5,14,3:2:0:0:
402,36,132950,1,6,3:2:0:0:
498,254,133131,1,14,3:2:0:0:
177,119,133312,1,6,3:2:0:0:
250,32,133492,5,6,3:2:0:0:
278,84,133583,1,2,3:2:0:0:
287,143,133673,1,2,3:2:0:0:
280,201,133764,1,2,3:2:0:0:
261,257,133854,2,0,L|251:310,1,42.5,12|0,3:0|3:0,2:0:0:0:
156,343,134035,2,0,L|146:263,1,42.5,8|0,3:0|3:0,2:0:0:0:
331,351,134215,22,0,P|397:365|458:323,1,136,6|2,1:2|3:2,2:0:0:0:
478,230,134486,1,2,2:0:0:0:
441,199,134577,1,10,3:2:0:0:
240,384,134757,1,6,3:2:0:0:
113,183,134938,2,0,B|100:164|77:164|77:164|140:142|173:204,1,136,6|2,3:2|3:2,2:0:0:0:
31,270,135300,5,10,3:2:0:0:
153,16,135480,1,2,3:2:0:0:
131,329,135661,1,6,3:2:0:0:
35,73,135842,1,2,3:2:0:0:
35,73,135932,1,2,2:0:0:0:
35,73,136023,5,10,3:2:0:0:
296,193,136203,1,6,3:2:0:0:
221,270,136384,2,0,P|193:213|194:115,1,136,6|2,3:2|3:2,2:0:0:0:
486,47,136745,21,10,3:2:0:0:
304,103,136926,2,0,P|297:138|306:178,1,68,2|2,3:2|3:2,2:0:0:0:
375,249,137107,2,0,B|356:272|333:276|333:276|379:289|409:249,1,136,6|2,3:2|3:2,2:0:0:0:
439,148,137378,1,2,3:2:0:0:
396,132,137468,5,10,3:2:0:0:
492,312,137649,1,6,3:2:0:0:
194,136,137830,2,0,B|159:94|91:115|91:115|106:118|126:137,1,136,6|2,3:2|3:2,2:0:0:0:
130,280,138191,5,10,3:2:0:0:
274,74,138372,1,2,3:2:0:0:
51,206,138553,21,6,3:2:0:0:
306,368,138733,1,2,3:2:0:0:
306,368,138824,1,2,3:2:0:0:
306,368,138914,1,10,3:2:0:0:
248,244,139095,1,6,3:2:0:0:
392,13,139276,5,6,3:2:0:0:
367,49,139366,2,0,P|360:93|365:139,1,68,2|6,2:0|3:2,2:0:0:0:
408,249,139637,5,10,3:2:0:0:
257,71,139818,1,6,3:2:0:0:
211,55,139908,1,2,3:2:0:0:
163,44,139998,22,0,P|94:40|31:63,1,136,6|10,1:2|3:2,2:0:0:0:
6,110,140270,1,2,3:2:0:0:
6,110,140360,1,2,3:2:0:0:
291,38,140541,1,10,3:2:0:0:
369,89,140721,2,0,L|520:75,1,136,6|10,3:2|3:2,2:0:0:0:
230,212,141083,5,6,3:2:0:0:
372,0,141264,1,10,3:2:0:0:
463,206,141444,2,0,B|478:274|478:274|455:349,1,136,6|10,3:2|3:2,2:0:0:0:
437,382,141715,1,2,3:2:0:0:
437,382,141806,5,2,3:2:0:0:
283,126,141986,1,10,3:2:0:0:
137,174,142167,2,0,L|-2:160,1,136,6|10,3:2|3:2,2:0:0:0:
266,314,142529,21,6,3:2:0:0:
367,49,142709,1,2,3:2:0:0:
367,49,142800,1,2,3:2:0:0:
367,49,142890,6,0,P|386:105|372:194,1,136,6|2,3:2|2:0,2:0:0:0:
100,201,143251,1,6,3:2:0:0:
251,0,143432,1,2,3:2:0:0:
0,106,143613,5,6,2:0:0:0:
287,219,143794,1,2,2:0:0:0:
126,0,143974,1,6,2:0:0:0:
167,353,144155,1,2,2:0:0:0:
263,30,144336,21,14,3:2:0:0:
64,318,144517,1,6,3:2:0:0:
376,286,144697,1,14,3:2:0:0:
180,249,144878,1,6,3:2:0:0:
479,372,145059,5,6,3:2:0:0:
481,345,145149,1,2,3:2:0:0:
482,310,145239,1,2,3:2:0:0:
484,269,145330,1,2,3:2:0:0:
489,221,145420,2,0,L|494:145,1,68,14|0,3:2|3:0,2:0:0:0:
376,88,145601,2,0,L|383:155,1,68,8|0,3:0|3:0,2:0:0:0:
452,9,145782,5,6,3:2:0:0:
162,102,145962,2,0,P|108:102|46:115,1,85,2|2,3:2|3:2,2:0:0:0:
229,186,146324,1,2,3:2:0:0:
266,84,146504,22,0,L|275:-15,1,85,6|2,3:0|3:2,2:0:0:0:
319,230,146866,1,10,3:0:0:0:
175,59,147047,1,2,3:2:0:0:
104,278,147227,5,4,3:0:0:0:
206,319,147408,1,2,3:2:0:0:
243,313,147498,1,2,3:2:0:0:
281,318,147589,1,10,3:0:0:0:
318,326,147679,1,0,2:0:0:0:
356,324,147770,1,2,3:2:0:0:
393,314,147860,1,0,2:0:0:0:
427,297,147950,2,0,L|538:290,1,85,4|8,3:0|3:0,2:0:0:0:
202,228,148312,5,14,3:0:0:0:
123,378,148492,1,2,3:2:0:0:
120,175,148673,21,4,3:0:0:0:
363,190,148854,1,2,3:2:0:0:
328,186,148944,1,2,3:2:0:0:
294,181,149035,1,10,3:0:0:0:
62,90,149215,1,2,3:2:0:0:
132,24,149396,5,6,3:0:0:0:
21,179,149577,1,0,3:0:0:0:
42,49,149757,1,10,3:0:0:0:
74,265,149938,1,0,3:0:0:0:
256,40,150119,5,6,3:0:0:0:
211,203,150300,1,2,3:2:0:0:
141,132,150480,1,10,3:0:0:0:
160,326,150661,1,2,3:2:0:0:
336,106,150842,22,0,L|442:91,1,85,6|8,3:0|3:0,2:0:0:0:
62,90,151203,1,4,2:0:0:0:
