osu file format v14

[General]
AudioFilename: audio.ogg
AudioLeadIn: 0
PreviewTime: 87968
Countdown: 0
SampleSet: Soft
StackLeniency: 0.7
Mode: 0
LetterboxInBreaks: 0
WidescreenStoryboard: 1

[Editor]
Bookmarks: 6986,18553,30119,41685,53251,64818,76384,87950,99517,107830,111083,119757,122649,134215,145782,151203
DistanceSpacing: 1.3
BeatDivisor: 4
GridSize: 4
TimelineZoom: 2.3

[Metadata]
Title:Kuu ni Naru
TitleUnicode:くうになる
Artist:MIMI
ArtistUnicode:MIMI
Creator:ThunderBird2678
Version:Hard
Source:
Tags:japanese pop jpop j-pop vocaloid 初音ミク 可不 Hatsune Miku KAFU CeVIO Creative Studio AI けけ ktwr_ 瀬戸わらび yk__rm はるお haluo_haluo 空になる HlqlkKvcHhk Crypton Future Media クリプトン・フューチャー・メディア株式会社 Kuriputon Fyūchā Kabushiki gaisha Yamaha Corporation ヤマハ株式会社 kabushiki 音楽的同位体 Song Voice ソングボイス KAF 花譜 KAMITSUBAKI STUDIO 神椿スタジオ Reiszen PlainDarkness KuroNekowo Tiff tiffany yu tyu ft ft. feat featuring
BeatmapID:3456621
BeatmapSetID:1676605

[Difficulty]
HPDrainRate:4.2
CircleSize:3.5
OverallDifficulty:7
ApproachRate:8
SliderMultiplier:1.4
SliderTickRate:1

[Events]
//Background and Video events
0,0,"becoming the wind.jpg",0,0
Video,10,"kuu_ni_naru_vid_1_1.mp4"
//Break Periods
//Storyboard Layer 0 (Background)
//Storyboard Layer 1 (Fail)
//Storyboard Layer 2 (Pass)
//Storyboard Layer 3 (Foreground)
//Storyboard Layer 4 (Overlay)
//Storyboard Sound Samples

[TimingPoints]
-242,361.44578313253,4,2,1,70,1,0
480,-100,4,2,10,49,0,0
842,-100,4,2,10,63,0,0
1925,-100,4,2,10,52,0,0
2648,-100,4,2,10,56,0,0
3371,-100,4,2,10,59,0,0
4095,-100,4,2,10,52,0,0
4817,-100,4,2,10,56,0,0
5540,-100,4,2,10,59,0,0
6264,-100,4,2,10,42,0,0
6986,-100,4,2,11,49,0,0
7166,-100,4,2,10,49,0,0
7527,-100,4,2,11,49,0,0
7709,-100,4,2,12,49,0,0
8071,-100,4,2,12,56,0,0
8251,-100,4,2,13,56,0,0
8432,-100,4,2,14,56,0,0
8613,-100,4,2,11,56,0,0
8794,-100,4,2,11,52,0,0
9155,-100,4,2,15,49,0,0
9336,-100,4,2,10,49,0,0
9878,-100,4,2,15,52,0,0
10239,-100,4,2,10,52,0,0
10419,-100,4,2,11,52,0,0
10601,-100,4,2,15,49,0,0
11142,-100,4,2,16,49,0,0
11324,-100,4,2,17,52,0,0
11594,-100,4,2,18,52,0,0
11685,-100,4,2,18,56,0,0
12047,-100,4,2,17,63,0,0
12408,-100,4,2,10,63,0,0
12770,-100,4,2,11,49,0,0
12950,-100,4,2,10,49,0,0
13310,-100,4,2,11,49,0,0
13492,-100,4,2,12,49,0,0
13854,-100,4,2,12,56,0,0
14034,-100,4,2,13,56,0,0
14215,-100,4,2,14,56,0,0
14396,-100,4,2,19,56,0,0
14577,-100,4,2,19,52,0,0
14938,-100,4,2,12,49,0,0
15119,-100,4,2,10,49,0,0
15661,-100,4,2,15,52,0,0
16023,-100,4,2,10,52,0,0
16202,-100,4,2,11,52,0,0
16384,-100,4,2,15,49,0,0
16925,-100,4,2,20,49,0,0
17107,-100,4,2,21,52,0,0
17468,-100,4,2,21,56,0,0
17649,-100,4,2,16,56,0,0
17830,-100,4,2,17,52,0,0
18011,-100,4,2,10,42,0,0
18553,-100,4,2,22,49,0,0
18733,-100,4,2,23,49,0,0
18914,-100,4,2,24,49,0,0
19093,-100,4,2,22,49,0,0
19276,-100,4,2,20,49,0,0
19456,-100,4,2,25,49,0,0
19637,-100,4,2,26,56,0,0
19818,-100,4,2,20,56,0,0
19998,-100,4,2,27,56,0,0
20177,-100,4,2,22,56,0,0
20360,-100,4,2,28,52,0,0
20540,-100,4,2,22,52,0,0
20721,-100,4,2,26,49,0,0
20902,-100,4,2,10,49,0,0
21083,-100,4,2,23,49,0,0
21263,-100,4,2,22,49,0,0
21444,-100,4,2,26,52,0,0
21806,-100,4,2,23,52,0,0
21986,-100,4,2,22,52,0,0
22167,-100,4,2,26,49,0,0
22348,-100,4,2,29,49,0,0
22529,-100,4,2,25,49,0,0
22709,-100,4,2,24,49,0,0
22890,-100,4,2,28,52,0,0
23070,-100,4,2,29,52,0,0
23251,-100,4,2,23,56,0,0
23432,-100,4,2,25,56,0,0
23613,-100,4,2,28,63,0,0
23794,-100,4,2,10,42,0,0
24336,-100,4,2,22,49,0,0
24516,-100,4,2,24,49,0,0
24697,-100,4,2,23,49,0,0
24877,-100,4,2,22,49,0,0
25059,-100,4,2,20,49,0,0
25239,-100,4,2,26,49,0,0
25420,-100,4,2,25,56,0,0
25601,-100,4,2,20,56,0,0
25782,-100,4,2,27,56,0,0
25960,-100,4,2,28,56,0,0
26143,-100,4,2,26,52,0,0
26323,-100,4,2,27,52,0,0
26504,-100,4,2,20,49,0,0
26685,-100,4,2,10,49,0,0
26866,-100,4,2,28,49,0,0
27046,-100,4,2,22,49,0,0
27227,-100,4,2,26,52,0,0
27407,-100,4,2,23,52,0,0
27589,-100,4,2,24,52,0,0
27770,-100,4,2,22,52,0,0
27950,-100,4,2,26,49,0,0
28130,-100,4,2,23,49,0,0
28492,-100,4,2,30,49,0,0
28673,-100,4,2,23,52,0,0
28853,-100,4,2,29,52,0,0
29034,-100,4,2,23,56,0,0
29215,-100,4,2,24,56,0,0
29396,-100,4,2,28,42,0,0
29757,-100,4,2,31,42,0,0
30119,-100,4,2,32,56,0,0
30480,-100,4,2,31,49,0,0
30661,-100,4,2,33,49,0,0
30842,-100,4,2,34,63,0,0
31203,-100,4,2,31,56,0,0
31565,-100,4,2,35,49,0,0
31926,-100,4,2,31,49,0,0
32107,-100,4,2,36,46,0,0
32288,-100,4,2,37,46,0,0
32649,-100,4,2,31,42,0,0
33011,-100,4,2,37,56,0,0
33372,-100,4,2,31,49,0,0
33552,-100,4,2,33,49,0,0
33733,-100,4,2,34,63,0,0
34095,-100,4,2,31,56,0,0
34456,-100,4,2,35,49,0,0
34817,-100,4,2,31,49,0,0
34998,-100,4,2,36,49,0,0
35179,-100,4,2,38,49,0,0
35541,-100,4,2,31,49,0,0
35902,-100,4,2,39,63,0,0
36264,-100,4,2,31,56,0,0
36444,-100,4,2,33,56,0,0
36625,-100,4,2,40,70,0,0
36986,-100,4,2,31,59,0,0
37167,-100,4,2,41,59,0,0
37348,-100,4,2,42,59,0,0
37528,-100,4,2,31,59,0,0
37709,-100,4,2,31,63,0,0
37890,-100,4,2,36,63,0,0
38071,-100,4,2,43,63,0,0
38432,-100,4,2,31,66,0,0
38794,-100,4,2,44,70,0,0
39155,-100,4,2,10,70,0,0
39336,-100,4,2,45,70,0,0
39517,-100,4,2,40,63,0,0
39697,-100,4,2,31,63,0,0
39878,-100,4,2,31,66,0,0
40058,-100,4,2,46,66,0,0
40239,-100,4,2,47,59,0,0
40601,-100,4,2,36,56,0,0
40962,-100,4,2,48,59,0,0
41143,-100,4,2,31,59,0,0
41324,-100,4,2,31,52,0,0
41504,-100,4,2,31,59,0,0
41685,-100,4,2,49,66,0,0
41866,-100,4,2,15,66,0,0
42227,-100,4,2,51,66,0,0
42408,-100,4,2,52,66,0,0
42586,-100,4,2,27,66,0,0
42770,-100,4,2,53,70,0,0
42950,-100,4,2,26,70,0,0
43131,-100,4,2,54,70,0,0
43400,-100,4,2,53,70,0,0
43492,-100,4,2,55,63,0,0
43673,-100,4,2,18,63,0,0
43854,-100,4,2,17,63,0,0
44033,-100,4,2,26,63,0,0
44215,-100,4,2,52,56,0,0
44396,-100,4,2,27,56,0,0
44577,-100,4,2,21,56,0,0
44757,-100,4,2,56,56,0,0
44938,-100,4,2,15,63,0,0
45119,-100,4,2,51,63,0,0
45300,-100,4,2,52,63,0,0
45480,-100,4,2,27,63,0,0
45661,-100,4,2,53,52,0,0
45842,-100,4,2,26,52,0,0
46023,-100,4,2,54,56,0,0
46384,-100,4,2,15,56,0,0
46565,-100,4,2,18,56,0,0
46745,-100,4,2,17,63,0,0
46926,-100,4,2,54,63,0,0
47107,-100,4,2,18,63,0,0
47287,-100,4,2,10,63,0,0
47468,-100,4,2,21,59,0,0
47648,-100,4,2,15,59,0,0
48011,-100,4,2,51,59,0,0
48191,-100,4,2,52,63,0,0
48371,-100,4,2,27,63,0,0
48553,-100,4,2,53,63,0,0
48733,-100,4,2,54,63,0,0
48914,-100,4,2,54,66,0,0
49095,-100,4,2,57,66,0,0
49183,-100,4,2,22,66,0,0
49275,-100,4,2,20,66,0,0
49456,-100,4,2,18,66,0,0
49637,-100,4,2,17,66,0,0
49817,-100,4,2,26,66,0,0
49998,-100,4,2,58,59,0,1
50177,-100,4,2,21,59,0,1
50360,-100,4,2,49,63,0,1
50541,-100,4,2,15,63,0,1
50721,-100,4,2,59,66,0,1
50901,-100,4,2,17,66,0,1
51083,-100,4,2,58,70,0,1
51263,-100,4,2,27,70,0,1
51444,-100,4,2,22,66,0,1
51625,-100,4,2,57,66,0,1
51806,-100,4,2,54,70,0,1
51986,-100,4,2,21,70,0,1
52167,-100,4,2,52,63,0,1
52348,-100,4,2,21,63,0,1
52529,-100,4,2,21,56,0,0
52619,-100,4,2,31,56,0,0
52890,-100,4,2,20,49,0,0
53070,-100,4,2,11,52,0,0
53251,-100,4,2,49,59,0,0
53522,-100,4,2,31,59,0,0
53974,-100,4,2,11,59,0,0
54336,-100,4,2,11,52,0,0
54517,-100,4,2,31,52,0,0
54697,-100,4,2,10,56,0,0
55058,-100,4,2,11,56,0,0
55239,-100,4,2,31,59,0,0
55420,-100,4,2,11,59,0,0
55782,-100,4,2,11,52,0,0
55962,-100,4,2,31,52,0,0
56143,-100,4,2,10,49,0,0
56504,-100,4,2,11,49,0,0
56685,-100,4,2,31,49,0,0
56866,-100,4,2,11,52,0,0
57589,-100,4,2,11,59,0,0
57770,-100,4,2,10,59,0,0
57950,-100,4,2,11,59,0,0
58130,-100,4,2,10,59,0,0
58312,-100,4,2,10,66,0,0
58492,-100,4,2,11,66,0,0
58673,-100,4,2,11,49,0,0
59035,-100,4,2,11,59,0,0
59396,-100,4,2,31,59,0,0
59757,-100,4,2,11,59,0,0
60119,-100,4,2,11,52,0,0
60300,-100,4,2,31,52,0,0
60480,-100,4,2,10,56,0,0
60842,-100,4,2,11,56,0,0
60932,-100,4,2,10,56,0,0
61022,-100,4,2,11,59,0,0
61113,-100,4,2,10,59,0,0
61565,-100,4,2,11,52,0,0
61745,-100,4,2,31,52,0,0
61926,-100,4,2,10,49,0,0
62288,-100,4,2,11,49,0,0
62468,-100,4,2,31,49,0,0
62649,-100,4,2,11,52,0,0
63372,-100,4,2,11,59,0,0
63553,-100,4,2,10,59,0,0
63733,-100,4,2,11,59,0,0
63914,-100,4,2,10,59,0,0
64095,-100,4,2,10,66,0,0
64275,-100,4,2,11,66,0,0
64456,-100,4,2,11,49,0,0
64998,-100,4,2,27,49,0,0
65179,-100,4,2,16,49,0,0
65359,-100,4,2,11,49,0,0
65541,-100,4,2,13,49,0,0
65721,-100,4,2,18,49,0,0
65902,-100,4,2,56,56,0,0
66082,-100,4,2,13,56,0,0
66264,-100,4,2,19,56,0,0
66442,-100,4,2,11,56,0,0
66625,-100,4,2,60,52,0,0
66805,-100,4,2,11,52,0,0
66986,-100,4,2,56,49,0,0
67167,-100,4,2,10,49,0,0
67348,-100,4,2,27,49,0,0
67528,-100,4,2,11,49,0,0
67709,-100,4,2,56,52,0,0
68071,-100,4,2,27,52,0,0
68250,-100,4,2,11,52,0,0
68432,-100,4,2,56,49,0,0
68613,-100,4,2,26,49,0,0
68794,-100,4,2,61,49,0,0
68974,-100,4,2,16,49,0,0
69155,-100,4,2,51,52,0,0
69335,-100,4,2,26,52,0,0
69516,-100,4,2,27,56,0,0
69697,-100,4,2,18,56,0,0
69878,-100,4,2,51,63,0,0
70059,-100,4,2,10,42,0,0
70601,-100,4,2,11,49,0,0
70781,-100,4,2,16,49,0,0
70962,-100,4,2,27,49,0,0
71142,-100,4,2,11,49,0,0
71324,-100,4,2,13,49,0,0
71504,-100,4,2,56,49,0,0
71685,-100,4,2,61,56,0,0
71865,-100,4,2,13,56,0,0
72047,-100,4,2,19,56,0,0
72225,-100,4,2,51,56,0,0
72408,-100,4,2,56,52,0,0
72588,-100,4,2,19,52,0,0
72770,-100,4,2,13,49,0,0
72950,-100,4,2,10,49,0,0
73131,-100,4,2,60,49,0,0
73311,-100,4,2,11,49,0,0
73492,-100,4,2,56,52,0,0
73672,-100,4,2,27,52,0,0
73854,-100,4,2,16,52,0,0
74035,-100,4,2,11,52,0,0
74215,-100,4,2,56,49,0,0
74395,-100,4,2,27,49,0,0
74757,-100,4,2,20,49,0,0
74938,-100,4,2,27,52,0,0
75118,-100,4,2,26,52,0,0
75299,-100,4,2,27,56,0,0
75480,-100,4,2,16,56,0,0
75661,-100,4,2,60,42,0,0
76023,-100,4,2,31,42,0,0
76384,-100,4,2,62,56,0,0
76745,-100,4,2,31,49,0,0
76926,-100,4,2,63,49,0,0
77107,-100,4,2,64,63,0,0
77468,-100,4,2,31,56,0,0
77830,-100,4,2,65,49,0,0
78191,-100,4,2,31,49,0,0
78372,-100,4,2,66,46,0,0
78553,-100,4,2,67,46,0,0
78914,-100,4,2,31,42,0,0
79276,-100,4,2,68,56,0,0
79637,-100,4,2,31,49,0,0
79817,-100,4,2,63,49,0,0
79998,-100,4,2,64,63,0,0
80360,-100,4,2,31,56,0,0
80721,-100,4,2,65,49,0,0
81082,-100,4,2,31,49,0,0
81264,-100,4,2,66,49,0,0
81444,-100,4,2,69,49,0,0
81806,-100,4,2,31,49,0,0
82167,-100,4,2,68,63,0,0
82529,-100,4,2,31,56,0,0
82709,-100,4,2,63,56,0,0
82890,-100,4,2,64,70,0,0
83251,-100,4,2,31,59,0,0
83432,-100,4,2,70,59,0,0
83613,-100,4,2,65,59,0,0
83793,-100,4,2,31,59,0,0
83974,-100,4,2,31,63,0,0
84155,-100,4,2,66,63,0,0
84336,-100,4,2,71,63,0,0
84697,-100,4,2,31,66,0,0
85059,-100,4,2,72,70,0,0
85420,-100,4,2,10,70,0,0
85601,-100,4,2,73,70,0,0
85782,-100,4,2,64,63,0,0
85962,-100,4,2,31,63,0,0
86143,-100,4,2,31,66,0,0
86323,-100,4,2,74,66,0,0
86504,-100,4,2,75,59,0,0
86866,-100,4,2,66,56,0,0
87227,-100,4,2,76,59,0,0
87408,-100,4,2,10,59,0,0
87588,-100,4,2,77,52,0,0
87950,-100,4,2,49,66,0,0
88131,-100,4,2,15,66,0,0
88492,-100,4,2,51,66,0,0
88673,-100,4,2,52,59,0,0
88854,-100,4,2,27,59,0,0
89035,-100,4,2,53,63,0,0
89215,-100,4,2,26,63,0,0
89396,-100,4,2,54,63,0,0
89665,-100,4,2,53,63,0,0
89757,-100,4,2,55,56,0,0
89938,-100,4,2,18,56,0,0
90119,-100,4,2,17,56,0,0
90298,-100,4,2,26,56,0,0
90480,-100,4,2,52,49,0,0
90661,-100,4,2,27,49,0,0
90842,-100,4,2,21,49,0,0
91022,-100,4,2,56,49,0,0
91203,-100,4,2,15,56,0,0
91384,-100,4,2,51,56,0,0
91565,-100,4,2,52,56,0,0
91745,-100,4,2,27,56,0,0
91926,-100,4,2,53,46,0,0
92107,-100,4,2,26,46,0,0
92288,-100,4,2,54,49,0,0
92649,-100,4,2,15,49,0,0
92830,-100,4,2,18,49,0,0
93010,-100,4,2,17,56,0,0
93191,-100,4,2,54,56,0,0
93372,-100,4,2,18,56,0,0
93552,-100,4,2,10,56,0,0
93733,-100,4,2,21,52,0,0
93913,-100,4,2,15,52,0,0
94276,-100,4,2,51,52,0,0
94456,-100,4,2,52,56,0,0
94636,-100,4,2,27,56,0,0
94818,-100,4,2,53,56,0,0
94998,-100,4,2,54,56,0,0
95179,-100,4,2,54,59,0,0
95360,-100,4,2,57,59,0,0
95448,-100,4,2,22,59,0,0
95540,-100,4,2,20,59,0,0
95721,-100,4,2,18,59,0,0
95902,-100,4,2,17,59,0,0
96082,-100,4,2,26,59,0,0
96264,-100,4,2,61,42,0,1
96444,-100,4,2,27,42,0,1
96625,-100,4,2,49,56,0,1
96806,-100,4,2,15,56,0,1
96986,-100,4,2,59,59,0,1
97166,-100,4,2,17,59,0,1
97348,-100,4,2,58,63,0,1
97528,-100,4,2,27,63,0,1
97709,-100,4,2,22,59,0,1
97890,-100,4,2,57,59,0,1
98071,-100,4,2,54,63,0,1
98251,-100,4,2,21,63,0,1
98432,-100,4,2,52,56,0,1
98613,-100,4,2,21,56,0,1
98794,-100,4,2,21,49,0,0
98884,-100,4,2,31,49,0,0
99155,-100,4,2,20,42,0,0
99335,-100,4,2,11,46,0,0
99517,-83.3333333333333,4,2,78,66,0,1
99697,-83.3333333333333,4,2,15,66,0,1
100059,-83.3333333333333,4,2,79,66,0,1
100239,-83.3333333333333,4,2,80,66,0,1
100419,-83.3333333333333,4,2,27,66,0,1
100601,-83.3333333333333,4,2,53,70,0,1
100782,-83.3333333333333,4,2,26,70,0,1
100872,-83.3333333333333,4,2,31,70,0,1
100962,-83.3333333333333,4,2,81,70,0,1
101143,-83.3333333333333,4,2,54,70,0,1
101232,-83.3333333333333,4,2,22,70,0,1
101323,-83.3333333333333,4,2,55,63,0,1
101504,-83.3333333333333,4,2,82,63,0,1
101685,-83.3333333333333,4,2,83,63,0,1
101866,-83.3333333333333,4,2,26,63,0,1
102047,-83.3333333333333,4,2,52,56,0,1
102227,-83.3333333333333,4,2,27,56,0,1
102318,-83.3333333333333,4,2,10,56,0,1
102408,-83.3333333333333,4,2,84,56,0,1
102588,-83.3333333333333,4,2,56,56,0,1
102679,-83.3333333333333,4,2,50,56,0,1
102770,-83.3333333333333,4,2,15,63,0,1
102950,-83.3333333333333,4,2,79,63,0,1
103131,-83.3333333333333,4,2,80,63,0,1
103311,-83.3333333333333,4,2,27,63,0,1
103492,-83.3333333333333,4,2,53,52,0,1
103673,-83.3333333333333,4,2,26,52,0,1
103854,-83.3333333333333,4,2,81,56,0,1
104034,-83.3333333333333,4,2,26,56,0,1
104215,-83.3333333333333,4,2,15,56,0,1
104396,-83.3333333333333,4,2,82,56,0,1
104577,-83.3333333333333,4,2,85,63,0,1
104667,-83.3333333333333,4,2,10,63,0,1
104757,-83.3333333333333,4,2,54,63,0,1
104938,-83.3333333333333,4,2,52,63,0,1
105119,-83.3333333333333,4,2,10,63,0,1
105300,-83.3333333333333,4,2,84,59,0,1
105480,-83.3333333333333,4,2,15,59,0,1
105571,-83.3333333333333,4,2,11,59,0,1
105661,-83.3333333333333,4,2,56,59,0,1
105842,-83.3333333333333,4,2,79,59,0,1
106023,-83.3333333333333,4,2,80,63,0,1
106203,-83.3333333333333,4,2,86,63,0,1
106384,-83.3333333333333,4,2,53,63,0,1
106565,-83.3333333333333,4,2,87,63,0,1
106745,-83.3333333333333,4,2,81,66,0,1
106926,-83.3333333333333,4,2,57,66,0,1
107017,-83.3333333333333,4,2,22,66,0,1
107107,-83.3333333333333,4,2,20,66,0,1
107287,-83.3333333333333,4,2,82,66,0,1
107468,-83.3333333333333,4,2,88,66,0,1
107648,-83.3333333333333,4,2,57,66,0,1
107830,-83.3333333333333,4,2,58,59,0,1
108011,-83.3333333333333,4,2,21,59,0,1
108101,-83.3333333333333,4,2,10,59,0,1
108191,-83.3333333333333,4,2,78,63,0,1
108371,-83.3333333333333,4,2,15,63,0,1
108553,-83.3333333333333,4,2,15,66,0,1
108733,-83.3333333333333,4,2,89,66,0,1
108914,-83.3333333333333,4,2,90,70,0,1
109094,-83.3333333333333,4,2,27,70,0,1
109276,-83.3333333333333,4,2,22,66,0,1
109456,-83.3333333333333,4,2,91,66,0,1
109637,-83.3333333333333,4,2,81,70,0,1
109818,-83.3333333333333,4,2,21,70,0,1
109998,-83.3333333333333,4,2,52,63,0,1
110179,-83.3333333333333,4,2,92,63,0,1
110360,-83.3333333333333,4,2,93,56,0,1
110450,-83.3333333333333,4,2,31,56,0,1
110721,-83.3333333333333,4,2,94,49,0,1
110901,-83.3333333333333,4,2,11,52,0,1
111083,-83.3333333333333,4,2,95,56,0,0
111264,-100,4,2,10,46,0,0
111444,-100,4,2,11,46,0,0
111625,-100,4,2,31,46,0,0
111806,-100,4,2,11,52,0,0
112167,-100,4,2,11,49,0,0
112348,-100,4,2,31,49,0,0
112529,-100,4,2,10,56,0,0
112889,-100,4,2,11,56,0,0
113071,-100,4,2,31,56,0,0
113251,-100,4,2,11,52,0,0
113613,-100,4,2,11,46,0,0
113794,-100,4,2,31,46,0,0
113974,-100,4,2,10,59,0,0
114155,-100,4,2,10,52,0,0
114335,-100,4,2,11,52,0,0
114517,-100,4,2,31,52,0,0
114697,-100,4,2,11,56,0,0
115059,-100,4,2,11,59,0,0
115420,-100,4,2,11,56,0,0
115601,-100,4,2,10,56,0,0
115782,-100,4,2,11,56,0,0
115962,-100,4,2,10,56,0,0
116143,-100,4,2,10,63,0,0
116323,-100,4,2,11,63,0,0
116504,-100,4,2,11,49,0,0
116685,-100,4,2,31,49,0,0
116866,-100,4,2,10,63,0,0
117047,-100,4,2,10,49,0,0
117227,-100,4,2,11,49,0,0
117408,-100,4,2,31,49,0,0
117589,-100,4,2,10,52,0,0
117950,-100,4,2,11,52,0,0
118130,-100,4,2,31,52,0,0
118312,-100,4,2,10,56,0,0
118492,-100,4,2,10,52,0,0
118673,-100,4,2,11,49,0,0
118763,-100,4,2,10,49,0,0
118853,-100,4,2,11,56,0,0
118944,-100,4,2,10,56,0,0
119034,-100,4,2,10,63,0,0
119396,-100,4,2,11,52,0,0
119576,-100,4,2,31,52,0,0
119757,-100,4,2,10,63,0,0
120119,-100,4,2,11,63,0,0
120300,-100,4,2,31,63,0,0
120480,-100,4,2,11,59,0,0
121203,-100,4,2,11,63,0,0
121383,-100,4,2,10,63,0,0
121565,-100,4,2,11,63,0,0
121745,-100,4,2,10,63,0,0
121926,-100,4,2,10,66,0,0
122106,-100,4,2,11,66,0,0
122468,-100,4,2,31,66,0,0
122649,-76.9230769230769,4,2,10,70,0,1
122918,-76.9230769230769,4,2,10,49,0,1
123011,-76.9230769230769,4,2,96,49,0,0
123191,-76.9230769230769,4,2,97,49,0,0
123372,-100,4,2,80,59,0,0
123552,-100,4,2,27,59,0,0
123733,-100,4,2,53,63,0,0
123914,-100,4,2,26,63,0,0
124095,-100,4,2,81,63,0,0
124276,-100,4,2,54,63,0,0
124365,-100,4,2,22,63,0,0
124456,-100,4,2,55,56,0,0
124637,-100,4,2,82,56,0,0
124818,-100,4,2,83,56,0,0
124996,-100,4,2,26,56,0,0
125179,-100,4,2,52,49,0,0
125360,-100,4,2,27,49,0,0
125541,-100,4,2,84,49,0,0
125721,-100,4,2,56,49,0,0
125902,-100,4,2,15,56,0,0
126083,-100,4,2,79,56,0,0
126264,-100,4,2,80,56,0,0
126444,-100,4,2,27,56,0,0
126625,-100,4,2,53,46,0,0
126806,-100,4,2,26,46,0,0
126986,-100,4,2,81,49,0,0
127167,-100,4,2,26,49,0,0
127348,-100,4,2,15,49,0,0
127529,-100,4,2,82,49,0,0
127709,-100,4,2,85,56,0,0
127890,-100,4,2,54,56,0,0
128071,-100,4,2,52,56,0,0
128251,-100,4,2,10,56,0,0
128432,-100,4,2,84,52,0,0
128612,-100,4,2,15,52,0,0
128794,-100,4,2,56,52,0,0
128974,-100,4,2,79,52,0,0
129155,-100,4,2,80,56,0,0
129335,-100,4,2,86,56,0,0
129517,-100,4,2,53,56,0,0
129697,-100,4,2,87,56,0,0
129878,-100,4,2,81,59,0,0
130059,-100,4,2,57,59,0,0
130147,-100,4,2,22,59,0,0
130239,-100,4,2,20,59,0,0
130420,-100,4,2,82,59,0,0
130601,-100,4,2,88,59,0,0
130781,-100,4,2,57,59,0,0
130962,-100,4,2,61,42,0,1
131142,-100,4,2,27,42,0,1
131324,-100,4,2,78,56,0,1
131504,-100,4,2,15,56,0,1
131685,-100,4,2,15,59,0,1
131865,-100,4,2,89,59,0,1
132047,-100,4,2,90,63,0,1
132227,-100,4,2,27,63,0,1
132408,-100,4,2,22,59,0,1
132589,-100,4,2,91,59,0,1
132770,-100,4,2,81,63,0,1
132950,-100,4,2,21,63,0,1
133131,-100,4,2,52,56,0,1
133312,-100,4,2,92,56,0,1
133492,-100,4,2,98,49,0,0
133582,-100,4,2,31,49,0,0
133854,-100,4,2,11,42,0,0
134034,-100,4,2,11,46,0,0
134215,-83.3333333333333,4,2,99,86,0,1
134395,-83.3333333333333,4,2,100,86,0,1
134757,-83.3333333333333,4,2,102,86,0,1
134938,-83.3333333333333,4,2,103,86,0,1
135118,-83.3333333333333,4,2,104,66,0,1
135300,-83.3333333333333,4,2,105,90,0,1
135480,-83.3333333333333,4,2,106,90,0,1
135570,-83.3333333333333,4,2,106,70,0,1
135660,-83.3333333333333,4,2,107,90,0,1
135842,-83.3333333333333,4,2,108,90,0,1
135930,-83.3333333333333,4,2,109,70,0,1
136022,-83.3333333333333,4,2,110,81,0,1
136203,-83.3333333333333,4,2,111,81,0,1
136384,-83.3333333333333,4,2,112,81,0,1
136562,-83.3333333333333,4,2,113,63,0,1
136745,-83.3333333333333,4,2,114,72,0,1
136926,-83.3333333333333,4,2,115,72,0,1
137017,-83.3333333333333,4,2,10,56,0,1
137107,-83.3333333333333,4,2,116,72,0,1
137287,-83.3333333333333,4,2,117,56,0,1
137378,-83.3333333333333,4,2,118,56,0,1
137468,-83.3333333333333,4,2,119,81,0,1
137649,-83.3333333333333,4,2,120,81,0,1
137830,-83.3333333333333,4,2,121,81,0,1
138010,-83.3333333333333,4,2,104,63,0,1
138191,-83.3333333333333,4,2,122,68,0,1
138372,-83.3333333333333,4,2,123,68,0,1
138553,-83.3333333333333,4,2,124,72,0,1
138733,-83.3333333333333,4,2,106,72,0,1
138914,-83.3333333333333,4,2,100,72,0,1
139095,-83.3333333333333,4,2,125,72,0,1
139276,-83.3333333333333,4,2,126,81,0,1
139366,-83.3333333333333,4,2,10,63,0,1
139456,-83.3333333333333,4,2,127,63,0,1
139637,-83.3333333333333,4,2,128,81,0,1
139818,-83.3333333333333,4,2,129,81,0,1
139908,-83.3333333333333,4,2,10,63,0,1
139998,-83.3333333333333,4,2,130,76,0,1
140178,-83.3333333333333,4,2,100,76,0,1
140270,-83.3333333333333,4,2,101,59,0,1
140360,-83.3333333333333,4,2,131,76,0,1
140541,-83.3333333333333,4,2,102,76,0,1
140721,-83.3333333333333,4,2,103,81,0,1
140901,-83.3333333333333,4,2,104,63,0,1
141083,-83.3333333333333,4,2,105,81,0,1
141264,-83.3333333333333,4,2,132,81,0,1
141444,-83.3333333333333,4,2,107,86,0,1
141625,-83.3333333333333,4,2,123,86,0,1
141715,-83.3333333333333,4,2,109,66,0,1
141806,-83.3333333333333,4,2,133,86,0,1
141986,-83.3333333333333,4,2,111,86,0,1
142167,-83.3333333333333,4,2,134,86,0,1
142347,-83.3333333333333,4,2,113,66,0,1
142529,-83.3333333333333,4,2,135,76,0,1
142709,-83.3333333333333,4,2,136,76,0,1
142800,-83.3333333333333,4,2,10,59,0,1
142890,-83.3333333333333,4,2,137,81,0,1
143070,-83.3333333333333,4,2,117,63,0,1
143251,-83.3333333333333,4,2,138,86,0,1
143432,-83.3333333333333,4,2,139,86,0,1
143613,-83.3333333333333,4,2,140,90,0,1
143793,-83.3333333333333,4,2,141,90,0,1
143974,-83.3333333333333,4,2,142,86,0,1
144154,-83.3333333333333,4,2,143,86,0,1
144336,-83.3333333333333,4,2,144,90,0,1
144517,-83.3333333333333,4,2,141,90,0,1
144697,-83.3333333333333,4,2,145,81,0,1
144878,-83.3333333333333,4,2,146,81,0,1
145059,-83.3333333333333,4,2,147,72,0,1
145149,-83.3333333333333,4,2,31,56,0,1
145420,-83.3333333333333,4,2,148,63,0,1
145510,-83.3333333333333,4,2,148,49,0,1
145600,-83.3333333333333,4,2,11,52,0,1
145782,-100,4,2,149,76,0,0
145961,-100,4,2,10,59,0,0
146143,-100,4,2,31,59,0,0
146324,-100,4,2,10,59,0,0
146683,-100,4,2,31,59,0,0
146866,-100,4,2,11,52,0,0
147047,-100,4,2,31,52,0,0
147227,-100,4,2,10,56,0,0
147589,-100,4,2,11,56,0,0
147769,-100,4,2,31,59,0,0
147950,-100,4,2,11,59,0,0
148312,-100,4,2,11,52,0,0
148492,-100,4,2,31,52,0,0
148673,-100,4,2,10,49,0,0
149034,-100,4,2,11,49,0,0
149215,-100,4,2,31,49,0,0
149396,-100,4,2,11,52,0,0
150119,-100,4,2,11,59,0,0
150299,-100,4,2,10,59,0,0
150480,-100,4,2,11,59,0,0
150660,-100,4,2,10,59,0,0
150842,-100,4,2,10,66,0,0
151022,-100,4,2,11,66,0,0
151203,-100,4,2,10,42,0,0

[Colours]
Combo1 : 210,255,236
Combo2 : 248,210,255
Combo3 : 255,252,210
Combo4 : 255,210,211

[HitObjects]
129,117,480,6,0,L|223:108,1,70,2|2,2:0|2:0,2:0:0:0:
247,179,842,2,0,L|316:185,1,70,2|2,2:0|2:0,2:0:0:0:
186,237,1203,1,4,3:0:0:0:
176,264,1745,6,0,P|168:310|173:341,1,70,2|2,2:0|3:2,2:0:0:0:
395,141,2468,2,0,P|359:111|329:99,1,70,2|2,2:0|3:2,2:0:0:0:
351,382,3191,2,0,P|394:365|419:346,1,70,2|2,2:0|3:2,2:0:0:0:
428,343,3914,5,2,2:0:0:0:
386,269,4095,1,2,3:2:0:0:
479,23,4637,2,0,L|470:95,1,70,2|2,2:0|3:2,2:0:0:0:
235,144,5360,2,0,L|226:74,1,70,2|2,2:0|3:2,2:0:0:0:
210,48,5902,21,2,3:2:0:0:
146,102,6083,1,2,2:0:0:0:
39,52,6264,1,6,3:0:0:0:
328,172,6986,6,0,L|408:161,1,70,6|2,3:2|2:0,2:0:0:0:
450,227,7348,2,0,P|464:272|442:326,1,105,0|0,2:0|2:0,2:0:0:0:
407,345,7709,1,6,3:2:0:0:
272,244,8071,6,0,L|200:234,1,70,0|2,2:0|3:2,2:0:0:0:
141,176,8432,2,0,P|127:131|149:77,1,105,6|0,3:2|2:0,2:0:0:0:
188,57,8794,2,0,L|118:68,1,70,0|2,2:0|3:2,2:0:0:0:
222,133,9155,1,6,3:2:0:0:
276,68,9336,2,0,B|279:32|279:32|255:-2,2,70,2|2|0,2:0|2:0|2:0,2:0:0:0:
283,194,9878,1,6,3:2:0:0:
233,374,10239,22,0,L|226:266,1,105,2|0,2:0|2:0,2:0:0:0:
202,234,10601,1,6,3:2:0:0:
142,293,10782,1,0,2:0:0:0:
60,271,10962,2,0,P|46:237|58:196,1,70,0|2,2:0|3:2,2:0:0:0:
68,122,11324,2,0,P|58:91|26:64,2,70,6|0|0,3:2|2:0|2:0,2:0:0:0:
139,175,11866,1,2,3:2:0:0:
139,175,12047,2,0,B|179:144|209:152|211:146|247:162|283:132,1,140,6|2,3:2|2:0,2:0:0:0:
427,76,12770,6,0,P|388:86|369:125,1,70,6|2,3:2|2:0,2:0:0:0:
348,189,13131,2,0,L|369:313,1,105,0|0,2:0|2:0,2:0:0:0:
371,334,13492,1,6,3:2:0:0:
246,243,13854,6,0,P|214:243|172:260,1,70,0|2,2:0|3:2,2:0:0:0:
147,333,14215,2,0,L|17:326,1,105,6|0,3:2|2:0,2:0:0:0:
15,294,14577,2,0,B|5:258|5:258|19:216,1,70,0|10,2:0|3:2,2:0:0:0:
53,153,14938,1,6,3:2:0:0:
53,153,15119,2,0,B|59:115|59:115|44:72,2,70,2|2|0,2:0|2:0|2:0,2:0:0:0:
102,220,15661,1,6,3:2:0:0:
120,200,16023,22,0,P|166:176|236:160,1,105,2|0,2:0|2:0,2:0:0:0:
255,178,16384,1,6,3:2:0:0:
327,135,16565,1,0,2:0:0:0:
387,193,16745,2,0,L|398:263,1,70,0|2,2:0|3:2,2:0:0:0:
443,131,17107,2,0,L|447:57,2,70,6|0|0,3:2|2:0|2:0,2:0:0:0:
479,207,17649,1,2,3:2:0:0:
505,286,17830,1,6,3:2:0:0:
437,336,18011,2,0,L|425:392,2,35,8|8|12,2:3|2:3|2:3,2:0:0:0:
397,262,18372,1,8,2:3:0:0:
282,318,18553,6,0,L|202:311,1,70,6|2,1:2|2:0,2:0:0:0:
158,376,18914,2,0,P|133:341|139:272,1,105,10|0,2:0|2:0,2:0:0:0:
158,246,19276,2,0,P|160:212|148:180,1,70,6|2,2:0|2:0,2:0:0:0:
72,216,19637,1,10,2:0:0:0:
72,216,19818,1,2,3:2:0:0:
121,146,19998,6,0,L|246:125,1,105,6|0,3:2|2:0,2:0:0:0:
242,90,20360,2,0,P|250:52|236:4,1,70,10|2,2:0|3:2,2:0:0:0:
158,51,20721,1,6,3:2:0:0:
319,144,20902,1,8,2:3:0:0:
319,144,20992,1,8,2:3:0:0:
319,144,21083,2,0,L|396:149,1,70,10|10,2:0|2:0,2:0:0:0:
431,45,21444,2,0,L|360:57,1,70,6|0,3:2|2:0,2:0:0:0:
474,122,21806,21,10,2:0:0:0:
506,199,21986,1,2,3:2:0:0:
455,265,22167,1,6,3:2:0:0:
376,235,22348,1,2,2:0:0:0:
291,236,22529,2,0,P|259:256|244:289,1,70,10|2,2:0|3:2,2:0:0:0:
280,360,22890,6,0,L|349:368,2,70,6|2|10,3:2|2:0|2:0,2:0:0:0:
200,352,23432,1,2,3:2:0:0:
200,352,23613,1,6,3:2:0:0:
116,342,23794,2,0,L|76:350,2,35,8|8|8,2:3|2:3|2:3,2:0:0:0:
161,271,24155,1,8,2:3:0:0:
88,226,24336,6,0,P|56:241|42:272,1,70,6|2,1:2|2:0,2:0:0:0:
154,175,24697,2,0,P|203:192|262:163,1,105,10|0,2:0|2:0,2:0:0:0:
281,144,25059,2,0,P|287:108|278:52,1,70,6|2,3:2|2:0,2:0:0:0:
207,103,25420,1,10,2:0:0:0:
207,103,25601,1,2,3:2:0:0:
331,217,25782,22,0,L|324:330,1,105,6|0,3:2|2:0,2:0:0:0:
363,338,26143,2,0,P|386:363|432:371,1,70,10|2,2:0|3:2,2:0:0:0:
434,288,26504,1,6,3:2:0:0:
248,348,26685,1,8,2:3:0:0:
248,348,26776,1,8,2:3:0:0:
248,348,26866,2,0,L|170:339,1,70,10|10,2:0|2:0,2:0:0:0:
180,255,27227,2,0,B|216:245|216:245|252:258,1,70,6|2,3:2|2:0,2:0:0:0:
149,339,27589,5,10,2:0:0:0:
67,361,27770,1,2,3:2:0:0:
14,295,27950,2,0,P|-1:264|10:202,1,70,6|2,3:2|2:0,2:0:0:0:
81,247,28312,2,0,P|84:214|109:180,1,70,10|2,2:0|3:2,2:0:0:0:
179,146,28673,2,0,L|254:157,2,70,14|10|14,3:2|3:2|3:2,2:0:0:0:
105,104,29215,1,10,3:2:0:0:
176,60,29396,1,14,1:2:0:0:
301,223,29757,22,0,L|293:292,1,70,10|2,2:0|2:0,2:0:0:0:
378,178,30119,2,0,P|411:139|482:145,1,105,6|0,3:2|2:0,2:0:0:0:
496,159,30480,1,10,2:0:0:0:
444,93,30661,1,2,2:0:0:0:
468,12,30842,1,6,3:2:0:0:
316,102,31203,6,0,L|244:94,1,70,10|2,2:0|2:0,2:0:0:0:
168,126,31565,2,0,L|86:117,2,70,6|0|10,2:0|2:0|2:0,2:0:0:0:
236,175,32107,1,6,2:0:0:0:
178,40,32288,1,6,3:2:0:0:
16,87,32649,6,0,P|12:122|22:156,1,70,10|2,2:0|2:0,2:0:0:0:
91,202,33011,1,6,3:2:0:0:
85,225,33372,22,0,P|127:216|169:219,1,70,10|2,2:0|2:0,2:0:0:0:
222,266,33733,1,6,3:2:0:0:
234,294,34095,6,0,L|227:363,1,70,10|2,2:0|2:0,2:0:0:0:
307,251,34456,2,0,L|313:162,2,70,6|0|10,2:0|2:0|2:0,2:0:0:0:
313,334,34998,1,6,2:0:0:0:
313,334,35179,1,6,3:2:0:0:
464,227,35541,6,0,P|456:180|423:145,1,70,10|2,2:0|2:0,2:0:0:0:
371,118,35902,1,6,2:0:0:0:
373,87,36264,22,0,P|333:93|292:89,1,70,10|2,2:0|2:0,2:0:0:0:
231,47,36625,1,6,3:2:0:0:
223,71,36986,5,10,2:0:0:0:
243,152,37167,1,2,2:0:0:0:
205,227,37348,2,0,L|200:309,1,70,6|2,2:0|2:0,2:0:0:0:
240,371,37709,1,10,2:0:0:0:
283,299,37890,1,6,2:0:0:0:
149,366,38071,1,6,3:2:0:0:
124,346,38432,6,0,B|95:306|95:306|100:232,1,105,2|0,2:0|2:0,2:0:0:0:
70,214,38794,2,0,L|64:120,1,70,6|0,3:2|3:0,2:0:0:0:
112,66,39155,1,8,3:2:0:0:
167,145,39336,1,6,2:0:0:0:
167,145,39517,2,0,P|199:132|252:129,1,70,14|8,3:2|3:2,2:0:0:0:
235,36,39878,2,0,P|272:42|311:65,1,70,10|6,3:2|2:0,2:0:0:0:
325,145,40239,2,0,L|321:214,1,70,14|0,3:2|3:0,2:0:0:0:
417,266,40601,2,0,L|411:196,1,70,8|10,3:2|3:2,2:0:0:0:
230,225,40962,2,0,P|253:278|306:302,1,105,6|0,3:2|3:0,2:0:0:0:
337,307,41324,37,2,2:0:0:0:
245,305,41504,1,2,2:0:0:0:
175,362,41685,1,6,1:2:0:0:
91,350,41866,1,2,3:2:0:0:
56,273,42047,1,10,3:2:0:0:
82,193,42227,1,6,3:2:0:0:
162,169,42408,2,0,P|173:120|156:54,1,105,6|0,3:2|2:0,2:0:0:0:
135,34,42770,5,10,3:2:0:0:
212,64,42950,1,2,3:2:0:0:
278,13,43131,1,6,3:2:0:0:
356,42,43312,2,0,L|445:31,2,70,2|10|6,3:2|3:2|3:2,2:0:0:0:
291,96,43854,2,0,P|284:147|308:204,1,105,6|0,3:2|3:0,2:0:0:0:
341,211,44215,5,10,3:2:0:0:
293,279,44396,1,2,3:2:0:0:
334,352,44577,2,0,L|403:362,1,70,6|2,3:2|3:2,2:0:0:0:
269,298,44938,21,10,3:2:0:0:
192,262,45119,1,6,3:2:0:0:
119,304,45300,2,0,L|49:315,1,70,6|2,3:2|3:2,2:0:0:0:
195,349,45661,5,10,3:2:0:0:
195,349,45842,1,2,3:2:0:0:
115,218,46023,5,6,3:2:0:0:
188,178,46203,1,2,3:2:0:0:
265,210,46384,1,10,3:2:0:0:
320,146,46565,2,0,L|307:77,1,70,6|6,3:2|3:2,2:0:0:0:
375,216,46926,1,6,3:2:0:0:
375,215,47107,2,0,P|353:243|342:276,1,70,2|4,3:2|3:0,2:0:0:0:
450,177,47468,22,0,B|457:142|457:142|441:93,1,70,6|10,1:2|3:2,2:0:0:0:
368,77,47830,1,6,3:2:0:0:
320,146,48011,1,10,3:2:0:0:
257,90,48191,2,0,B|227:81|227:81|175:89,1,70,6|2,3:2|3:2,2:0:0:0:
110,117,48553,5,6,3:2:0:0:
30,89,48733,1,10,3:2:0:0:
43,175,48914,1,6,3:2:0:0:
43,175,49095,2,0,P|28:213|30:243,2,70,10|6|10,3:2|3:2|3:2,2:0:0:0:
111,224,49637,2,0,P|116:243|107:298,1,70,6|2,3:2|2:0,2:0:0:0:
46,349,49998,6,0,P|97:336|164:358,1,105,6|0,3:2|2:0,2:0:0:0:
182,369,50360,1,6,3:2:0:0:
257,332,50541,1,2,3:2:0:0:
334,365,50721,2,0,L|417:376,1,70,6|2,3:2|3:2,2:0:0:0:
446,276,51083,2,0,L|376:285,1,70,6|2,2:0|2:0,2:0:0:0:
492,209,51444,1,6,3:2:0:0:
501,125,51625,1,10,3:2:0:0:
451,64,51806,21,14,3:2:0:0:
451,64,51986,1,6,3:2:0:0:
374,92,52167,1,14,3:2:0:0:
374,92,52348,1,6,3:2:0:0:
297,57,52529,2,0,P|275:51|243:51,3,35,6|2|2|2,3:2|3:2|3:2|3:2,2:0:0:0:
221,57,52890,2,0,P|199:60|175:68,3,35,14|0|8|0,3:2|3:0|3:0|3:0,2:0:0:0:
167,100,53251,6,0,P|193:165|205:237,1,140,6|2,3:2|2:0,2:0:0:0:
189,321,53794,1,2,3:2:0:0:
126,264,53974,2,0,P|86:260|34:316,1,105,6|0,3:0|2:0,2:0:0:0:
33,340,54336,1,10,3:0:0:0:
113,364,54517,1,2,3:2:0:0:
189,321,54697,5,4,3:0:0:0:
205,238,54878,2,0,L|189:193,2,35,2|2|10,3:2|3:2|3:0,2:0:0:0:
271,298,55239,1,2,3:2:0:0:
271,298,55420,2,0,P|315:317|379:301,1,105,4|0,3:0|2:0,2:0:0:0:
395,273,55782,2,0,P|417:240|412:197,1,70,14|2,3:0|3:2,2:0:0:0:
362,146,56143,21,4,3:0:0:0:
319,221,56324,1,2,3:2:0:0:
319,221,56414,1,2,3:2:0:0:
319,221,56504,1,10,3:0:0:0:
278,136,56685,1,2,3:2:0:0:
225,201,56866,2,0,L|145:190,1,70,6|0,3:0|3:0,2:0:0:0:
185,113,57227,2,0,L|254:103,1,70,10|0,3:0|3:0,2:0:0:0:
100,123,57589,5,6,3:0:0:0:
42,184,57770,1,2,3:2:0:0:
1,111,57950,2,0,P|-6:78|3:35,1,70,10|2,3:0|3:2,2:0:0:0:
47,201,58312,2,0,L|34:292,1,70,6|8,3:0|3:0,2:0:0:0:
4,347,58673,2,0,B|40:355|40:355|74:348|74:348|116:360,1,105,10|0,3:0|3:0,2:0:0:0:
127,320,59035,6,0,B|166:303|198:325|194:326|228:346|272:328,1,140,6|2,3:0|2:0,2:0:0:0:
338,293,59577,1,2,3:2:0:0:
385,223,59757,2,0,P|367:182|331:163,1,70,6|0,3:0|3:0,2:0:0:0:
263,156,60119,1,10,3:0:0:0:
236,235,60300,1,2,3:2:0:0:
265,137,60480,21,4,3:0:0:0:
215,74,60661,1,2,3:2:0:0:
215,74,60751,1,2,3:2:0:0:
215,74,60842,2,0,L|200:19,3,35,10|2|10|2,3:0|3:2|3:0|3:2,2:0:0:0:
168,21,61203,2,0,P|119:15|62:49,1,105,4|0,3:0|2:0,2:0:0:0:
62,80,61565,2,0,P|51:117|57:149,1,70,14|2,3:0|3:2,2:0:0:0:
123,198,61926,5,4,3:0:0:0:
142,122,62107,1,2,3:2:0:0:
142,122,62197,1,2,3:2:0:0:
142,122,62288,1,10,3:0:0:0:
46,226,62468,1,2,3:2:0:0:
105,285,62649,2,0,L|174:288,1,70,6|0,3:0|3:0,2:0:0:0:
277,199,63011,2,0,L|208:209,1,70,10|0,3:0|3:0,2:0:0:0:
227,355,63372,5,6,3:0:0:0:
309,372,63553,1,2,3:2:0:0:
373,318,63733,1,10,3:0:0:0:
356,235,63914,1,2,3:2:0:0:
295,176,64095,2,0,B|284:145|284:145|287:92,2,70,6|8|10,3:0|3:0|3:0,2:0:0:0:
159,36,64818,22,0,P|119:35|90:48,1,70,6|2,1:2|2:0,2:0:0:0:
13,17,65179,2,0,P|6:75|34:115,1,105,10|0,2:0|2:0,2:0:0:0:
68,130,65541,1,6,3:2:0:0:
23,201,65721,1,2,2:0:0:0:
68,271,65902,2,0,L|59:340,1,70,10|2,2:0|2:0,2:0:0:0:
147,243,66264,6,0,P|192:238|259:255,1,105,6|0,3:2|2:0,2:0:0:0:
263,289,66625,2,0,P|269:324|264:359,1,70,10|2,2:0|2:0,2:0:0:0:
330,237,66986,1,6,3:2:0:0:
276,174,67167,1,8,2:3:0:0:
276,174,67257,1,8,2:3:0:0:
276,174,67348,2,0,L|284:93,1,70,10|10,2:0|2:0,2:0:0:0:
187,35,67709,2,0,L|199:122,1,70,6|0,3:2|2:0,2:0:0:0:
349,52,68071,6,0,P|398:40|457:67,1,105,10|0,2:0|2:0,2:0:0:0:
474,90,68432,1,6,3:2:0:0:
400,130,68613,1,2,2:0:0:0:
371,209,68794,2,0,P|356:250|357:288,1,70,10|2,2:0|2:0,2:0:0:0:
422,333,69155,22,0,P|435:304|439:255,2,70,6|2|10,3:2|2:0|2:0,2:0:0:0:
345,361,69697,1,2,2:0:0:0:
345,361,69878,1,6,3:2:0:0:
274,314,70059,2,0,L|233:308,2,35,8|8|8,2:3|2:3|2:3,2:0:0:0:
355,275,70420,1,8,2:3:0:0:
182,371,70601,6,0,P|162:347|155:302,1,70,6|2,1:2|2:0,2:0:0:0:
74,336,70962,2,0,P|69:286|101:240,1,105,10|0,2:0|2:0,2:0:0:0:
137,225,71324,1,6,3:2:0:0:
95,151,71504,1,2,2:0:0:0:
139,80,71685,2,0,L|146:10,1,70,10|2,2:0|2:0,2:0:0:0:
184,150,72047,6,0,P|235:161|287:148,1,105,6|0,3:2|2:0,2:0:0:0:
285,106,72408,2,0,P|308:80|313:37,1,70,10|2,2:0|2:0,2:0:0:0:
230,37,72770,1,6,3:2:0:0:
383,132,72950,1,8,2:3:0:0:
383,132,73041,1,8,2:3:0:0:
383,132,73131,2,0,L|452:121,1,70,10|10,2:0|2:0,2:0:0:0:
348,210,73492,2,0,B|334:261|334:261|358:314,1,105,6|0,3:2|2:0,2:0:0:0:
396,328,73854,21,10,2:0:0:0:
323,383,74035,1,2,2:0:0:0:
258,318,74215,2,0,P|223:301|169:311,1,70,6|2,3:2|2:0,2:0:0:0:
208,211,74577,2,0,P|171:215|133:236,1,70,10|2,2:0|2:0,2:0:0:0:
104,312,74938,2,0,P|71:325|23:323,2,70,14|10|14,3:2|3:2|3:2,2:0:0:0:
47,240,75480,1,10,3:2:0:0:
98,180,75661,1,14,3:2:0:0:
292,242,76023,38,0,L|361:248,1,70,10|2,2:0|2:0,2:0:0:0:
262,163,76384,2,0,P|277:120|268:58,1,105,6|0,3:2|2:0,2:0:0:0:
236,35,76745,1,10,2:0:0:0:
318,51,76926,1,2,2:0:0:0:
397,24,77107,1,6,3:2:0:0:
409,175,77468,6,0,L|416:105,1,70,10|2,2:0|2:0,2:0:0:0:
447,255,77830,2,0,L|439:333,2,70,6|0|10,2:0|2:0|2:0,2:0:0:0:
361,248,78372,1,6,2:0:0:0:
492,182,78553,1,14,3:2:0:0:
320,169,78914,6,0,B|281:162|281:162|237:172,1,70,10|2,2:0|2:0,2:0:0:0:
169,190,79276,1,6,3:2:0:0:
170,214,79637,22,0,B|131:224|131:224|104:249,1,70,10|2,2:0|2:0,2:0:0:0:
72,320,79998,1,6,3:2:0:0:
78,343,80360,6,0,L|9:328,1,70,10|2,2:0|2:0,2:0:0:0:
165,313,80721,2,0,L|233:328,2,70,6|0|10,2:0|2:0|2:0,2:0:0:0:
109,244,81264,1,6,2:0:0:0:
109,244,81444,1,14,3:2:0:0:
317,368,81806,6,0,B|328:336|328:336|319:297,1,70,10|2,2:0|2:0,2:0:0:0:
256,245,82167,1,6,2:0:0:0:
267,215,82529,22,0,B|256:177|256:177|269:130,1,70,10|2,2:0|2:0,2:0:0:0:
302,72,82890,1,6,3:2:0:0:
324,81,83251,5,10,2:0:0:0:
391,30,83432,1,2,2:0:0:0:
461,76,83613,2,0,B|473:114|473:114|464:161,1,70,6|2,2:0|2:0,2:0:0:0:
406,202,83974,1,10,2:0:0:0:
328,169,84155,1,6,2:0:0:0:
423,286,84336,1,14,3:2:0:0:
259,323,84697,6,0,B|221:321|221:321|196:330|196:330|133:328,1,105,2|0,2:0|2:0,2:0:0:0:
117,309,85059,2,0,B|102:277|102:277|111:228,1,70,6|0,3:2|3:0,2:0:0:0:
169,185,85420,1,8,3:2:0:0:
110,124,85601,1,6,2:0:0:0:
110,124,85782,2,0,L|98:39,1,70,14|8,3:2|3:2,2:0:0:0:
180,28,86143,2,0,L|191:112,1,70,10|6,3:2|2:0,2:0:0:0:
252,153,86504,22,0,P|289:164|338:154,1,70,14|0,3:2|3:0,2:0:0:0:
364,230,86866,2,0,P|395:202|405:156,1,70,8|10,3:2|3:2,2:0:0:0:
486,197,87227,2,0,B|499:150|466:117|465:126|434:97|452:46,1,140,6|2,3:2|2:0,2:0:0:0:
448,284,87950,37,6,1:2:0:0:
366,262,88131,1,2,3:2:0:0:
283,276,88312,1,10,3:2:0:0:
211,319,88492,1,6,3:2:0:0:
139,361,88673,2,0,P|88:358|49:322,1,105,6|0,3:2|2:0,2:0:0:0:
42,281,89035,21,10,3:2:0:0:
125,276,89215,1,2,3:2:0:0:
84,202,89396,1,6,3:2:0:0:
84,202,89577,2,0,P|69:160|73:115,2,70,2|10|6,3:2|3:2|3:2,2:0:0:0:
160,167,90119,2,0,P|195:208|266:206,1,105,6|0,3:2|3:0,2:0:0:0:
281,196,90480,5,10,3:2:0:0:
348,146,90661,1,2,3:2:0:0:
417,192,90842,2,0,L|424:261,1,70,6|2,3:2|3:2,2:0:0:0:
358,131,91203,5,10,3:2:0:0:
415,69,91384,1,6,3:2:0:0:
348,17,91565,2,0,L|266:7,1,70,6|2,3:2|3:2,2:0:0:0:
205,46,91926,21,10,3:2:0:0:
205,46,92107,1,2,3:2:0:0:
131,5,92288,5,6,3:2:0:0:
58,47,92468,1,2,3:2:0:0:
90,124,92649,1,10,3:2:0:0:
173,136,92830,2,0,P|185:173|179:212,1,70,6|6,3:2|3:2,2:0:0:0:
138,275,93191,1,6,3:2:0:0:
138,275,93372,6,0,P|126:311|131:350,1,70,2|4,3:2|3:0,2:0:0:0:
209,368,93733,2,0,B|283:359,1,70,6|10,1:2|3:2,2:0:0:0:
340,303,94095,1,6,3:2:0:0:
418,334,94276,1,10,3:2:0:0:
477,275,94456,2,0,B|481:187,1,70,6|2,3:2|3:2,2:0:0:0:
430,136,94818,21,6,3:2:0:0:
460,57,94998,1,10,3:2:0:0:
390,9,95179,1,6,3:2:0:0:
390,9,95360,2,0,P|361:5|317:11,2,70,10|6|10,3:2|3:2|3:2,2:0:0:0:
358,87,95902,2,0,P|321:93|275:85,1,70,6|2,3:2|2:0,2:0:0:0:
219,137,96264,6,0,B|212:171|212:171|220:217,1,70,6|2,3:2|3:2,2:0:0:0:
269,272,96625,1,6,3:2:0:0:
191,238,96806,1,2,3:2:0:0:
108,254,96986,2,0,P|71:263|36:284,1,70,6|2,3:2|3:2,2:0:0:0:
98,342,97348,2,0,P|142:333|177:308,1,70,6|2,2:0|2:0,2:0:0:0:
191,238,97709,1,6,3:2:0:0:
140,170,97890,1,10,3:2:0:0:
160,91,98071,5,14,3:2:0:0:
160,91,98251,1,6,3:2:0:0:
230,45,98432,1,14,3:2:0:0:
311,64,98613,1,6,3:2:0:0:
368,125,98794,2,0,L|360:189,3,35,6|2|2|2,3:2|3:2|3:2|3:2,2:0:0:0:
370,200,99155,2,0,L|366:245,3,35,14|0|8|0,3:2|3:0|3:0|3:0,2:0:0:0:
387,270,99517,22,0,P|427:259|469:257,1,84,6|2,1:2|3:2,2:0:0:0:
350,346,99878,1,10,3:2:0:0:
278,301,100059,1,6,3:2:0:0:
203,340,100239,2,0,L|104:332,1,84,6|2,3:2|3:2,2:0:0:0:
50,284,100601,5,10,3:2:0:0:
116,232,100782,2,0,L|162:251,2,42,2|2|6,3:2|3:2|3:2,2:0:0:0:
39,196,101143,2,0,P|21:165|36:89,2,84,2|10|6,3:2|3:2|3:2,2:0:0:0:
107,146,101685,2,0,P|169:145|225:117,1,126,6|0,3:2|2:0,2:0:0:0:
240,77,102047,5,10,3:2:0:0:
309,141,102227,1,2,3:2:0:0:
309,141,102318,1,2,3:2:0:0:
309,141,102408,2,0,B|303:186|303:186|319:249,1,84,6|2,3:2|3:2,2:0:0:0:
337,237,102679,1,2,3:2:0:0:
337,237,102770,21,10,3:2:0:0:
393,174,102950,1,6,3:2:0:0:
450,235,103131,2,0,B|459:272|459:272|453:317,1,84,6|2,3:2|3:2,2:0:0:0:
395,379,103492,5,10,3:2:0:0:
331,323,103673,1,2,3:2:0:0:
250,296,103854,2,0,P|201:295|149:310,1,84,6|2,3:2|3:2,2:0:0:0:
106,361,104215,1,10,3:2:0:0:
187,380,104396,1,6,3:2:0:0:
90,282,104577,6,0,L|46:277,2,42,6|2|6,3:2|2:0|3:2,2:0:0:0:
150,223,104938,1,10,3:2:0:0:
110,154,105119,1,6,3:0:0:0:
110,154,105209,1,2,3:2:0:0:
110,154,105300,22,0,L|117:64,1,84,6|10,1:2|3:2,2:0:0:0:
110,54,105571,1,2,3:2:0:0:
110,54,105661,1,2,3:2:0:0:
188,23,105842,1,10,3:2:0:0:
260,65,106023,2,0,L|362:52,1,84,6|10,3:2|3:2,2:0:0:0:
410,3,106384,5,6,3:2:0:0:
379,81,106565,1,10,3:2:0:0:
421,153,106745,1,6,3:2:0:0:
373,222,106926,1,10,3:2:0:0:
376,242,107017,1,2,3:2:0:0:
381,262,107107,2,0,P|337:274|293:271,1,84,2|10,3:2|3:2,2:0:0:0:
251,350,107468,2,0,L|334:360,1,84,6|10,3:2|3:2,2:0:0:0:
216,273,107830,5,6,3:2:0:0:
182,200,108011,1,2,3:2:0:0:
182,200,108101,1,2,3:2:0:0:
182,200,108191,2,0,B|168:154|168:154|180:93,1,84,6|2,3:2|3:2,2:0:0:0:
249,78,108553,1,2,3:2:0:0:
175,38,108733,1,2,3:2:0:0:
99,74,108914,2,0,L|-7:83,1,84,6|2,2:0|2:0,2:0:0:0:
14,165,109276,2,0,L|120:156,1,84,6|10,3:2|3:2,2:0:0:0:
174,118,109637,21,14,3:2:0:0:
249,78,109818,1,6,3:2:0:0:
331,92,109998,1,14,3:2:0:0:
374,164,110179,1,6,3:2:0:0:
341,241,110360,2,0,L|267:233,3,42,6|2|2|2,3:2|3:2|3:2|3:2,2:0:0:0:
268,265,110721,2,0,L|210:257,3,42,14|0|8|0,3:2|3:0|3:0|3:0,2:0:0:0:
195,236,111083,5,6,3:2:0:0:
157,312,111264,2,0,P|161:333|161:355,2,35,2|2|10,3:2|3:2|3:0,2:0:0:0:
112,240,111625,1,2,3:2:0:0:
150,165,111806,1,6,3:0:0:0:
112,95,111986,1,0,3:0:0:0:
112,95,112167,1,10,3:0:0:0:
70,168,112348,1,2,3:2:0:0:
192,93,112529,5,4,3:0:0:0:
259,42,112709,2,0,L|270:4,2,35,2|2|10,3:2|3:2|3:0,2:0:0:0:
279,128,113071,1,2,3:2:0:0:
279,128,113251,2,0,P|325:124|361:126,1,70,4|8,3:0|3:0,2:0:0:0:
426,157,113613,1,14,3:0:0:0:
495,109,113794,1,2,3:2:0:0:
443,175,113974,21,4,3:0:0:0:
377,226,114155,2,0,P|356:214|339:193,2,35,2|2|10,3:2|3:2|3:0,2:0:0:0:
456,254,114517,1,2,3:2:0:0:
393,309,114697,2,0,L|309:298,1,70,6|0,3:0|3:0,2:0:0:0:
255,350,115059,2,0,L|171:361,1,70,10|0,3:0|3:0,2:0:0:0:
121,302,115420,5,6,3:0:0:0:
55,353,115601,1,2,3:2:0:0:
55,353,115782,1,10,3:0:0:0:
5,284,115962,1,2,3:2:0:0:
71,233,116143,2,0,B|75:198|75:198|65:149,1,70,6|8,3:0|3:0,2:0:0:0:
15,97,116504,1,10,3:0:0:0:
71,34,116685,1,2,3:2:0:0:
154,47,116866,5,6,3:0:0:0:
180,122,117047,2,0,L|149:147,2,35,2|2|10,3:2|3:2|3:0,2:0:0:0:
236,59,117408,1,2,3:2:0:0:
261,139,117589,2,0,P|257:174|269:222,1,70,6|2,3:0|3:2,2:0:0:0:
302,235,117860,1,2,3:2:0:0:
302,235,117950,2,0,P|327:269|361:284,1,70,10|2,3:0|3:2,2:0:0:0:
435,285,118312,21,4,3:0:0:0:
392,357,118492,1,2,3:2:0:0:
375,362,118583,1,2,3:2:0:0:
359,370,118673,2,0,L|324:381,4,35,10|2|10|2|4,3:0|3:2|3:0|3:2|3:0,2:0:0:0:
477,360,119215,1,0,3:0:0:0:
435,285,119396,6,0,B|426:250|426:250|434:207,1,70,14|2,3:0|3:2,2:0:0:0:
507,177,119757,1,4,3:0:0:0:
476,104,119938,1,2,3:2:0:0:
476,104,120119,1,10,3:0:0:0:
392,96,120300,1,2,3:2:0:0:
360,173,120480,5,6,3:0:0:0:
305,109,120661,1,0,3:0:0:0:
221,98,120842,1,10,3:0:0:0:
144,131,121023,1,0,3:0:0:0:
65,103,121203,22,0,P|52:70|52:35,1,70,6|2,3:0|3:2,2:0:0:0:
126,161,121565,1,10,3:0:0:0:
146,242,121745,1,2,3:2:0:0:
123,322,121926,2,0,P|100:348|70:366,1,70,6|8,3:0|3:0,2:0:0:0:
172,253,122288,1,10,3:0:0:0:
254,237,122468,1,2,3:2:0:0:
338,273,122649,6,0,P|412:273|456:168,1,182,6|14,2:3|3:2,2:0:0:0:
369,188,123191,1,6,3:2:0:0:
369,188,123372,2,0,P|334:168|316:119,1,70,6|2,3:2|3:2,2:0:0:0:
314,58,123733,5,10,3:2:0:0:
243,103,123914,1,2,3:2:0:0:
165,70,124095,1,6,3:2:0:0:
165,70,124276,2,0,L|74:82,2,70,2|10|6,3:2|3:2|3:2,2:0:0:0:
168,154,124818,2,0,P|162:201|171:264,1,105,6|0,3:2|2:0,2:0:0:0:
129,243,125179,21,10,3:2:0:0:
84,313,125360,1,2,3:2:0:0:
162,343,125541,2,0,L|242:325,1,70,6|2,3:2|3:2,2:0:0:0:
253,246,125902,5,10,3:2:0:0:
325,203,126083,1,6,3:2:0:0:
398,244,126264,2,0,L|467:252,1,70,6|2,3:2|3:2,2:0:0:0:
399,165,126625,5,10,3:2:0:0:
399,165,126806,1,2,3:2:0:0:
473,126,126986,21,6,3:2:0:0:
465,42,127167,1,2,3:2:0:0:
387,8,127348,1,10,3:2:0:0:
326,71,127529,2,0,P|301:74|235:70,1,70,6|6,3:2|3:2,2:0:0:0:
175,19,127890,1,6,3:2:0:0:
109,72,128071,6,0,B|99:110|99:110|106:153,1,70,10|6,3:2|3:0,2:0:0:0:
179,178,128432,2,0,B|189:140|189:140|182:97,1,70,6|10,1:2|3:2,2:0:0:0:
107,220,128794,1,2,3:2:0:0:
177,265,128974,1,10,3:2:0:0:
251,225,129155,2,0,B|336:211,1,70,6|10,3:2|3:2,2:0:0:0:
380,154,129517,1,6,3:2:0:0:
458,183,129697,1,10,3:2:0:0:
455,266,129878,1,6,3:2:0:0:
455,266,130059,2,0,P|453:299|463:349,2,70,10|2|10,3:2|3:2|3:2,2:0:0:0:
458,183,130601,2,0,P|462:147|452:107,1,70,6|10,3:2|3:2,2:0:0:0:
387,63,130962,6,0,B|296:53,1,70,6|2,3:2|3:2,2:0:0:0:
259,116,131324,1,6,3:2:0:0:
179,89,131504,1,2,3:2:0:0:
123,152,131685,2,0,P|124:186|135:220,1,70,2|2,3:2|3:2,2:0:0:0:
54,242,132047,2,0,P|69:283|105:310,1,70,6|2,2:0|2:0,2:0:0:0:
171,297,132408,1,6,3:2:0:0:
171,297,132589,1,10,3:2:0:0:
218,227,132770,21,14,3:2:0:0:
293,190,132950,1,6,3:2:0:0:
374,207,133131,1,14,3:2:0:0:
429,270,133312,1,6,3:2:0:0:
477,201,133492,2,0,P|472:174|480:138,3,35,6|2|2|2,3:2|3:2|3:2|3:2,2:0:0:0:
476,117,133854,2,0,P|480:94|476:76,3,35,12|0|8|0,3:0|3:0|3:0|3:0,2:0:0:0:
437,40,134215,6,0,L|344:35,1,84,6|2,1:2|3:2,2:0:0:0:
268,73,134577,1,10,3:2:0:0:
178,51,134757,1,6,3:2:0:0:
93,88,134938,2,0,P|78:124|88:172,1,84,6|2,3:2|3:2,2:0:0:0:
142,240,135300,5,10,3:2:0:0:
218,189,135480,2,0,L|211:131,2,42,2|0|6,3:2|2:0|3:2,2:0:0:0:
231,281,135842,2,0,L|221:375,2,84,2|10|6,3:2|3:2|3:2,2:0:0:0:
306,227,136384,2,0,P|326:173|404:165,1,126,6|0,3:2|2:0,2:0:0:0:
426,182,136745,21,10,3:2:0:0:
498,126,136926,1,2,3:2:0:0:
498,126,137017,1,2,3:2:0:0:
498,126,137107,2,0,B|506:83|506:83|493:38,1,84,6|2,3:2|3:2,2:0:0:0:
485,26,137378,1,2,3:2:0:0:
485,26,137468,5,10,3:2:0:0:
397,53,137649,1,6,3:2:0:0:
307,29,137830,2,0,B|266:16|266:16|211:34,1,84,6|2,3:2|3:2,2:0:0:0:
191,113,138191,5,10,3:2:0:0:
233,195,138372,1,2,3:2:0:0:
180,272,138553,2,0,P|143:285|92:269,1,84,6|2,3:2|3:2,2:0:0:0:
49,196,138914,1,10,3:2:0:0:
89,113,139095,1,6,3:2:0:0:
100,274,139276,22,0,L|86:328,2,42,6|2|6,3:2|2:0|3:2,2:0:0:0:
141,191,139637,1,10,3:2:0:0:
233,195,139818,1,6,3:2:0:0:
233,195,139908,1,2,3:2:0:0:
233,195,139998,6,0,L|323:207,1,84,6|10,1:2|3:2,2:0:0:0:
353,194,140270,1,2,3:2:0:0:
353,194,140360,1,2,3:2:0:0:
416,261,140541,1,10,3:2:0:0:
484,199,140721,2,0,L|475:115,1,84,6|10,3:2|3:2,2:0:0:0:
483,23,141083,5,6,3:2:0:0:
399,63,141264,1,10,3:2:0:0:
317,19,141444,1,6,3:2:0:0:
239,63,141625,1,10,3:2:0:0:
239,63,141715,1,2,3:2:0:0:
239,63,141806,2,0,P|227:104|240:161,1,84,2|10,3:2|3:2,2:0:0:0:
324,194,142167,2,0,L|330:90,1,84,6|10,3:2|3:2,2:0:0:0:
236,237,142529,21,6,3:2:0:0:
163,197,142709,1,2,3:2:0:0:
163,197,142800,1,2,3:2:0:0:
163,197,142890,2,0,B|113:191|113:191|62:201,1,84,6|2,3:2|2:0,2:0:0:0:
2,249,143251,1,6,3:2:0:0:
82,294,143432,1,2,3:2:0:0:
5,150,143613,2,0,L|16:52,1,84,6|2,2:0|2:0,2:0:0:0:
110,24,143974,2,0,L|100:116,1,84,6|2,2:0|2:0,2:0:0:0:
199,64,144336,5,14,3:2:0:0:
284,98,144517,1,6,3:2:0:0:
311,186,144697,1,14,3:2:0:0:
276,271,144878,1,6,3:2:0:0:
336,201,145059,2,0,P|352:191|392:188,3,42,6|2|2|2,3:2|3:2|3:2|3:2,2:0:0:0:
419,198,145420,2,0,P|438:200|460:218,3,42,14|0|8|0,3:2|3:0|3:0|3:0,2:0:0:0:
484,244,145782,6,0,P|470:212|487:111,1,140,6|2,3:2|3:2,2:0:0:0:
493,27,146324,1,2,3:2:0:0:
493,27,146504,2,0,L|380:36,1,105,6|0,3:0|2:0,2:0:0:0:
349,19,146866,1,10,3:0:0:0:
297,85,147047,1,2,3:2:0:0:
219,51,147227,21,4,3:0:0:0:
140,87,147408,1,2,3:2:0:0:
140,87,147498,1,2,3:2:0:0:
140,87,147589,2,0,L|87:82,3,35,10|0|2|0,3:0|2:0|3:2|2:0,2:0:0:0:
73,116,147950,2,0,B|61:169|61:169|77:232,1,105,4|0,3:0|2:0,2:0:0:0:
112,242,148312,1,14,3:0:0:0:
193,203,148492,1,2,3:2:0:0:
248,270,148673,5,4,3:0:0:0:
183,323,148854,2,0,L|143:329,2,35,2|2|10,3:2|3:2|3:0,2:0:0:0:
261,354,149215,1,2,3:2:0:0:
324,299,149396,5,6,3:0:0:0:
393,346,149577,1,0,3:0:0:0:
470,313,149757,21,10,3:0:0:0:
400,266,149938,1,0,3:0:0:0:
475,230,150119,6,0,P|486:188|482:139,1,70,6|2,3:0|3:2,2:0:0:0:
415,115,150480,2,0,P|404:157|408:206,1,70,10|2,3:0|3:2,2:0:0:0:
490,83,150842,2,0,P|466:49|433:36,1,70,6|8,3:0|3:0,2:0:0:0:
357,50,151203,5,4,2:0:0:0:
