osu file format v14

[General]
AudioFilename: audio.mp3
AudioLeadIn: 0
PreviewTime: 99528
Countdown: 0
SampleSet: None
StackLeniency: 0.7
Mode: 3
LetterboxInBreaks: 0
SpecialStyle: 0
WidescreenStoryboard: 1

[Editor]
DistanceSpacing: 1.6
BeatDivisor: 4
GridSize: 8
TimelineZoom: 1.9

[Metadata]
Title:Gyutte
TitleUnicode:ぎゅって
Artist:MIMI
ArtistUnicode:MIMI
Creator:Kibitz
Version:Radiance
Source:
Tags:japanese pop jpop j-pop vocaloid feat. 初音ミク hatsune miku creative studio ai けけ ktwr_ MIMI 瀬戸わらび yk__rm はるお haluo_haluo Tightly Mirsaaa
BeatmapID:4556364
BeatmapSetID:2160681

[Difficulty]
HPDrainRate:8
CircleSize:4
OverallDifficulty:8
ApproachRate:5
SliderMultiplier:1.4
SliderTickRate:1

[Events]
//Background and Video events
0,0,"MIMI.png",0,0
Video,0,"gyutte.mp4"
//Break Periods
//Storyboard Layer 0 (Background)
//Storyboard Layer 1 (Fail)
//Storyboard Layer 2 (Pass)
//Storyboard Layer 3 (Foreground)
//Storyboard Layer 4 (Overlay)
//Storyboard Sound Samples

[TimingPoints]
480,326.086956521739,4,2,1,50,1,0
37001,-100,4,2,1,50,0,1
46784,-100,4,2,1,50,0,0
47436,-100,4,2,1,50,0,1
57871,-100,4,2,1,50,0,0
89175,-100,4,2,1,50,0,1
98958,-100,4,2,1,50,0,0
99610,-100,4,2,1,50,0,1
109393,-100,4,2,1,50,0,0
110045,-100,4,2,1,50,0,1
119827,-100,4,2,1,50,0,0

[HitObjects]
64,192,480,128,0,561:0:0:0:0:
448,192,480,1,0,0:0:0:0:
320,192,643,128,0,724:0:0:0:0:
192,192,806,128,0,887:0:0:0:0:
448,192,969,128,0,1050:0:0:0:0:
320,192,969,1,0,0:0:0:0:
320,192,1295,128,0,1376:0:0:0:0:
192,192,1458,128,0,1539:0:0:0:0:
64,192,1621,128,0,1702:0:0:0:0:
448,192,1621,1,0,0:0:0:0:
192,192,1947,128,0,2028:0:0:0:0:
320,192,2110,128,0,2191:0:0:0:0:
448,192,2273,128,0,2354:0:0:0:0:
64,192,2273,1,0,0:0:0:0:
320,192,2599,128,0,2681:0:0:0:0:
192,192,2762,128,0,2844:0:0:0:0:
64,192,2925,128,0,3007:0:0:0:0:
448,192,3088,128,0,3170:0:0:0:0:
320,192,3088,1,0,0:0:0:0:
192,192,3251,128,0,3333:0:0:0:0:
320,192,3414,128,0,3496:0:0:0:0:
64,192,3577,128,0,3659:0:0:0:0:
192,192,3577,1,0,0:0:0:0:
192,192,3903,128,0,3985:0:0:0:0:
320,192,4066,128,0,4148:0:0:0:0:
448,192,4229,128,0,4311:0:0:0:0:
64,192,4229,1,0,0:0:0:0:
64,192,4556,128,0,4637:0:0:0:0:
192,192,4719,128,0,4800:0:0:0:0:
448,192,4882,128,0,4963:0:0:0:0:
320,192,5045,128,0,5126:0:0:0:0:
192,192,5045,1,0,0:0:0:0:
64,192,5697,128,0,6023:0:0:0:0:
448,192,5697,1,0,0:0:0:0:
192,192,5860,128,0,6023:0:0:0:0:
448,192,6023,128,0,6349:0:0:0:0:
320,192,6186,1,0,0:0:0:0:
64,192,6349,128,0,6431:0:0:0:0:
192,192,6349,1,0,0:0:0:0:
64,192,6512,128,0,6675:0:0:0:0:
320,192,6675,128,0,6757:0:0:0:0:
320,192,6838,128,0,7001:0:0:0:0:
192,192,7001,128,0,7164:0:0:0:0:
448,192,7001,1,0,0:0:0:0:
320,192,7327,128,0,7490:0:0:0:0:
192,192,7490,128,0,7653:0:0:0:0:
64,192,7653,128,0,7979:0:0:0:0:
448,192,7653,1,0,0:0:0:0:
320,192,7816,1,0,0:0:0:0:
192,192,7898,128,0,7979:0:0:0:0:
448,192,7979,128,0,8143:0:0:0:0:
320,192,8143,128,0,8306:0:0:0:0:
64,192,8306,128,0,8632:0:0:0:0:
192,192,8306,1,0,0:0:0:0:
448,192,8469,128,0,8632:0:0:0:0:
320,192,8632,128,0,8958:0:0:0:0:
192,192,8795,128,0,8958:0:0:0:0:
64,192,8958,128,0,9284:0:0:0:0:
448,192,8958,1,0,0:0:0:0:
192,192,9121,128,0,9284:0:0:0:0:
320,192,9284,128,0,9447:0:0:0:0:
448,192,9447,128,0,9610:0:0:0:0:
64,192,9610,128,0,9936:0:0:0:0:
192,192,9610,1,0,0:0:0:0:
320,192,9936,128,0,10099:0:0:0:0:
192,192,10099,128,0,10262:0:0:0:0:
448,192,10262,1,0,0:0:0:0:
64,192,10262,128,0,10425:0:0:0:0:
320,192,10425,1,0,0:0:0:0:
192,192,10588,1,0,0:0:0:0:
64,192,10914,128,0,11077:0:0:0:0:
448,192,10914,1,0,0:0:0:0:
192,192,11077,128,0,11240:0:0:0:0:
320,192,11240,128,0,11403:0:0:0:0:
448,192,11403,128,0,11566:0:0:0:0:
64,192,11566,128,0,11893:0:0:0:0:
320,192,11566,1,0,0:0:0:0:
192,192,11729,128,0,11893:0:0:0:0:
448,192,11893,128,0,12056:0:0:0:0:
320,192,12056,128,0,12219:0:0:0:0:
192,192,12219,128,0,12545:0:0:0:0:
448,192,12219,1,0,0:0:0:0:
64,192,12382,1,0,0:0:0:0:
448,192,12463,128,0,12545:0:0:0:0:
320,192,12545,128,0,12708:0:0:0:0:
64,192,12708,128,0,12871:0:0:0:0:
448,192,12871,128,0,13034:0:0:0:0:
320,192,12871,1,0,0:0:0:0:
192,192,13034,1,0,0:0:0:0:
320,192,13197,128,0,13360:0:0:0:0:
192,192,13360,128,0,13523:0:0:0:0:
64,192,13523,128,0,13686:0:0:0:0:
448,192,13523,1,0,0:0:0:0:
320,192,13686,1,0,0:0:0:0:
192,192,13849,128,0,14012:0:0:0:0:
320,192,14012,128,0,14175:0:0:0:0:
64,192,14175,1,0,0:0:0:0:
448,192,14175,128,0,14501:0:0:0:0:
192,192,14338,128,0,14501:0:0:0:0:
320,192,14501,128,0,14664:0:0:0:0:
64,192,14664,128,0,14827:0:0:0:0:
448,192,14827,128,0,14909:0:0:0:0:
192,192,14827,1,0,0:0:0:0:
448,192,14990,128,0,15153:0:0:0:0:
64,192,15153,128,0,15235:0:0:0:0:
320,192,15153,1,0,0:0:0:0:
64,192,15316,128,0,15479:0:0:0:0:
320,192,15479,128,0,15643:0:0:0:0:
192,192,15643,1,0,0:0:0:0:
448,192,15806,128,0,16132:0:0:0:0:
64,192,15969,128,0,16132:0:0:0:0:
192,192,16132,1,0,0:0:0:0:
320,192,16132,128,0,16295:0:0:0:0:
448,192,16295,128,0,16458:0:0:0:0:
64,192,16458,128,0,16784:0:0:0:0:
192,192,16458,1,0,0:0:0:0:
320,192,16621,1,0,0:0:0:0:
192,192,16784,1,0,0:0:0:0:
448,192,16784,128,0,16865:0:0:0:0:
448,192,16947,128,0,17110:0:0:0:0:
64,192,17110,128,0,17191:0:0:0:0:
192,192,17110,1,0,0:0:0:0:
320,192,17110,1,0,0:0:0:0:
64,192,17273,128,0,17436:0:0:0:0:
448,192,17436,128,0,17599:0:0:0:0:
192,192,17436,1,0,0:0:0:0:
320,192,17599,1,0,0:0:0:0:
192,192,17762,128,0,18088:0:0:0:0:
64,192,17762,1,0,0:0:0:0:
320,192,17925,128,0,18088:0:0:0:0:
448,192,18088,1,0,0:0:0:0:
64,192,18088,128,0,18251:0:0:0:0:
320,192,18251,1,0,0:0:0:0:
192,192,18333,1,0,0:0:0:0:
64,192,18414,1,0,0:0:0:0:
448,192,18414,128,0,18496:0:0:0:0:
448,192,18577,128,0,18740:0:0:0:0:
192,192,18740,128,0,19066:0:0:0:0:
64,192,18740,1,0,0:0:0:0:
320,192,18903,128,0,19066:0:0:0:0:
448,192,19066,1,0,0:0:0:0:
64,192,19066,128,0,19148:0:0:0:0:
64,192,19229,128,0,19393:0:0:0:0:
448,192,19393,128,0,19474:0:0:0:0:
192,192,19393,1,0,0:0:0:0:
448,192,19556,128,0,19719:0:0:0:0:
320,192,19719,1,0,0:0:0:0:
192,192,19719,128,0,19800:0:0:0:0:
192,192,19882,128,0,20045:0:0:0:0:
64,192,20045,1,0,0:0:0:0:
320,192,20045,128,0,20126:0:0:0:0:
320,192,20208,128,0,20371:0:0:0:0:
448,192,20371,1,0,0:0:0:0:
64,192,20371,128,0,20452:0:0:0:0:
192,192,20371,1,0,0:0:0:0:
64,192,20534,128,0,20697:0:0:0:0:
448,192,20697,128,0,20860:0:0:0:0:
320,192,20697,1,0,0:0:0:0:
192,192,20860,1,0,0:0:0:0:
64,192,20860,1,0,0:0:0:0:
320,192,21023,128,0,21186:0:0:0:0:
448,192,21023,1,0,0:0:0:0:
192,192,21186,128,0,21349:0:0:0:0:
64,192,21349,128,0,21675:0:0:0:0:
320,192,21349,1,0,0:0:0:0:
448,192,21512,128,0,21675:0:0:0:0:
320,192,21675,1,0,0:0:0:0:
192,192,21675,128,0,21757:0:0:0:0:
192,192,21838,128,0,22001:0:0:0:0:
64,192,21838,1,0,0:0:0:0:
320,192,22001,128,0,22327:0:0:0:0:
448,192,22001,1,0,0:0:0:0:
64,192,22164,1,0,0:0:0:0:
448,192,22327,128,0,22490:0:0:0:0:
192,192,22327,1,0,0:0:0:0:
64,192,22490,128,0,22653:0:0:0:0:
320,192,22653,128,0,22979:0:0:0:0:
448,192,22653,1,0,0:0:0:0:
192,192,22816,1,0,0:0:0:0:
64,192,22979,128,0,23143:0:0:0:0:
448,192,22979,1,0,0:0:0:0:
448,192,23143,128,0,23306:0:0:0:0:
192,192,23306,128,0,23469:0:0:0:0:
64,192,23306,1,0,0:0:0:0:
320,192,23469,1,0,0:0:0:0:
448,192,23469,1,0,0:0:0:0:
448,192,23632,1,0,0:0:0:0:
64,192,23632,128,0,23795:0:0:0:0:
192,192,23795,128,0,23958:0:0:0:0:
320,192,23958,128,0,24121:0:0:0:0:
448,192,23958,1,0,0:0:0:0:
64,192,23958,1,0,0:0:0:0:
192,192,24284,128,0,24447:0:0:0:0:
448,192,24447,1,0,0:0:0:0:
64,192,24447,1,0,0:0:0:0:
320,192,24528,1,0,0:0:0:0:
64,192,24610,128,0,24773:0:0:0:0:
192,192,24610,1,0,0:0:0:0:
448,192,24773,128,0,24936:0:0:0:0:
320,192,24936,128,0,25099:0:0:0:0:
64,192,25099,128,0,25262:0:0:0:0:
448,192,25099,1,0,0:0:0:0:
192,192,25099,1,0,0:0:0:0:
192,192,25425,128,0,25588:0:0:0:0:
448,192,25425,1,0,0:0:0:0:
64,192,25425,1,0,0:0:0:0:
320,192,25751,128,0,25914:0:0:0:0:
192,192,25751,1,0,0:0:0:0:
448,192,25751,1,0,0:0:0:0:
448,192,25914,128,0,26240:0:0:0:0:
64,192,25914,1,0,0:0:0:0:
192,192,25914,1,0,0:0:0:0:
64,192,26240,1,0,0:0:0:0:
192,192,26240,1,0,0:0:0:0:
320,192,26240,1,0,0:0:0:0:
64,192,26566,128,0,26729:0:0:0:0:
448,192,26566,1,0,0:0:0:0:
192,192,26729,128,0,26893:0:0:0:0:
320,192,26893,128,0,27056:0:0:0:0:
64,192,26893,1,0,0:0:0:0:
448,192,27056,128,0,27219:0:0:0:0:
64,192,27219,128,0,27545:0:0:0:0:
192,192,27219,1,0,0:0:0:0:
320,192,27219,1,0,0:0:0:0:
448,192,27463,1,0,0:0:0:0:
192,192,27545,128,0,27708:0:0:0:0:
320,192,27545,1,0,0:0:0:0:
448,192,27708,128,0,27871:0:0:0:0:
64,192,27708,1,0,0:0:0:0:
320,192,27871,128,0,28197:0:0:0:0:
192,192,28197,128,0,28523:0:0:0:0:
448,192,28197,1,0,0:0:0:0:
320,192,28523,1,0,0:0:0:0:
448,192,28523,1,0,0:0:0:0:
64,192,28523,128,0,28849:0:0:0:0:
192,192,28686,1,0,0:0:0:0:
448,192,28686,1,0,0:0:0:0:
320,192,28849,128,0,29012:0:0:0:0:
192,192,28849,1,0,0:0:0:0:
448,192,29012,128,0,29175:0:0:0:0:
64,192,29175,128,0,29338:0:0:0:0:
320,192,29175,1,0,0:0:0:0:
192,192,29338,128,0,29501:0:0:0:0:
448,192,29501,128,0,29664:0:0:0:0:
320,192,29501,1,0,0:0:0:0:
64,192,29664,128,0,29827:0:0:0:0:
320,192,29827,128,0,29990:0:0:0:0:
448,192,29827,128,0,30153:0:0:0:0:
192,192,29827,1,0,0:0:0:0:
64,192,30153,128,0,30316:0:0:0:0:
192,192,30153,1,0,0:0:0:0:
320,192,30316,128,0,30479:0:0:0:0:
192,192,30479,128,0,30643:0:0:0:0:
448,192,30479,1,0,0:0:0:0:
64,192,30643,128,0,30806:0:0:0:0:
448,192,30806,128,0,30969:0:0:0:0:
320,192,30806,1,0,0:0:0:0:
192,192,30969,128,0,31132:0:0:0:0:
320,192,31132,128,0,31295:0:0:0:0:
448,192,31132,1,0,0:0:0:0:
64,192,31132,1,0,0:0:0:0:
192,192,31295,1,0,0:0:0:0:
64,192,31295,1,0,0:0:0:0:
320,192,31458,1,0,0:0:0:0:
448,192,31458,1,0,0:0:0:0:
64,192,31621,1,0,0:0:0:0:
192,192,31621,1,0,0:0:0:0:
320,192,31702,1,0,0:0:0:0:
64,192,31784,1,0,0:0:0:0:
448,192,31784,128,0,31947:0:0:0:0:
192,192,31947,128,0,32110:0:0:0:0:
448,192,32110,128,0,32273:0:0:0:0:
320,192,32110,1,0,0:0:0:0:
64,192,32110,1,0,0:0:0:0:
192,192,32273,128,0,32436:0:0:0:0:
448,192,32436,1,0,0:0:0:0:
320,192,32436,128,0,32762:0:0:0:0:
64,192,32599,128,0,32762:0:0:0:0:
448,192,32762,1,0,0:0:0:0:
192,192,32762,128,0,32925:0:0:0:0:
320,192,32925,128,0,33088:0:0:0:0:
64,192,33088,128,0,33251:0:0:0:0:
192,192,33088,1,0,0:0:0:0:
320,192,33251,128,0,33414:0:0:0:0:
64,192,33414,128,0,33740:0:0:0:0:
192,192,33414,1,0,0:0:0:0:
448,192,33414,1,0,0:0:0:0:
320,192,33577,128,0,33740:0:0:0:0:
192,192,33740,128,0,33903:0:0:0:0:
448,192,33740,1,0,0:0:0:0:
320,192,33903,1,0,0:0:0:0:
448,192,33903,1,0,0:0:0:0:
192,192,34066,1,0,0:0:0:0:
64,192,34066,128,0,34393:0:0:0:0:
448,192,34229,128,0,34393:0:0:0:0:
192,192,34393,1,0,0:0:0:0:
320,192,34393,128,0,34556:0:0:0:0:
64,192,34556,128,0,34719:0:0:0:0:
448,192,34719,128,0,34882:0:0:0:0:
320,192,34719,1,0,0:0:0:0:
192,192,34719,1,0,0:0:0:0:
192,192,34882,128,0,35045:0:0:0:0:
320,192,35045,1,0,0:0:0:0:
448,192,35045,128,0,35208:0:0:0:0:
64,192,35208,128,0,35371:0:0:0:0:
192,192,35371,5,0,0:0:0:0:
320,192,35371,128,0,35534:0:0:0:0:
448,192,35371,1,0,0:0:0:0:
64,192,35534,128,0,35697:0:0:0:0:
448,192,35697,1,0,0:0:0:0:
192,192,35697,128,0,35860:0:0:0:0:
320,192,35697,1,0,0:0:0:0:
64,192,35860,1,0,0:0:0:0:
320,192,35860,128,0,36023:0:0:0:0:
448,192,36023,128,0,36186:0:0:0:0:
192,192,36023,1,0,0:0:0:0:
64,192,36023,1,0,0:0:0:0:
320,192,36186,1,0,0:0:0:0:
192,192,36268,1,0,0:0:0:0:
448,192,36349,1,0,0:0:0:0:
64,192,36349,128,0,36512:0:0:0:0:
192,192,36512,1,0,0:0:0:0:
320,192,36512,1,0,0:0:0:0:
192,192,36675,1,0,0:0:0:0:
320,192,36675,1,0,0:0:0:0:
64,192,37001,128,0,37327:0:0:0:0:
192,192,37001,1,0,0:0:0:0:
320,192,37001,1,0,0:0:0:0:
448,192,37001,1,0,0:0:0:0:
448,192,37327,128,0,37490:0:0:0:0:
320,192,37327,1,0,0:0:0:0:
192,192,37327,1,0,0:0:0:0:
320,192,37490,1,0,0:0:0:0:
64,192,37490,128,0,37653:0:0:0:0:
192,192,37653,128,0,37816:0:0:0:0:
448,192,37653,1,0,0:0:0:0:
448,192,37816,128,0,38143:0:0:0:0:
320,192,37979,128,0,38143:0:0:0:0:
192,192,37979,1,0,0:0:0:0:
64,192,37979,1,0,0:0:0:0:
64,192,38143,128,0,38306:0:0:0:0:
448,192,38306,128,0,38469:0:0:0:0:
320,192,38306,1,0,0:0:0:0:
192,192,38469,1,0,0:0:0:0:
64,192,38632,1,0,0:0:0:0:
320,192,38632,128,0,38795:0:0:0:0:
448,192,38632,1,0,0:0:0:0:
64,192,38795,1,0,0:0:0:0:
192,192,38795,128,0,39121:0:0:0:0:
320,192,38958,1,0,0:0:0:0:
448,192,38958,1,0,0:0:0:0:
448,192,39121,128,0,39284:0:0:0:0:
64,192,39121,1,0,0:0:0:0:
192,192,39284,1,0,0:0:0:0:
64,192,39284,1,0,0:0:0:0:
320,192,39284,128,0,39447:0:0:0:0:
448,192,39447,128,0,39610:0:0:0:0:
64,192,39610,128,0,39936:0:0:0:0:
192,192,39610,1,0,0:0:0:0:
320,192,39773,1,0,0:0:0:0:
448,192,39936,128,0,40262:0:0:0:0:
192,192,39936,1,0,0:0:0:0:
320,192,39936,1,0,0:0:0:0:
64,192,40099,1,0,0:0:0:0:
192,192,40099,1,0,0:0:0:0:
320,192,40262,128,0,40425:0:0:0:0:
64,192,40262,1,0,0:0:0:0:
192,192,40425,128,0,40588:0:0:0:0:
448,192,40588,128,0,40751:0:0:0:0:
320,192,40588,1,0,0:0:0:0:
64,192,40588,1,0,0:0:0:0:
64,192,40751,128,0,40914:0:0:0:0:
192,192,40914,128,0,41077:0:0:0:0:
448,192,40914,1,0,0:0:0:0:
320,192,41077,128,0,41240:0:0:0:0:
448,192,41240,128,0,41403:0:0:0:0:
64,192,41240,1,0,0:0:0:0:
192,192,41240,1,0,0:0:0:0:
64,192,41403,128,0,41566:0:0:0:0:
320,192,41403,1,0,0:0:0:0:
192,192,41566,128,0,41729:0:0:0:0:
448,192,41566,1,0,0:0:0:0:
448,192,41729,128,0,41893:0:0:0:0:
64,192,41729,1,0,0:0:0:0:
320,192,41893,128,0,42056:0:0:0:0:
192,192,41893,1,0,0:0:0:0:
64,192,41893,1,0,0:0:0:0:
192,192,42056,128,0,42219:0:0:0:0:
64,192,42219,128,0,42382:0:0:0:0:
448,192,42219,1,0,0:0:0:0:
192,192,42545,1,0,0:0:0:0:
320,192,42545,1,0,0:0:0:0:
448,192,42545,128,0,42708:0:0:0:0:
64,192,42708,128,0,42871:0:0:0:0:
320,192,42708,1,0,0:0:0:0:
192,192,42871,128,0,43034:0:0:0:0:
448,192,42871,1,0,0:0:0:0:
320,192,43034,128,0,43197:0:0:0:0:
192,192,43197,1,0,0:0:0:0:
64,192,43197,128,0,43278:0:0:0:0:
448,192,43197,1,0,0:0:0:0:
64,192,43360,128,0,43523:0:0:0:0:
448,192,43523,128,0,43849:0:0:0:0:
320,192,43523,1,0,0:0:0:0:
64,192,43686,1,0,0:0:0:0:
192,192,43849,1,0,0:0:0:0:
64,192,43849,1,0,0:0:0:0:
320,192,43849,1,0,0:0:0:0:
192,192,44012,1,0,0:0:0:0:
320,192,44012,128,0,44338:0:0:0:0:
448,192,44175,128,0,44338:0:0:0:0:
64,192,44338,128,0,44501:0:0:0:0:
320,192,44501,1,0,0:0:0:0:
448,192,44501,1,0,0:0:0:0:
192,192,44501,128,0,44583:0:0:0:0:
192,192,44664,128,0,44827:0:0:0:0:
320,192,44827,128,0,44990:0:0:0:0:
64,192,44827,1,0,0:0:0:0:
448,192,44990,1,0,0:0:0:0:
320,192,45153,1,0,0:0:0:0:
64,192,45153,128,0,45316:0:0:0:0:
192,192,45153,1,0,0:0:0:0:
448,192,45316,128,0,45479:0:0:0:0:
192,192,45316,1,0,0:0:0:0:
320,192,45479,1,0,0:0:0:0:
448,192,45643,1,0,0:0:0:0:
192,192,45643,128,0,45806:0:0:0:0:
64,192,45806,1,0,0:0:0:0:
448,192,45806,1,0,0:0:0:0:
320,192,45806,128,0,45969:0:0:0:0:
192,192,45969,128,0,46132:0:0:0:0:
448,192,46132,128,0,46213:0:0:0:0:
320,192,46132,1,0,0:0:0:0:
448,192,46295,128,0,46458:0:0:0:0:
64,192,46458,128,0,46539:0:0:0:0:
320,192,46458,1,0,0:0:0:0:
192,192,46458,1,0,0:0:0:0:
64,192,46621,128,0,46784:0:0:0:0:
448,192,46621,1,0,0:0:0:0:
192,192,46784,128,0,46947:0:0:0:0:
320,192,46947,1,0,0:0:0:0:
448,192,46947,1,0,0:0:0:0:
64,192,47110,1,0,0:0:0:0:
192,192,47110,1,0,0:0:0:0:
320,192,47191,1,0,0:0:0:0:
448,192,47191,1,0,0:0:0:0:
192,192,47273,1,0,0:0:0:0:
64,192,47273,1,0,0:0:0:0:
320,192,47354,1,0,0:0:0:0:
64,192,47436,128,0,47518:0:0:0:0:
448,192,47436,128,0,47518:0:0:0:0:
192,192,47436,1,0,0:0:0:0:
64,192,47599,128,0,47681:0:0:0:0:
448,192,47599,128,0,47681:0:0:0:0:
320,192,47762,128,0,47844:0:0:0:0:
192,192,47762,128,0,47844:0:0:0:0:
448,192,47762,1,0,0:0:0:0:
192,192,47925,128,0,48007:0:0:0:0:
320,192,47925,128,0,48007:0:0:0:0:
448,192,48088,128,0,48170:0:0:0:0:
320,192,48088,128,0,48170:0:0:0:0:
320,192,48251,128,0,48333:0:0:0:0:
448,192,48251,128,0,48333:0:0:0:0:
192,192,48414,128,0,48496:0:0:0:0:
64,192,48414,128,0,48496:0:0:0:0:
448,192,48414,1,0,0:0:0:0:
192,192,48577,128,0,48659:0:0:0:0:
64,192,48577,128,0,48659:0:0:0:0:
448,192,48740,128,0,48822:0:0:0:0:
320,192,48740,128,0,48822:0:0:0:0:
320,192,48903,128,0,48985:0:0:0:0:
448,192,48903,128,0,48985:0:0:0:0:
192,192,49066,128,0,49148:0:0:0:0:
64,192,49066,128,0,49148:0:0:0:0:
448,192,49066,1,0,0:0:0:0:
320,192,49229,128,0,49311:0:0:0:0:
192,192,49229,128,0,49311:0:0:0:0:
320,192,49393,128,0,49474:0:0:0:0:
448,192,49393,128,0,49474:0:0:0:0:
448,192,49556,1,0,0:0:0:0:
320,192,49719,1,0,0:0:0:0:
192,192,49719,1,0,0:0:0:0:
64,192,49719,1,0,0:0:0:0:
448,192,49882,1,0,0:0:0:0:
64,192,50045,128,0,50208:0:0:0:0:
320,192,50045,1,0,0:0:0:0:
320,192,50208,1,0,0:0:0:0:
448,192,50371,128,0,50534:0:0:0:0:
64,192,50371,1,0,0:0:0:0:
192,192,50371,1,0,0:0:0:0:
64,192,50534,1,0,0:0:0:0:
320,192,50697,128,0,51023:0:0:0:0:
192,192,50697,1,0,0:0:0:0:
448,192,50860,1,0,0:0:0:0:
448,192,51023,1,0,0:0:0:0:
64,192,51023,1,0,0:0:0:0:
192,192,51023,128,0,51349:0:0:0:0:
320,192,51186,1,0,0:0:0:0:
448,192,51349,128,0,51512:0:0:0:0:
64,192,51349,1,0,0:0:0:0:
64,192,51512,128,0,51675:0:0:0:0:
320,192,51675,128,0,51838:0:0:0:0:
448,192,51675,1,0,0:0:0:0:
192,192,51675,1,0,0:0:0:0:
192,192,51838,128,0,52001:0:0:0:0:
64,192,52001,128,0,52164:0:0:0:0:
448,192,52164,1,0,0:0:0:0:
448,192,52327,1,0,0:0:0:0:
64,192,52327,1,0,0:0:0:0:
192,192,52327,1,0,0:0:0:0:
320,192,52490,1,0,0:0:0:0:
192,192,52490,1,0,0:0:0:0:
64,192,52653,128,0,52816:0:0:0:0:
448,192,52653,1,0,0:0:0:0:
192,192,52816,1,0,0:0:0:0:
448,192,52979,1,0,0:0:0:0:
320,192,52979,1,0,0:0:0:0:
64,192,52979,128,0,53143:0:0:0:0:
448,192,53143,128,0,53306:0:0:0:0:
64,192,53306,1,0,0:0:0:0:
320,192,53306,1,0,0:0:0:0:
448,192,53469,128,0,53632:0:0:0:0:
192,192,53632,1,0,0:0:0:0:
64,192,53632,128,0,53713:0:0:0:0:
320,192,53632,1,0,0:0:0:0:
64,192,53795,128,0,53958:0:0:0:0:
320,192,53958,128,0,54039:0:0:0:0:
448,192,53958,1,0,0:0:0:0:
320,192,54121,128,0,54284:0:0:0:0:
448,192,54284,1,0,0:0:0:0:
64,192,54284,1,0,0:0:0:0:
192,192,54284,128,0,54365:0:0:0:0:
192,192,54447,128,0,54610:0:0:0:0:
448,192,54610,128,0,54773:0:0:0:0:
64,192,54610,1,0,0:0:0:0:
320,192,54773,1,0,0:0:0:0:
192,192,54936,128,0,55099:0:0:0:0:
448,192,54936,1,0,0:0:0:0:
64,192,54936,1,0,0:0:0:0:
320,192,55099,128,0,55262:0:0:0:0:
448,192,55262,128,0,55425:0:0:0:0:
192,192,55262,1,0,0:0:0:0:
64,192,55262,1,0,0:0:0:0:
192,192,55588,128,0,55751:0:0:0:0:
64,192,55751,1,0,0:0:0:0:
448,192,55751,1,0,0:0:0:0:
320,192,55833,1,0,0:0:0:0:
192,192,55914,1,0,0:0:0:0:
64,192,55914,128,0,56077:0:0:0:0:
320,192,56077,128,0,56240:0:0:0:0:
448,192,56240,128,0,56403:0:0:0:0:
192,192,56403,128,0,56566:0:0:0:0:
64,192,56403,1,0,0:0:0:0:
320,192,56403,1,0,0:0:0:0:
320,192,56729,128,0,56893:0:0:0:0:
64,192,56729,1,0,0:0:0:0:
448,192,56729,1,0,0:0:0:0:
192,192,56893,128,0,57056:0:0:0:0:
64,192,57056,128,0,57219:0:0:0:0:
320,192,57056,1,0,0:0:0:0:
448,192,57056,1,0,0:0:0:0:
192,192,57219,1,0,0:0:0:0:
320,192,57219,1,0,0:0:0:0:
448,192,57219,128,0,57382:0:0:0:0:
192,192,57545,128,0,57871:0:0:0:0:
320,192,57545,1,0,0:0:0:0:
320,192,57871,1,0,0:0:0:0:
64,192,57871,128,0,58197:0:0:0:0:
448,192,57871,128,0,58034:0:0:0:0:
320,192,58197,128,0,58360:0:0:0:0:
448,192,58197,1,0,0:0:0:0:
192,192,58197,1,0,0:0:0:0:
192,192,58360,128,0,58523:0:0:0:0:
64,192,58360,1,0,0:0:0:0:
320,192,58523,1,0,0:0:0:0:
448,192,58523,1,0,0:0:0:0:
64,192,58686,128,0,58849:0:0:0:0:
192,192,58686,1,0,0:0:0:0:
448,192,58849,1,0,0:0:0:0:
192,192,58849,1,0,0:0:0:0:
320,192,58849,1,0,0:0:0:0:
448,192,59012,128,0,59175:0:0:0:0:
192,192,59175,128,0,59338:0:0:0:0:
64,192,59175,1,0,0:0:0:0:
320,192,59338,128,0,59501:0:0:0:0:
448,192,59501,128,0,59664:0:0:0:0:
192,192,59501,1,0,0:0:0:0:
64,192,59501,1,0,0:0:0:0:
64,192,59664,128,0,59827:0:0:0:0:
192,192,59664,1,0,0:0:0:0:
448,192,59827,1,0,0:0:0:0:
320,192,59827,1,0,0:0:0:0:
320,192,59990,128,0,60153:0:0:0:0:
192,192,59990,1,0,0:0:0:0:
192,192,60153,128,0,60316:0:0:0:0:
448,192,60153,1,0,0:0:0:0:
64,192,60153,1,0,0:0:0:0:
64,192,60316,128,0,60479:0:0:0:0:
448,192,60479,128,0,60643:0:0:0:0:
320,192,60479,1,0,0:0:0:0:
192,192,60643,1,0,0:0:0:0:
320,192,60806,1,0,0:0:0:0:
448,192,60806,1,0,0:0:0:0:
64,192,60806,128,0,60969:0:0:0:0:
192,192,60969,128,0,61132:0:0:0:0:
320,192,60969,1,0,0:0:0:0:
448,192,61132,128,0,61295:0:0:0:0:
64,192,61132,1,0,0:0:0:0:
320,192,61295,128,0,61458:0:0:0:0:
448,192,61458,1,0,0:0:0:0:
192,192,61458,128,0,61621:0:0:0:0:
64,192,61458,1,0,0:0:0:0:
64,192,61621,128,0,61784:0:0:0:0:
448,192,61784,128,0,61947:0:0:0:0:
192,192,61784,1,0,0:0:0:0:
320,192,61947,128,0,62110:0:0:0:0:
64,192,62110,128,0,62273:0:0:0:0:
448,192,62110,1,0,0:0:0:0:
192,192,62110,1,0,0:0:0:0:
192,192,62273,128,0,62436:0:0:0:0:
448,192,62273,1,0,0:0:0:0:
320,192,62436,128,0,62599:0:0:0:0:
448,192,62599,1,0,0:0:0:0:
64,192,62599,1,0,0:0:0:0:
448,192,62762,128,0,62925:0:0:0:0:
192,192,62762,1,0,0:0:0:0:
64,192,62762,1,0,0:0:0:0:
320,192,62925,1,0,0:0:0:0:
192,192,62925,1,0,0:0:0:0:
320,192,63088,128,0,63251:0:0:0:0:
448,192,63088,1,0,0:0:0:0:
64,192,63414,128,0,63577:0:0:0:0:
192,192,63414,1,0,0:0:0:0:
448,192,63414,1,0,0:0:0:0:
320,192,63577,1,0,0:0:0:0:
448,192,63577,128,0,63740:0:0:0:0:
192,192,63740,1,0,0:0:0:0:
64,192,63740,1,0,0:0:0:0:
320,192,63903,128,0,64066:0:0:0:0:
448,192,64066,1,0,0:0:0:0:
192,192,64066,1,0,0:0:0:0:
64,192,64066,1,0,0:0:0:0:
192,192,64229,128,0,64393:0:0:0:0:
320,192,64393,128,0,64556:0:0:0:0:
448,192,64393,1,0,0:0:0:0:
64,192,64556,128,0,64719:0:0:0:0:
448,192,64719,128,0,64882:0:0:0:0:
192,192,64719,1,0,0:0:0:0:
320,192,64719,1,0,0:0:0:0:
192,192,64882,128,0,65045:0:0:0:0:
64,192,64882,1,0,0:0:0:0:
320,192,65045,1,0,0:0:0:0:
448,192,65208,128,0,65371:0:0:0:0:
320,192,65371,128,0,65534:0:0:0:0:
64,192,65371,1,0,0:0:0:0:
192,192,65371,1,0,0:0:0:0:
192,192,65534,128,0,65697:0:0:0:0:
64,192,65697,128,0,65860:0:0:0:0:
448,192,65697,1,0,0:0:0:0:
192,192,66023,128,0,66186:0:0:0:0:
448,192,66023,1,0,0:0:0:0:
64,192,66023,1,0,0:0:0:0:
320,192,66186,128,0,66349:0:0:0:0:
448,192,66186,1,0,0:0:0:0:
192,192,66349,1,0,0:0:0:0:
64,192,66349,1,0,0:0:0:0:
448,192,66512,128,0,66675:0:0:0:0:
320,192,66512,1,0,0:0:0:0:
64,192,66675,128,0,66838:0:0:0:0:
320,192,66675,1,0,0:0:0:0:
192,192,66675,1,0,0:0:0:0:
192,192,66838,128,0,67001:0:0:0:0:
448,192,67001,128,0,67164:0:0:0:0:
64,192,67001,1,0,0:0:0:0:
320,192,67164,128,0,67327:0:0:0:0:
64,192,67327,128,0,67490:0:0:0:0:
448,192,67327,1,0,0:0:0:0:
192,192,67327,1,0,0:0:0:0:
192,192,67490,128,0,67653:0:0:0:0:
320,192,67490,1,0,0:0:0:0:
320,192,67653,128,0,67816:0:0:0:0:
448,192,67816,1,0,0:0:0:0:
64,192,67816,1,0,0:0:0:0:
320,192,67979,1,0,0:0:0:0:
448,192,67979,1,0,0:0:0:0:
192,192,67979,1,0,0:0:0:0:
64,192,68306,128,0,68469:0:0:0:0:
448,192,68306,1,0,0:0:0:0:
192,192,68469,128,0,68632:0:0:0:0:
448,192,68632,128,0,68958:0:0:0:0:
320,192,68632,1,0,0:0:0:0:
64,192,68795,128,0,68958:0:0:0:0:
320,192,68958,128,0,69284:0:0:0:0:
192,192,68958,1,0,0:0:0:0:
448,192,69121,1,0,0:0:0:0:
192,192,69284,128,0,69447:0:0:0:0:
64,192,69284,1,0,0:0:0:0:
320,192,69447,128,0,69610:0:0:0:0:
64,192,69610,1,0,0:0:0:0:
448,192,69610,128,0,69691:0:0:0:0:
448,192,69773,128,0,69936:0:0:0:0:
192,192,69936,128,0,70018:0:0:0:0:
320,192,69936,1,0,0:0:0:0:
192,192,70099,128,0,70262:0:0:0:0:
64,192,70262,1,0,0:0:0:0:
448,192,70262,128,0,70425:0:0:0:0:
192,192,70425,1,0,0:0:0:0:
320,192,70507,1,0,0:0:0:0:
448,192,70588,1,0,0:0:0:0:
64,192,70588,128,0,70670:0:0:0:0:
64,192,70751,128,0,70914:0:0:0:0:
448,192,70914,1,0,0:0:0:0:
320,192,70914,128,0,70996:0:0:0:0:
320,192,71077,128,0,71240:0:0:0:0:
64,192,71240,1,0,0:0:0:0:
192,192,71240,128,0,71322:0:0:0:0:
192,192,71403,128,0,71566:0:0:0:0:
320,192,71566,1,0,0:0:0:0:
448,192,71566,128,0,71648:0:0:0:0:
448,192,71729,128,0,71893:0:0:0:0:
192,192,71893,1,0,0:0:0:0:
64,192,71893,128,0,71974:0:0:0:0:
64,192,72056,128,0,72219:0:0:0:0:
320,192,72219,1,0,0:0:0:0:
448,192,72219,128,0,72382:0:0:0:0:
64,192,72382,1,0,0:0:0:0:
192,192,72463,1,0,0:0:0:0:
320,192,72545,128,0,72708:0:0:0:0:
448,192,72545,1,0,0:0:0:0:
192,192,72708,128,0,72871:0:0:0:0:
64,192,72871,128,0,73034:0:0:0:0:
448,192,72871,1,0,0:0:0:0:
448,192,73034,1,0,0:0:0:0:
320,192,73034,1,0,0:0:0:0:
64,192,73197,1,0,0:0:0:0:
192,192,73197,1,0,0:0:0:0:
64,192,73523,128,0,73604:0:0:0:0:
448,192,73523,1,0,0:0:0:0:
64,192,73686,128,0,73849:0:0:0:0:
192,192,73849,1,0,0:0:0:0:
320,192,73849,128,0,73931:0:0:0:0:
320,192,74012,128,0,74175:0:0:0:0:
448,192,74012,1,0,0:0:0:0:
192,192,74175,128,0,74501:0:0:0:0:
64,192,74175,1,0,0:0:0:0:
448,192,74338,1,0,0:0:0:0:
64,192,74501,128,0,74664:0:0:0:0:
320,192,74501,1,0,0:0:0:0:
448,192,74664,128,0,74827:0:0:0:0:
192,192,74827,128,0,75153:0:0:0:0:
64,192,74827,1,0,0:0:0:0:
320,192,74990,1,0,0:0:0:0:
64,192,75153,1,0,0:0:0:0:
448,192,75153,128,0,75479:0:0:0:0:
64,192,75316,128,0,75479:0:0:0:0:
320,192,75479,128,0,75643:0:0:0:0:
192,192,75479,1,0,0:0:0:0:
64,192,75643,1,0,0:0:0:0:
448,192,75643,1,0,0:0:0:0:
448,192,75806,128,0,75969:0:0:0:0:
192,192,75806,1,0,0:0:0:0:
320,192,75969,128,0,76132:0:0:0:0:
192,192,76132,128,0,76295:0:0:0:0:
64,192,76132,1,0,0:0:0:0:
448,192,76132,1,0,0:0:0:0:
320,192,76295,128,0,76458:0:0:0:0:
448,192,76458,128,0,76702:0:0:0:0:
64,192,76621,1,0,0:0:0:0:
192,192,76621,1,0,0:0:0:0:
320,192,76702,1,0,0:0:0:0:
64,192,76784,128,0,76947:0:0:0:0:
448,192,76784,1,0,0:0:0:0:
64,192,77110,1,0,0:0:0:0:
192,192,77110,128,0,77273:0:0:0:0:
448,192,77273,128,0,77436:0:0:0:0:
64,192,77273,1,0,0:0:0:0:
320,192,77273,1,0,0:0:0:0:
192,192,77436,128,0,77599:0:0:0:0:
320,192,77599,128,0,77762:0:0:0:0:
64,192,77599,1,0,0:0:0:0:
448,192,77599,1,0,0:0:0:0:
448,192,77762,128,0,77925:0:0:0:0:
192,192,77925,128,0,78088:0:0:0:0:
320,192,77925,1,0,0:0:0:0:
64,192,77925,1,0,0:0:0:0:
448,192,78088,1,0,0:0:0:0:
320,192,78088,1,0,0:0:0:0:
64,192,78088,128,0,78251:0:0:0:0:
448,192,78414,128,0,78740:0:0:0:0:
64,192,78740,128,0,80697:0:0:0:0:
320,192,78740,1,0,0:0:0:0:
192,192,78740,128,0,78903:0:0:0:0:
448,192,78903,1,0,0:0:0:0:
448,192,79066,1,0,0:0:0:0:
192,192,79066,1,0,0:0:0:0:
320,192,79066,128,0,79229:0:0:0:0:
192,192,79229,128,0,79393:0:0:0:0:
320,192,79393,1,0,0:0:0:0:
448,192,79393,1,0,0:0:0:0:
192,192,79556,128,0,79637:0:0:0:0:
320,192,79719,1,0,0:0:0:0:
192,192,79719,1,0,0:0:0:0:
448,192,79719,1,0,0:0:0:0:
192,192,79882,128,0,80045:0:0:0:0:
320,192,80045,1,0,0:0:0:0:
448,192,80045,1,0,0:0:0:0:
320,192,80208,128,0,80289:0:0:0:0:
192,192,80371,128,0,80534:0:0:0:0:
320,192,80371,1,0,0:0:0:0:
448,192,80371,1,0,0:0:0:0:
320,192,80534,128,0,80697:0:0:0:0:
192,192,80697,1,0,0:0:0:0:
448,192,80697,1,0,0:0:0:0:
320,192,80860,1,0,0:0:0:0:
192,192,80860,1,0,0:0:0:0:
64,192,81023,1,0,0:0:0:0:
320,192,81023,1,0,0:0:0:0:
448,192,81023,1,0,0:0:0:0:
192,192,81186,1,0,0:0:0:0:
448,192,81349,128,0,81512:0:0:0:0:
320,192,81349,1,0,0:0:0:0:
64,192,81512,1,0,0:0:0:0:
192,192,81675,1,0,0:0:0:0:
448,192,81675,1,0,0:0:0:0:
320,192,81675,128,0,81838:0:0:0:0:
448,192,81838,128,0,82001:0:0:0:0:
64,192,81838,1,0,0:0:0:0:
320,192,82001,1,0,0:0:0:0:
192,192,82001,1,0,0:0:0:0:
448,192,82164,128,0,82327:0:0:0:0:
320,192,82327,1,0,0:0:0:0:
192,192,82327,1,0,0:0:0:0:
64,192,82327,1,0,0:0:0:0:
448,192,82490,128,0,82653:0:0:0:0:
320,192,82653,1,0,0:0:0:0:
192,192,82653,1,0,0:0:0:0:
320,192,82816,128,0,82979:0:0:0:0:
448,192,82979,128,0,83143:0:0:0:0:
192,192,82979,1,0,0:0:0:0:
64,192,82979,1,0,0:0:0:0:
320,192,83143,128,0,83306:0:0:0:0:
64,192,83143,1,0,0:0:0:0:
192,192,83306,1,0,0:0:0:0:
64,192,83469,128,0,83632:0:0:0:0:
448,192,83469,1,0,0:0:0:0:
192,192,83632,128,0,83795:0:0:0:0:
320,192,83632,1,0,0:0:0:0:
448,192,83632,1,0,0:0:0:0:
320,192,83795,128,0,83958:0:0:0:0:
64,192,83795,1,0,0:0:0:0:
448,192,83958,128,0,84121:0:0:0:0:
192,192,83958,1,0,0:0:0:0:
320,192,84121,1,0,0:0:0:0:
64,192,84284,128,0,84447:0:0:0:0:
192,192,84284,1,0,0:0:0:0:
448,192,84284,1,0,0:0:0:0:
320,192,84447,128,0,84610:0:0:0:0:
448,192,84447,1,0,0:0:0:0:
192,192,84610,1,0,0:0:0:0:
64,192,84610,1,0,0:0:0:0:
448,192,84773,128,0,84936:0:0:0:0:
320,192,84936,1,0,0:0:0:0:
192,192,84936,1,0,0:0:0:0:
64,192,84936,1,0,0:0:0:0:
192,192,85099,128,0,85262:0:0:0:0:
320,192,85262,128,0,85425:0:0:0:0:
448,192,85262,1,0,0:0:0:0:
192,192,85425,1,0,0:0:0:0:
320,192,85507,1,0,0:0:0:0:
448,192,85588,1,0,0:0:0:0:
64,192,85588,128,0,85751:0:0:0:0:
192,192,85588,1,0,0:0:0:0:
448,192,85751,128,0,85914:0:0:0:0:
320,192,85751,1,0,0:0:0:0:
64,192,85914,1,0,0:0:0:0:
192,192,86077,128,0,86240:0:0:0:0:
320,192,86077,1,0,0:0:0:0:
448,192,86240,128,0,86403:0:0:0:0:
320,192,86240,1,0,0:0:0:0:
64,192,86240,1,0,0:0:0:0:
64,192,86403,128,0,86566:0:0:0:0:
448,192,86566,1,0,0:0:0:0:
192,192,86566,1,0,0:0:0:0:
320,192,86729,128,0,86893:0:0:0:0:
64,192,86893,128,0,87056:0:0:0:0:
192,192,86893,1,0,0:0:0:0:
448,192,86893,1,0,0:0:0:0:
448,192,87056,128,0,87219:0:0:0:0:
192,192,87056,1,0,0:0:0:0:
64,192,87219,1,0,0:0:0:0:
320,192,87219,1,0,0:0:0:0:
320,192,87382,128,0,87545:0:0:0:0:
448,192,87382,1,0,0:0:0:0:
192,192,87545,128,0,87708:0:0:0:0:
64,192,87545,1,0,0:0:0:0:
448,192,87545,1,0,0:0:0:0:
64,192,87708,128,0,87871:0:0:0:0:
320,192,87871,1,0,0:0:0:0:
448,192,87871,1,0,0:0:0:0:
192,192,88034,1,0,0:0:0:0:
320,192,88115,1,0,0:0:0:0:
448,192,88197,128,0,88360:0:0:0:0:
64,192,88197,1,0,0:0:0:0:
192,192,88197,1,0,0:0:0:0:
320,192,88360,128,0,88523:0:0:0:0:
64,192,88360,1,0,0:0:0:0:
192,192,88523,128,0,88686:0:0:0:0:
448,192,88523,1,0,0:0:0:0:
64,192,88686,128,0,88849:0:0:0:0:
320,192,88849,128,0,89012:0:0:0:0:
448,192,88849,1,0,0:0:0:0:
192,192,88849,1,0,0:0:0:0:
192,192,89012,128,0,89175:0:0:0:0:
448,192,89175,128,0,89501:0:0:0:0:
320,192,89175,1,0,0:0:0:0:
64,192,89175,1,0,0:0:0:0:
64,192,89501,128,0,89664:0:0:0:0:
192,192,89501,1,0,0:0:0:0:
320,192,89501,1,0,0:0:0:0:
192,192,89664,1,0,0:0:0:0:
448,192,89664,128,0,89827:0:0:0:0:
320,192,89827,128,0,89990:0:0:0:0:
64,192,89827,1,0,0:0:0:0:
64,192,89990,128,0,90316:0:0:0:0:
192,192,90153,128,0,90316:0:0:0:0:
320,192,90153,1,0,0:0:0:0:
448,192,90153,1,0,0:0:0:0:
448,192,90316,128,0,90479:0:0:0:0:
64,192,90479,128,0,90643:0:0:0:0:
192,192,90479,1,0,0:0:0:0:
320,192,90643,1,0,0:0:0:0:
448,192,90806,1,0,0:0:0:0:
192,192,90806,128,0,90969:0:0:0:0:
64,192,90806,1,0,0:0:0:0:
448,192,90969,1,0,0:0:0:0:
320,192,90969,128,0,91295:0:0:0:0:
192,192,91132,1,0,0:0:0:0:
64,192,91132,1,0,0:0:0:0:
64,192,91295,128,0,91458:0:0:0:0:
448,192,91295,1,0,0:0:0:0:
320,192,91458,1,0,0:0:0:0:
448,192,91458,1,0,0:0:0:0:
192,192,91458,128,0,91621:0:0:0:0:
64,192,91621,128,0,91784:0:0:0:0:
448,192,91784,128,0,92110:0:0:0:0:
320,192,91784,1,0,0:0:0:0:
192,192,91947,1,0,0:0:0:0:
64,192,92110,128,0,92436:0:0:0:0:
320,192,92110,1,0,0:0:0:0:
192,192,92110,1,0,0:0:0:0:
448,192,92273,1,0,0:0:0:0:
320,192,92273,1,0,0:0:0:0:
192,192,92436,128,0,92599:0:0:0:0:
448,192,92436,1,0,0:0:0:0:
320,192,92599,128,0,92762:0:0:0:0:
64,192,92762,128,0,92925:0:0:0:0:
192,192,92762,1,0,0:0:0:0:
448,192,92762,1,0,0:0:0:0:
448,192,92925,128,0,93088:0:0:0:0:
320,192,93088,128,0,93251:0:0:0:0:
64,192,93088,1,0,0:0:0:0:
192,192,93251,128,0,93414:0:0:0:0:
64,192,93414,128,0,93577:0:0:0:0:
448,192,93414,1,0,0:0:0:0:
320,192,93414,1,0,0:0:0:0:
448,192,93577,128,0,93740:0:0:0:0:
192,192,93577,1,0,0:0:0:0:
320,192,93740,128,0,93903:0:0:0:0:
64,192,93740,1,0,0:0:0:0:
64,192,93903,128,0,94066:0:0:0:0:
448,192,93903,1,0,0:0:0:0:
192,192,94066,128,0,94229:0:0:0:0:
320,192,94066,1,0,0:0:0:0:
448,192,94066,1,0,0:0:0:0:
320,192,94229,128,0,94393:0:0:0:0:
448,192,94393,128,0,94556:0:0:0:0:
64,192,94393,1,0,0:0:0:0:
320,192,94719,1,0,0:0:0:0:
192,192,94719,1,0,0:0:0:0:
64,192,94719,128,0,94882:0:0:0:0:
448,192,94882,128,0,95045:0:0:0:0:
192,192,94882,1,0,0:0:0:0:
320,192,95045,128,0,95208:0:0:0:0:
64,192,95045,1,0,0:0:0:0:
192,192,95208,128,0,95371:0:0:0:0:
320,192,95371,1,0,0:0:0:0:
448,192,95371,128,0,95452:0:0:0:0:
64,192,95371,1,0,0:0:0:0:
448,192,95534,128,0,95697:0:0:0:0:
64,192,95697,128,0,96023:0:0:0:0:
192,192,95697,1,0,0:0:0:0:
448,192,95860,1,0,0:0:0:0:
320,192,96023,1,0,0:0:0:0:
448,192,96023,1,0,0:0:0:0:
192,192,96023,1,0,0:0:0:0:
320,192,96186,1,0,0:0:0:0:
192,192,96186,128,0,96512:0:0:0:0:
64,192,96349,128,0,96512:0:0:0:0:
448,192,96512,128,0,96675:0:0:0:0:
192,192,96675,1,0,0:0:0:0:
64,192,96675,1,0,0:0:0:0:
320,192,96675,128,0,96757:0:0:0:0:
320,192,96838,128,0,97001:0:0:0:0:
192,192,97001,128,0,97164:0:0:0:0:
448,192,97001,1,0,0:0:0:0:
64,192,97164,1,0,0:0:0:0:
192,192,97327,1,0,0:0:0:0:
448,192,97327,128,0,97490:0:0:0:0:
320,192,97327,1,0,0:0:0:0:
64,192,97490,128,0,97653:0:0:0:0:
320,192,97490,1,0,0:0:0:0:
192,192,97653,1,0,0:0:0:0:
64,192,97816,1,0,0:0:0:0:
320,192,97816,128,0,97979:0:0:0:0:
448,192,97979,1,0,0:0:0:0:
64,192,97979,1,0,0:0:0:0:
192,192,97979,128,0,98143:0:0:0:0:
320,192,98143,128,0,98306:0:0:0:0:
64,192,98306,128,0,98387:0:0:0:0:
192,192,98306,1,0,0:0:0:0:
64,192,98469,128,0,98632:0:0:0:0:
448,192,98632,128,0,98713:0:0:0:0:
192,192,98632,1,0,0:0:0:0:
320,192,98632,1,0,0:0:0:0:
448,192,98795,128,0,98958:0:0:0:0:
64,192,98795,1,0,0:0:0:0:
320,192,98958,128,0,99121:0:0:0:0:
192,192,99121,1,0,0:0:0:0:
64,192,99121,1,0,0:0:0:0:
448,192,99284,128,0,99528:0:0:0:0:
320,192,99284,128,0,99528:0:0:0:0:
64,192,99284,1,0,0:0:0:0:
320,192,99610,1,0,0:0:0:0:
448,192,99610,1,0,0:0:0:0:
64,192,99610,128,0,99936:0:0:0:0:
192,192,99610,1,0,0:0:0:0:
192,192,99936,1,0,0:0:0:0:
320,192,99936,1,0,0:0:0:0:
448,192,99936,128,0,100099:0:0:0:0:
64,192,100099,128,0,100262:0:0:0:0:
320,192,100099,1,0,0:0:0:0:
448,192,100262,1,0,0:0:0:0:
192,192,100262,128,0,100425:0:0:0:0:
448,192,100425,128,0,100751:0:0:0:0:
64,192,100588,1,0,0:0:0:0:
192,192,100588,1,0,0:0:0:0:
320,192,100588,128,0,100751:0:0:0:0:
64,192,100751,128,0,100914:0:0:0:0:
320,192,100914,1,0,0:0:0:0:
448,192,100914,128,0,101077:0:0:0:0:
192,192,101077,1,0,0:0:0:0:
448,192,101240,1,0,0:0:0:0:
320,192,101240,128,0,101403:0:0:0:0:
64,192,101240,1,0,0:0:0:0:
192,192,101403,128,0,101729:0:0:0:0:
64,192,101403,1,0,0:0:0:0:
448,192,101566,1,0,0:0:0:0:
320,192,101566,1,0,0:0:0:0:
64,192,101729,1,0,0:0:0:0:
448,192,101729,128,0,101893:0:0:0:0:
320,192,101893,128,0,102056:0:0:0:0:
64,192,101893,1,0,0:0:0:0:
192,192,101893,1,0,0:0:0:0:
448,192,102056,128,0,102219:0:0:0:0:
192,192,102219,1,0,0:0:0:0:
64,192,102219,128,0,102545:0:0:0:0:
320,192,102382,1,0,0:0:0:0:
320,192,102545,1,0,0:0:0:0:
192,192,102545,1,0,0:0:0:0:
448,192,102545,128,0,102871:0:0:0:0:
192,192,102708,1,0,0:0:0:0:
64,192,102708,1,0,0:0:0:0:
64,192,102871,1,0,0:0:0:0:
320,192,102871,128,0,103034:0:0:0:0:
192,192,103034,128,0,103197:0:0:0:0:
64,192,103197,1,0,0:0:0:0:
320,192,103197,1,0,0:0:0:0:
448,192,103197,128,0,103360:0:0:0:0:
64,192,103360,128,0,103523:0:0:0:0:
448,192,103523,1,0,0:0:0:0:
192,192,103523,128,0,103686:0:0:0:0:
320,192,103686,128,0,103849:0:0:0:0:
192,192,103849,1,0,0:0:0:0:
64,192,103849,1,0,0:0:0:0:
448,192,103849,128,0,104012:0:0:0:0:
320,192,104012,1,0,0:0:0:0:
64,192,104012,128,0,104175:0:0:0:0:
448,192,104175,1,0,0:0:0:0:
192,192,104175,128,0,104338:0:0:0:0:
64,192,104338,1,0,0:0:0:0:
448,192,104338,128,0,104501:0:0:0:0:
64,192,104501,1,0,0:0:0:0:
192,192,104501,1,0,0:0:0:0:
320,192,104501,128,0,104664:0:0:0:0:
192,192,104664,128,0,104827:0:0:0:0:
448,192,104827,1,0,0:0:0:0:
64,192,104827,128,0,104990:0:0:0:0:
448,192,105153,128,0,105316:0:0:0:0:
320,192,105153,1,0,0:0:0:0:
192,192,105153,1,0,0:0:0:0:
320,192,105316,1,0,0:0:0:0:
64,192,105316,128,0,105479:0:0:0:0:
448,192,105479,1,0,0:0:0:0:
192,192,105479,128,0,105643:0:0:0:0:
320,192,105643,128,0,105806:0:0:0:0:
448,192,105806,1,0,0:0:0:0:
64,192,105806,128,0,105887:0:0:0:0:
192,192,105806,1,0,0:0:0:0:
64,192,105969,128,0,106132:0:0:0:0:
320,192,106132,1,0,0:0:0:0:
448,192,106132,128,0,106458:0:0:0:0:
64,192,106295,1,0,0:0:0:0:
320,192,106458,1,0,0:0:0:0:
64,192,106458,1,0,0:0:0:0:
192,192,106458,1,0,0:0:0:0:
320,192,106621,128,0,106947:0:0:0:0:
192,192,106621,1,0,0:0:0:0:
448,192,106784,128,0,106947:0:0:0:0:
64,192,106947,128,0,107110:0:0:0:0:
192,192,107110,128,0,107191:0:0:0:0:
448,192,107110,1,0,0:0:0:0:
320,192,107110,1,0,0:0:0:0:
192,192,107273,128,0,107436:0:0:0:0:
64,192,107436,1,0,0:0:0:0:
320,192,107436,128,0,107599:0:0:0:0:
448,192,107599,1,0,0:0:0:0:
192,192,107762,1,0,0:0:0:0:
64,192,107762,128,0,107925:0:0:0:0:
320,192,107762,1,0,0:0:0:0:
192,192,107925,1,0,0:0:0:0:
448,192,107925,128,0,108088:0:0:0:0:
320,192,108088,1,0,0:0:0:0:
64,192,108088,1,0,0:0:0:0:
192,192,108251,128,0,108414:0:0:0:0:
448,192,108251,1,0,0:0:0:0:
320,192,108414,128,0,108577:0:0:0:0:
448,192,108414,1,0,0:0:0:0:
64,192,108414,1,0,0:0:0:0:
192,192,108577,128,0,108740:0:0:0:0:
320,192,108740,1,0,0:0:0:0:
448,192,108740,128,0,108822:0:0:0:0:
448,192,108903,128,0,109066:0:0:0:0:
192,192,109066,1,0,0:0:0:0:
320,192,109066,1,0,0:0:0:0:
64,192,109066,128,0,109148:0:0:0:0:
448,192,109229,1,0,0:0:0:0:
64,192,109229,128,0,109393:0:0:0:0:
192,192,109393,128,0,109556:0:0:0:0:
448,192,109556,1,0,0:0:0:0:
320,192,109556,1,0,0:0:0:0:
64,192,109719,1,0,0:0:0:0:
192,192,109719,1,0,0:0:0:0:
320,192,109800,1,0,0:0:0:0:
448,192,109800,1,0,0:0:0:0:
192,192,109882,1,0,0:0:0:0:
64,192,109882,1,0,0:0:0:0:
320,192,109963,1,0,0:0:0:0:
64,192,110045,128,0,110126:0:0:0:0:
448,192,110045,128,0,110126:0:0:0:0:
192,192,110045,1,0,0:0:0:0:
64,192,110208,128,0,110289:0:0:0:0:
448,192,110208,128,0,110289:0:0:0:0:
320,192,110371,128,0,110452:0:0:0:0:
192,192,110371,128,0,110452:0:0:0:0:
448,192,110371,1,0,0:0:0:0:
192,192,110534,128,0,110615:0:0:0:0:
320,192,110534,128,0,110615:0:0:0:0:
448,192,110697,128,0,110778:0:0:0:0:
320,192,110697,128,0,110778:0:0:0:0:
320,192,110860,128,0,110941:0:0:0:0:
448,192,110860,128,0,110941:0:0:0:0:
192,192,111023,128,0,111104:0:0:0:0:
64,192,111023,128,0,111104:0:0:0:0:
448,192,111023,1,0,0:0:0:0:
192,192,111186,128,0,111268:0:0:0:0:
64,192,111186,128,0,111268:0:0:0:0:
448,192,111349,128,0,111431:0:0:0:0:
320,192,111349,128,0,111431:0:0:0:0:
320,192,111512,128,0,111594:0:0:0:0:
448,192,111512,128,0,111594:0:0:0:0:
192,192,111675,128,0,111757:0:0:0:0:
64,192,111675,128,0,111757:0:0:0:0:
448,192,111675,1,0,0:0:0:0:
320,192,111838,128,0,111920:0:0:0:0:
192,192,111838,128,0,111920:0:0:0:0:
320,192,112001,128,0,112083:0:0:0:0:
448,192,112001,128,0,112083:0:0:0:0:
448,192,112164,1,0,0:0:0:0:
320,192,112327,1,0,0:0:0:0:
192,192,112327,1,0,0:0:0:0:
64,192,112327,1,0,0:0:0:0:
448,192,112490,1,0,0:0:0:0:
64,192,112653,128,0,112816:0:0:0:0:
320,192,112653,1,0,0:0:0:0:
320,192,112816,1,0,0:0:0:0:
448,192,112979,128,0,113143:0:0:0:0:
64,192,112979,1,0,0:0:0:0:
192,192,112979,1,0,0:0:0:0:
64,192,113143,1,0,0:0:0:0:
320,192,113306,128,0,113632:0:0:0:0:
192,192,113306,1,0,0:0:0:0:
448,192,113469,1,0,0:0:0:0:
448,192,113632,1,0,0:0:0:0:
64,192,113632,1,0,0:0:0:0:
192,192,113632,128,0,113958:0:0:0:0:
320,192,113795,1,0,0:0:0:0:
448,192,113958,128,0,114121:0:0:0:0:
64,192,113958,128,0,114039:0:0:0:0:
64,192,114121,128,0,114284:0:0:0:0:
320,192,114284,128,0,114447:0:0:0:0:
448,192,114284,1,0,0:0:0:0:
192,192,114284,128,0,114365:0:0:0:0:
192,192,114447,128,0,114610:0:0:0:0:
64,192,114610,128,0,114773:0:0:0:0:
320,192,114610,128,0,114936:0:0:0:0:
448,192,114773,1,0,0:0:0:0:
192,192,114936,1,0,0:0:0:0:
64,192,114936,1,0,0:0:0:0:
448,192,115018,1,0,0:0:0:0:
320,192,115018,1,0,0:0:0:0:
192,192,115099,1,0,0:0:0:0:
64,192,115099,1,0,0:0:0:0:
320,192,115181,1,0,0:0:0:0:
64,192,115262,128,0,115425:0:0:0:0:
448,192,115262,1,0,0:0:0:0:
192,192,115425,1,0,0:0:0:0:
448,192,115588,1,0,0:0:0:0:
320,192,115588,1,0,0:0:0:0:
64,192,115588,128,0,115751:0:0:0:0:
448,192,115751,128,0,115914:0:0:0:0:
64,192,115914,1,0,0:0:0:0:
320,192,115914,1,0,0:0:0:0:
448,192,116077,128,0,116240:0:0:0:0:
192,192,116240,1,0,0:0:0:0:
64,192,116240,128,0,116322:0:0:0:0:
320,192,116240,1,0,0:0:0:0:
64,192,116403,128,0,116566:0:0:0:0:
320,192,116566,128,0,116648:0:0:0:0:
448,192,116566,1,0,0:0:0:0:
320,192,116729,128,0,116893:0:0:0:0:
448,192,116893,1,0,0:0:0:0:
64,192,116893,1,0,0:0:0:0:
192,192,116893,128,0,116974:0:0:0:0:
192,192,117056,128,0,117219:0:0:0:0:
448,192,117219,128,0,117382:0:0:0:0:
64,192,117219,1,0,0:0:0:0:
320,192,117382,1,0,0:0:0:0:
192,192,117545,128,0,117708:0:0:0:0:
448,192,117545,1,0,0:0:0:0:
64,192,117545,1,0,0:0:0:0:
320,192,117708,128,0,117871:0:0:0:0:
448,192,117871,128,0,118034:0:0:0:0:
192,192,117871,1,0,0:0:0:0:
64,192,117871,1,0,0:0:0:0:
192,192,118197,128,0,118360:0:0:0:0:
64,192,118360,1,0,0:0:0:0:
448,192,118360,1,0,0:0:0:0:
320,192,118441,1,0,0:0:0:0:
192,192,118523,1,0,0:0:0:0:
64,192,118523,128,0,118686:0:0:0:0:
320,192,118686,128,0,118849:0:0:0:0:
448,192,118849,128,0,119012:0:0:0:0:
192,192,119012,128,0,119175:0:0:0:0:
64,192,119012,1,0,0:0:0:0:
320,192,119012,1,0,0:0:0:0:
320,192,119338,128,0,119501:0:0:0:0:
64,192,119338,1,0,0:0:0:0:
448,192,119338,1,0,0:0:0:0:
192,192,119501,128,0,119664:0:0:0:0:
64,192,119664,128,0,119827:0:0:0:0:
320,192,119664,1,0,0:0:0:0:
448,192,119664,1,0,0:0:0:0:
192,192,119827,1,0,0:0:0:0:
320,192,119827,1,0,0:0:0:0:
448,192,119827,128,0,119990:0:0:0:0:
