osu file format v14

[General]
AudioFilename: audio.mp3
AudioLeadIn: 0
PreviewTime: 99528
Countdown: 0
SampleSet: None
StackLeniency: 0.7
Mode: 3
LetterboxInBreaks: 0
SpecialStyle: 0
WidescreenStoryboard: 0

[Editor]
DistanceSpacing: 0.1
BeatDivisor: 4
GridSize: 16
TimelineZoom: 1.8

[Metadata]
Title:Gyutte
TitleUnicode:ぎゅって
Artist:MIMI
ArtistUnicode:MIMI
Creator:Kibitz
Version:Mirsaaa's Normal
Source:
Tags:japanese pop jpop j-pop vocaloid feat. 初音ミク hatsune miku creative studio ai けけ ktwr_ MIMI 瀬戸わらび yk__rm はるお haluo_haluo Tightly Mirsaaa
BeatmapID:4556363
BeatmapSetID:2160681

[Difficulty]
HPDrainRate:7
CircleSize:4
OverallDifficulty:7
ApproachRate:5
SliderMultiplier:1.4
SliderTickRate:1

[Events]
//Background and Video events
0,0,"MIMI.png",0,0
Video,0,"gyutte.mp4"
//Break Periods
//Storyboard Layer 0 (Background)
//Storyboard Layer 1 (Fail)
//Storyboard Layer 2 (Pass)
//Storyboard Layer 3 (Foreground)
//Storyboard Layer 4 (Overlay)
//Storyboard Sound Samples

[TimingPoints]
480,326.086956521739,4,2,1,50,1,0
37001,-100,4,2,1,50,0,1
46784,-100,4,2,1,50,0,0
47436,-100,4,2,1,50,0,1
57871,-100,4,2,1,50,0,0
89175,-100,4,2,1,50,0,1
98958,-100,4,2,1,50,0,0
99610,-100,4,2,1,50,0,1
109393,-100,4,2,1,50,0,0
110045,-100,4,2,1,50,0,1
119827,-100,4,2,1,50,0,0

[HitObjects]
64,192,480,5,0,0:0:0:0:
192,192,643,1,0,0:0:0:0:
320,192,806,1,0,0:0:0:0:
448,192,969,1,0,0:0:0:0:
448,192,1295,1,0,0:0:0:0:
320,192,1458,1,0,0:0:0:0:
192,192,1621,1,0,0:0:0:0:
192,192,1947,1,0,0:0:0:0:
320,192,2110,1,0,0:0:0:0:
448,192,2273,1,0,0:0:0:0:
448,192,2599,1,0,0:0:0:0:
320,192,2762,1,0,0:0:0:0:
192,192,2925,1,0,0:0:0:0:
64,192,3088,1,0,0:0:0:0:
192,192,3251,1,0,0:0:0:0:
320,192,3414,1,0,0:0:0:0:
448,192,3577,1,0,0:0:0:0:
448,192,3903,1,0,0:0:0:0:
320,192,4066,1,0,0:0:0:0:
192,192,4229,1,0,0:0:0:0:
192,192,4556,1,0,0:0:0:0:
320,192,4719,1,0,0:0:0:0:
448,192,4882,1,0,0:0:0:0:
64,192,5045,1,0,0:0:0:0:
320,192,5697,1,0,0:0:0:0:
192,192,6023,1,0,0:0:0:0:
448,192,6186,1,0,0:0:0:0:
64,192,6349,1,0,0:0:0:0:
320,192,6675,1,0,0:0:0:0:
192,192,6838,1,0,0:0:0:0:
448,192,7001,1,0,0:0:0:0:
64,192,7327,1,0,0:0:0:0:
192,192,7490,1,0,0:0:0:0:
320,192,7653,1,0,0:0:0:0:
64,192,7816,1,0,0:0:0:0:
448,192,7979,1,0,0:0:0:0:
320,192,8143,1,0,0:0:0:0:
192,192,8306,1,0,0:0:0:0:
64,192,8632,1,0,0:0:0:0:
448,192,8795,1,0,0:0:0:0:
192,192,8958,1,0,0:0:0:0:
320,192,9121,1,0,0:0:0:0:
448,192,9284,1,0,0:0:0:0:
64,192,9447,1,0,0:0:0:0:
192,192,9610,1,0,0:0:0:0:
320,192,9936,1,0,0:0:0:0:
64,192,10099,1,0,0:0:0:0:
448,192,10262,1,0,0:0:0:0:
192,192,10425,1,0,0:0:0:0:
320,192,10588,1,0,0:0:0:0:
64,192,10914,1,0,0:0:0:0:
448,192,11240,1,0,0:0:0:0:
192,192,11403,1,0,0:0:0:0:
320,192,11566,1,0,0:0:0:0:
448,192,11729,1,0,0:0:0:0:
64,192,11893,1,0,0:0:0:0:
320,192,12056,1,0,0:0:0:0:
192,192,12219,1,0,0:0:0:0:
448,192,12545,1,0,0:0:0:0:
64,192,12708,1,0,0:0:0:0:
320,192,12871,1,0,0:0:0:0:
192,192,13034,1,0,0:0:0:0:
448,192,13197,1,0,0:0:0:0:
64,192,13360,1,0,0:0:0:0:
192,192,13523,1,0,0:0:0:0:
320,192,13686,1,0,0:0:0:0:
448,192,13849,1,0,0:0:0:0:
64,192,14175,1,0,0:0:0:0:
320,192,14338,1,0,0:0:0:0:
192,192,14501,1,0,0:0:0:0:
448,192,14827,1,0,0:0:0:0:
64,192,14990,1,0,0:0:0:0:
320,192,15153,1,0,0:0:0:0:
192,192,15479,1,0,0:0:0:0:
320,192,15643,1,0,0:0:0:0:
448,192,15806,1,0,0:0:0:0:
64,192,16132,128,0,16458:0:0:0:0:
320,192,16458,1,0,0:0:0:0:
192,192,16621,1,0,0:0:0:0:
448,192,16784,128,0,17110:0:0:0:0:
64,192,17110,1,0,0:0:0:0:
320,192,17273,1,0,0:0:0:0:
192,192,17436,128,0,17762:0:0:0:0:
448,192,17762,1,0,0:0:0:0:
64,192,17925,1,0,0:0:0:0:
320,192,18088,1,0,0:0:0:0:
192,192,18251,1,0,0:0:0:0:
192,192,18414,1,0,0:0:0:0:
448,192,18577,1,0,0:0:0:0:
320,192,18740,128,0,19066:0:0:0:0:
64,192,19066,1,0,0:0:0:0:
192,192,19229,1,0,0:0:0:0:
448,192,19393,128,0,19719:0:0:0:0:
320,192,19719,1,0,0:0:0:0:
64,192,19882,1,0,0:0:0:0:
192,192,20045,128,0,20371:0:0:0:0:
448,192,20371,1,0,0:0:0:0:
64,192,20534,1,0,0:0:0:0:
320,192,20697,1,0,0:0:0:0:
192,192,20860,1,0,0:0:0:0:
192,192,21023,1,0,0:0:0:0:
64,192,21349,128,0,21675:0:0:0:0:
448,192,21675,1,0,0:0:0:0:
192,192,21838,1,0,0:0:0:0:
320,192,22001,128,0,22327:0:0:0:0:
64,192,22164,1,0,0:0:0:0:
448,192,22327,1,0,0:0:0:0:
192,192,22490,1,0,0:0:0:0:
448,192,22653,128,0,22979:0:0:0:0:
64,192,22979,1,0,0:0:0:0:
320,192,23143,1,0,0:0:0:0:
192,192,23306,1,0,0:0:0:0:
448,192,23469,1,0,0:0:0:0:
448,192,23632,1,0,0:0:0:0:
64,192,23795,1,0,0:0:0:0:
192,192,23958,1,0,0:0:0:0:
320,192,23958,1,0,0:0:0:0:
448,192,24284,1,0,0:0:0:0:
192,192,24447,1,0,0:0:0:0:
320,192,24610,1,0,0:0:0:0:
448,192,24610,1,0,0:0:0:0:
192,192,24936,1,0,0:0:0:0:
64,192,25099,1,0,0:0:0:0:
448,192,25099,1,0,0:0:0:0:
320,192,25425,1,0,0:0:0:0:
448,192,25425,1,0,0:0:0:0:
192,192,25751,1,0,0:0:0:0:
64,192,25751,1,0,0:0:0:0:
320,192,25914,1,0,0:0:0:0:
448,192,25914,1,0,0:0:0:0:
192,192,26240,1,0,0:0:0:0:
320,192,26240,1,0,0:0:0:0:
448,192,26566,1,0,0:0:0:0:
320,192,26729,1,0,0:0:0:0:
64,192,26893,1,0,0:0:0:0:
192,192,27056,1,0,0:0:0:0:
320,192,27219,1,0,0:0:0:0:
448,192,27219,1,0,0:0:0:0:
64,192,27463,1,0,0:0:0:0:
448,192,27545,1,0,0:0:0:0:
192,192,27708,1,0,0:0:0:0:
320,192,27871,128,0,28197:0:0:0:0:
192,192,28197,128,0,28523:0:0:0:0:
64,192,28523,1,0,0:0:0:0:
448,192,28523,1,0,0:0:0:0:
320,192,28849,1,0,0:0:0:0:
64,192,29012,1,0,0:0:0:0:
448,192,29175,1,0,0:0:0:0:
192,192,29338,1,0,0:0:0:0:
320,192,29501,1,0,0:0:0:0:
64,192,29664,1,0,0:0:0:0:
192,192,29827,1,0,0:0:0:0:
448,192,29827,1,0,0:0:0:0:
64,192,30153,1,0,0:0:0:0:
448,192,30316,1,0,0:0:0:0:
320,192,30479,1,0,0:0:0:0:
192,192,30643,1,0,0:0:0:0:
64,192,30806,1,0,0:0:0:0:
448,192,30969,1,0,0:0:0:0:
192,192,31132,1,0,0:0:0:0:
64,192,31132,1,0,0:0:0:0:
320,192,31458,1,0,0:0:0:0:
64,192,31621,1,0,0:0:0:0:
448,192,31784,1,0,0:0:0:0:
192,192,31947,1,0,0:0:0:0:
320,192,32110,1,0,0:0:0:0:
64,192,32110,1,0,0:0:0:0:
448,192,32273,1,0,0:0:0:0:
64,192,32436,1,0,0:0:0:0:
192,192,32599,1,0,0:0:0:0:
320,192,32762,1,0,0:0:0:0:
448,192,32762,1,0,0:0:0:0:
64,192,32925,1,0,0:0:0:0:
448,192,33088,1,0,0:0:0:0:
320,192,33251,1,0,0:0:0:0:
192,192,33414,1,0,0:0:0:0:
64,192,33414,128,0,33740:0:0:0:0:
320,192,33740,1,0,0:0:0:0:
448,192,33740,1,0,0:0:0:0:
192,192,34066,1,0,0:0:0:0:
64,192,34066,1,0,0:0:0:0:
448,192,34229,1,0,0:0:0:0:
64,192,34393,1,0,0:0:0:0:
192,192,34556,1,0,0:0:0:0:
320,192,34719,1,0,0:0:0:0:
448,192,34719,1,0,0:0:0:0:
192,192,34882,1,0,0:0:0:0:
448,192,35045,1,0,0:0:0:0:
64,192,35208,1,0,0:0:0:0:
192,192,35371,1,0,0:0:0:0:
320,192,35371,1,0,0:0:0:0:
448,192,35534,1,0,0:0:0:0:
64,192,35697,1,0,0:0:0:0:
192,192,35697,1,0,0:0:0:0:
448,192,36023,1,0,0:0:0:0:
320,192,36023,1,0,0:0:0:0:
192,192,36349,1,0,0:0:0:0:
64,192,36349,1,0,0:0:0:0:
320,192,36512,1,0,0:0:0:0:
320,192,36675,1,0,0:0:0:0:
64,192,37001,1,0,0:0:0:0:
192,192,37001,1,0,0:0:0:0:
320,192,37327,1,0,0:0:0:0:
448,192,37327,1,0,0:0:0:0:
448,192,37490,1,0,0:0:0:0:
64,192,37653,1,0,0:0:0:0:
320,192,37816,1,0,0:0:0:0:
192,192,37979,1,0,0:0:0:0:
64,192,37979,1,0,0:0:0:0:
320,192,38143,1,0,0:0:0:0:
448,192,38306,128,0,38632:0:0:0:0:
192,192,38632,1,0,0:0:0:0:
64,192,38632,1,0,0:0:0:0:
64,192,38795,1,0,0:0:0:0:
320,192,38958,1,0,0:0:0:0:
192,192,39121,1,0,0:0:0:0:
448,192,39284,1,0,0:0:0:0:
320,192,39284,1,0,0:0:0:0:
64,192,39447,1,0,0:0:0:0:
192,192,39610,1,0,0:0:0:0:
448,192,39936,1,0,0:0:0:0:
64,192,39936,1,0,0:0:0:0:
448,192,40099,1,0,0:0:0:0:
192,192,40262,1,0,0:0:0:0:
320,192,40425,1,0,0:0:0:0:
192,192,40588,1,0,0:0:0:0:
64,192,40588,1,0,0:0:0:0:
448,192,40751,1,0,0:0:0:0:
64,192,40914,1,0,0:0:0:0:
320,192,41077,1,0,0:0:0:0:
192,192,41240,1,0,0:0:0:0:
448,192,41240,1,0,0:0:0:0:
192,192,41403,1,0,0:0:0:0:
64,192,41566,1,0,0:0:0:0:
320,192,41729,1,0,0:0:0:0:
64,192,41893,1,0,0:0:0:0:
320,192,42056,1,0,0:0:0:0:
192,192,42219,1,0,0:0:0:0:
320,192,42545,1,0,0:0:0:0:
448,192,42545,1,0,0:0:0:0:
448,192,42708,1,0,0:0:0:0:
64,192,42871,1,0,0:0:0:0:
320,192,43034,1,0,0:0:0:0:
192,192,43197,1,0,0:0:0:0:
64,192,43197,1,0,0:0:0:0:
320,192,43360,1,0,0:0:0:0:
448,192,43523,128,0,43849:0:0:0:0:
192,192,43849,1,0,0:0:0:0:
64,192,43849,1,0,0:0:0:0:
64,192,44012,1,0,0:0:0:0:
320,192,44175,1,0,0:0:0:0:
192,192,44338,1,0,0:0:0:0:
448,192,44501,1,0,0:0:0:0:
320,192,44501,1,0,0:0:0:0:
64,192,44664,1,0,0:0:0:0:
192,192,44827,1,0,0:0:0:0:
320,192,45153,1,0,0:0:0:0:
64,192,45153,1,0,0:0:0:0:
320,192,45316,1,0,0:0:0:0:
192,192,45479,1,0,0:0:0:0:
448,192,45643,1,0,0:0:0:0:
192,192,45806,1,0,0:0:0:0:
64,192,45806,1,0,0:0:0:0:
448,192,45969,1,0,0:0:0:0:
64,192,46132,1,0,0:0:0:0:
320,192,46295,1,0,0:0:0:0:
192,192,46458,1,0,0:0:0:0:
448,192,46458,1,0,0:0:0:0:
192,192,46621,1,0,0:0:0:0:
320,192,46784,1,0,0:0:0:0:
64,192,46947,1,0,0:0:0:0:
448,192,47110,1,0,0:0:0:0:
320,192,47191,1,0,0:0:0:0:
192,192,47273,1,0,0:0:0:0:
64,192,47354,1,0,0:0:0:0:
320,192,47436,1,0,0:0:0:0:
448,192,47436,1,0,0:0:0:0:
192,192,47599,1,0,0:0:0:0:
448,192,47762,1,0,0:0:0:0:
192,192,47925,1,0,0:0:0:0:
448,192,48088,1,0,0:0:0:0:
192,192,48251,1,0,0:0:0:0:
448,192,48414,1,0,0:0:0:0:
192,192,48577,1,0,0:0:0:0:
320,192,48740,1,0,0:0:0:0:
320,192,48903,1,0,0:0:0:0:
64,192,49066,1,0,0:0:0:0:
448,192,49066,1,0,0:0:0:0:
192,192,49229,1,0,0:0:0:0:
320,192,49393,1,0,0:0:0:0:
192,192,49719,1,0,0:0:0:0:
64,192,49719,1,0,0:0:0:0:
448,192,50045,128,0,50371:0:0:0:0:
192,192,50371,1,0,0:0:0:0:
64,192,50371,128,0,50697:0:0:0:0:
320,192,50697,1,0,0:0:0:0:
192,192,50860,1,0,0:0:0:0:
448,192,51023,1,0,0:0:0:0:
64,192,51023,1,0,0:0:0:0:
320,192,51186,1,0,0:0:0:0:
192,192,51349,128,0,51675:0:0:0:0:
448,192,51675,1,0,0:0:0:0:
320,192,51675,1,0,0:0:0:0:
64,192,51838,1,0,0:0:0:0:
448,192,52001,128,0,52327:0:0:0:0:
192,192,52327,1,0,0:0:0:0:
64,192,52327,1,0,0:0:0:0:
320,192,52653,128,0,52979:0:0:0:0:
64,192,52979,1,0,0:0:0:0:
320,192,53143,128,0,53469:0:0:0:0:
64,192,53469,1,0,0:0:0:0:
320,192,53632,1,0,0:0:0:0:
64,192,53795,1,0,0:0:0:0:
448,192,53958,1,0,0:0:0:0:
192,192,54121,1,0,0:0:0:0:
320,192,54284,1,0,0:0:0:0:
64,192,54447,1,0,0:0:0:0:
192,192,54610,128,0,54936:0:0:0:0:
320,192,54936,1,0,0:0:0:0:
448,192,54936,1,0,0:0:0:0:
192,192,55099,1,0,0:0:0:0:
64,192,55262,1,0,0:0:0:0:
448,192,55262,1,0,0:0:0:0:
192,192,55588,1,0,0:0:0:0:
320,192,55751,1,0,0:0:0:0:
64,192,55914,1,0,0:0:0:0:
448,192,55914,1,0,0:0:0:0:
192,192,56077,1,0,0:0:0:0:
320,192,56240,1,0,0:0:0:0:
192,192,56403,1,0,0:0:0:0:
64,192,56403,1,0,0:0:0:0:
448,192,56729,1,0,0:0:0:0:
192,192,56729,1,0,0:0:0:0:
64,192,56893,1,0,0:0:0:0:
320,192,57056,1,0,0:0:0:0:
448,192,57056,1,0,0:0:0:0:
192,192,57219,1,0,0:0:0:0:
64,192,57219,1,0,0:0:0:0:
320,192,57545,128,0,57871:0:0:0:0:
64,192,57871,1,0,0:0:0:0:
448,192,57871,1,0,0:0:0:0:
64,192,58197,1,0,0:0:0:0:
192,192,58197,1,0,0:0:0:0:
320,192,58360,1,0,0:0:0:0:
448,192,58686,1,0,0:0:0:0:
320,192,58849,1,0,0:0:0:0:
64,192,58849,1,0,0:0:0:0:
192,192,59012,1,0,0:0:0:0:
448,192,59175,1,0,0:0:0:0:
64,192,59338,1,0,0:0:0:0:
192,192,59501,1,0,0:0:0:0:
320,192,59501,1,0,0:0:0:0:
448,192,59664,1,0,0:0:0:0:
64,192,59990,1,0,0:0:0:0:
320,192,60153,1,0,0:0:0:0:
448,192,60153,1,0,0:0:0:0:
192,192,60316,1,0,0:0:0:0:
320,192,60479,1,0,0:0:0:0:
192,192,60806,1,0,0:0:0:0:
64,192,60806,1,0,0:0:0:0:
448,192,60969,1,0,0:0:0:0:
320,192,61132,1,0,0:0:0:0:
192,192,61295,1,0,0:0:0:0:
64,192,61458,1,0,0:0:0:0:
448,192,61458,1,0,0:0:0:0:
320,192,61621,1,0,0:0:0:0:
192,192,61784,1,0,0:0:0:0:
64,192,61947,1,0,0:0:0:0:
320,192,62110,1,0,0:0:0:0:
448,192,62110,1,0,0:0:0:0:
192,192,62273,1,0,0:0:0:0:
448,192,62436,1,0,0:0:0:0:
64,192,62762,128,0,63088:0:0:0:0:
192,192,62762,1,0,0:0:0:0:
320,192,63088,128,0,63414:0:0:0:0:
192,192,63414,1,0,0:0:0:0:
64,192,63414,1,0,0:0:0:0:
448,192,63577,1,0,0:0:0:0:
64,192,63903,1,0,0:0:0:0:
192,192,64066,1,0,0:0:0:0:
448,192,64066,1,0,0:0:0:0:
320,192,64229,1,0,0:0:0:0:
64,192,64393,1,0,0:0:0:0:
448,192,64556,1,0,0:0:0:0:
192,192,64719,1,0,0:0:0:0:
320,192,64719,1,0,0:0:0:0:
64,192,64882,1,0,0:0:0:0:
448,192,65208,1,0,0:0:0:0:
192,192,65371,1,0,0:0:0:0:
64,192,65371,1,0,0:0:0:0:
320,192,65534,1,0,0:0:0:0:
192,192,65697,1,0,0:0:0:0:
64,192,66023,1,0,0:0:0:0:
448,192,66023,1,0,0:0:0:0:
320,192,66186,1,0,0:0:0:0:
192,192,66512,1,0,0:0:0:0:
320,192,66675,1,0,0:0:0:0:
448,192,66675,1,0,0:0:0:0:
64,192,66838,1,0,0:0:0:0:
192,192,67001,1,0,0:0:0:0:
320,192,67164,1,0,0:0:0:0:
448,192,67327,1,0,0:0:0:0:
64,192,67327,1,0,0:0:0:0:
192,192,67490,1,0,0:0:0:0:
320,192,67653,1,0,0:0:0:0:
64,192,67979,1,0,0:0:0:0:
192,192,67979,1,0,0:0:0:0:
320,192,68306,1,0,0:0:0:0:
448,192,68306,128,0,68632:0:0:0:0:
192,192,68632,1,0,0:0:0:0:
320,192,68795,1,0,0:0:0:0:
64,192,68958,128,0,69284:0:0:0:0:
448,192,69284,1,0,0:0:0:0:
192,192,69447,1,0,0:0:0:0:
320,192,69610,128,0,69936:0:0:0:0:
64,192,69936,1,0,0:0:0:0:
448,192,70099,1,0,0:0:0:0:
192,192,70262,1,0,0:0:0:0:
320,192,70425,1,0,0:0:0:0:
320,192,70588,1,0,0:0:0:0:
64,192,70751,1,0,0:0:0:0:
192,192,70914,128,0,71240:0:0:0:0:
448,192,71240,1,0,0:0:0:0:
320,192,71403,1,0,0:0:0:0:
64,192,71566,128,0,71893:0:0:0:0:
192,192,71893,1,0,0:0:0:0:
448,192,72056,1,0,0:0:0:0:
320,192,72219,128,0,72545:0:0:0:0:
64,192,72545,1,0,0:0:0:0:
448,192,72708,1,0,0:0:0:0:
192,192,72871,1,0,0:0:0:0:
320,192,73034,1,0,0:0:0:0:
320,192,73197,1,0,0:0:0:0:
448,192,73523,128,0,73849:0:0:0:0:
64,192,73849,1,0,0:0:0:0:
320,192,74012,1,0,0:0:0:0:
192,192,74175,128,0,74501:0:0:0:0:
448,192,74338,1,0,0:0:0:0:
64,192,74501,1,0,0:0:0:0:
320,192,74664,1,0,0:0:0:0:
64,192,74827,128,0,75153:0:0:0:0:
448,192,75153,1,0,0:0:0:0:
192,192,75316,1,0,0:0:0:0:
320,192,75479,1,0,0:0:0:0:
64,192,75643,1,0,0:0:0:0:
64,192,75806,1,0,0:0:0:0:
448,192,75969,1,0,0:0:0:0:
320,192,76132,1,0,0:0:0:0:
192,192,76132,1,0,0:0:0:0:
64,192,76458,1,0,0:0:0:0:
320,192,76621,1,0,0:0:0:0:
192,192,76784,1,0,0:0:0:0:
64,192,76784,1,0,0:0:0:0:
320,192,77110,1,0,0:0:0:0:
448,192,77273,1,0,0:0:0:0:
64,192,77273,1,0,0:0:0:0:
192,192,77599,1,0,0:0:0:0:
64,192,77599,1,0,0:0:0:0:
320,192,77925,1,0,0:0:0:0:
448,192,77925,1,0,0:0:0:0:
192,192,78088,1,0,0:0:0:0:
64,192,78088,1,0,0:0:0:0:
448,192,78414,128,0,78740:0:0:0:0:
320,192,78740,1,0,0:0:0:0:
64,192,78740,1,0,0:0:0:0:
192,192,79066,1,0,0:0:0:0:
448,192,79066,1,0,0:0:0:0:
448,192,79229,1,0,0:0:0:0:
64,192,79393,1,0,0:0:0:0:
320,192,79556,1,0,0:0:0:0:
192,192,79719,1,0,0:0:0:0:
64,192,79719,1,0,0:0:0:0:
448,192,79882,1,0,0:0:0:0:
320,192,80045,1,0,0:0:0:0:
192,192,80208,1,0,0:0:0:0:
64,192,80371,1,0,0:0:0:0:
448,192,80371,1,0,0:0:0:0:
64,192,80534,1,0,0:0:0:0:
320,192,80697,1,0,0:0:0:0:
192,192,80860,1,0,0:0:0:0:
320,192,81023,1,0,0:0:0:0:
448,192,81023,1,0,0:0:0:0:
192,192,81349,1,0,0:0:0:0:
320,192,81675,1,0,0:0:0:0:
64,192,81675,1,0,0:0:0:0:
64,192,81838,1,0,0:0:0:0:
448,192,82001,1,0,0:0:0:0:
192,192,82164,1,0,0:0:0:0:
320,192,82327,1,0,0:0:0:0:
448,192,82327,1,0,0:0:0:0:
64,192,82490,1,0,0:0:0:0:
192,192,82653,1,0,0:0:0:0:
320,192,82816,1,0,0:0:0:0:
448,192,82979,1,0,0:0:0:0:
64,192,82979,1,0,0:0:0:0:
448,192,83143,1,0,0:0:0:0:
192,192,83306,1,0,0:0:0:0:
320,192,83469,1,0,0:0:0:0:
64,192,83632,1,0,0:0:0:0:
448,192,83632,1,0,0:0:0:0:
192,192,83795,1,0,0:0:0:0:
320,192,83958,1,0,0:0:0:0:
448,192,84284,1,0,0:0:0:0:
192,192,84284,1,0,0:0:0:0:
448,192,84447,1,0,0:0:0:0:
64,192,84610,1,0,0:0:0:0:
320,192,84773,1,0,0:0:0:0:
64,192,84936,1,0,0:0:0:0:
192,192,84936,1,0,0:0:0:0:
448,192,85099,1,0,0:0:0:0:
320,192,85262,1,0,0:0:0:0:
192,192,85425,1,0,0:0:0:0:
448,192,85588,1,0,0:0:0:0:
64,192,85588,1,0,0:0:0:0:
64,192,85751,1,0,0:0:0:0:
320,192,85914,1,0,0:0:0:0:
192,192,86077,1,0,0:0:0:0:
448,192,86240,1,0,0:0:0:0:
320,192,86240,1,0,0:0:0:0:
192,192,86403,1,0,0:0:0:0:
64,192,86729,1,0,0:0:0:0:
192,192,86893,1,0,0:0:0:0:
448,192,86893,1,0,0:0:0:0:
192,192,87056,1,0,0:0:0:0:
448,192,87382,1,0,0:0:0:0:
64,192,87545,1,0,0:0:0:0:
192,192,87545,1,0,0:0:0:0:
320,192,87708,1,0,0:0:0:0:
448,192,88034,1,0,0:0:0:0:
64,192,88197,1,0,0:0:0:0:
320,192,88197,1,0,0:0:0:0:
64,192,88360,1,0,0:0:0:0:
448,192,88523,1,0,0:0:0:0:
192,192,88686,1,0,0:0:0:0:
64,192,88849,1,0,0:0:0:0:
448,192,88849,1,0,0:0:0:0:
320,192,89012,1,0,0:0:0:0:
64,192,89175,1,0,0:0:0:0:
192,192,89175,1,0,0:0:0:0:
320,192,89501,1,0,0:0:0:0:
448,192,89501,1,0,0:0:0:0:
448,192,89664,1,0,0:0:0:0:
64,192,89827,1,0,0:0:0:0:
320,192,89990,1,0,0:0:0:0:
192,192,90153,1,0,0:0:0:0:
64,192,90153,1,0,0:0:0:0:
320,192,90316,1,0,0:0:0:0:
448,192,90479,128,0,90806:0:0:0:0:
192,192,90806,1,0,0:0:0:0:
64,192,90806,1,0,0:0:0:0:
64,192,90969,1,0,0:0:0:0:
320,192,91132,1,0,0:0:0:0:
192,192,91295,1,0,0:0:0:0:
448,192,91458,1,0,0:0:0:0:
320,192,91458,1,0,0:0:0:0:
64,192,91621,1,0,0:0:0:0:
192,192,91784,1,0,0:0:0:0:
448,192,92110,1,0,0:0:0:0:
64,192,92110,1,0,0:0:0:0:
448,192,92273,1,0,0:0:0:0:
192,192,92436,1,0,0:0:0:0:
320,192,92599,1,0,0:0:0:0:
192,192,92762,1,0,0:0:0:0:
64,192,92762,1,0,0:0:0:0:
448,192,92925,1,0,0:0:0:0:
64,192,93088,1,0,0:0:0:0:
320,192,93251,1,0,0:0:0:0:
192,192,93414,1,0,0:0:0:0:
448,192,93414,1,0,0:0:0:0:
192,192,93577,1,0,0:0:0:0:
64,192,93740,1,0,0:0:0:0:
320,192,93903,1,0,0:0:0:0:
64,192,94066,1,0,0:0:0:0:
320,192,94229,1,0,0:0:0:0:
192,192,94393,1,0,0:0:0:0:
320,192,94719,1,0,0:0:0:0:
448,192,94719,1,0,0:0:0:0:
448,192,94882,1,0,0:0:0:0:
64,192,95045,1,0,0:0:0:0:
320,192,95208,1,0,0:0:0:0:
192,192,95371,1,0,0:0:0:0:
64,192,95371,1,0,0:0:0:0:
320,192,95534,1,0,0:0:0:0:
448,192,95697,128,0,96023:0:0:0:0:
192,192,96023,1,0,0:0:0:0:
64,192,96023,1,0,0:0:0:0:
64,192,96186,1,0,0:0:0:0:
320,192,96349,1,0,0:0:0:0:
192,192,96512,1,0,0:0:0:0:
448,192,96675,1,0,0:0:0:0:
320,192,96675,1,0,0:0:0:0:
64,192,96838,1,0,0:0:0:0:
192,192,97001,1,0,0:0:0:0:
320,192,97327,1,0,0:0:0:0:
64,192,97327,1,0,0:0:0:0:
320,192,97490,1,0,0:0:0:0:
192,192,97653,1,0,0:0:0:0:
448,192,97816,1,0,0:0:0:0:
192,192,97979,1,0,0:0:0:0:
64,192,97979,1,0,0:0:0:0:
448,192,98143,1,0,0:0:0:0:
64,192,98306,1,0,0:0:0:0:
320,192,98469,1,0,0:0:0:0:
192,192,98632,1,0,0:0:0:0:
448,192,98632,1,0,0:0:0:0:
192,192,98795,1,0,0:0:0:0:
320,192,98958,1,0,0:0:0:0:
64,192,99121,1,0,0:0:0:0:
448,192,99284,1,0,0:0:0:0:
192,192,99284,128,0,99610:0:0:0:0:
320,192,99610,1,0,0:0:0:0:
448,192,99610,128,0,99936:0:0:0:0:
64,192,99936,1,0,0:0:0:0:
192,192,99936,1,0,0:0:0:0:
64,192,100099,1,0,0:0:0:0:
448,192,100262,1,0,0:0:0:0:
192,192,100425,1,0,0:0:0:0:
448,192,100588,1,0,0:0:0:0:
320,192,100588,1,0,0:0:0:0:
192,192,100751,1,0,0:0:0:0:
64,192,100914,128,0,101240:0:0:0:0:
448,192,101240,1,0,0:0:0:0:
320,192,101240,1,0,0:0:0:0:
448,192,101403,1,0,0:0:0:0:
192,192,101566,1,0,0:0:0:0:
320,192,101729,1,0,0:0:0:0:
192,192,101893,1,0,0:0:0:0:
64,192,101893,1,0,0:0:0:0:
448,192,102056,1,0,0:0:0:0:
320,192,102219,1,0,0:0:0:0:
448,192,102545,1,0,0:0:0:0:
64,192,102545,1,0,0:0:0:0:
64,192,102708,1,0,0:0:0:0:
320,192,102871,1,0,0:0:0:0:
192,192,103034,1,0,0:0:0:0:
448,192,103197,1,0,0:0:0:0:
320,192,103197,1,0,0:0:0:0:
64,192,103360,1,0,0:0:0:0:
448,192,103523,1,0,0:0:0:0:
192,192,103686,1,0,0:0:0:0:
64,192,103849,1,0,0:0:0:0:
320,192,103849,1,0,0:0:0:0:
320,192,104012,1,0,0:0:0:0:
448,192,104175,1,0,0:0:0:0:
192,192,104338,1,0,0:0:0:0:
448,192,104501,1,0,0:0:0:0:
192,192,104664,1,0,0:0:0:0:
320,192,104827,1,0,0:0:0:0:
64,192,105153,1,0,0:0:0:0:
192,192,105153,1,0,0:0:0:0:
64,192,105316,1,0,0:0:0:0:
448,192,105479,1,0,0:0:0:0:
192,192,105643,1,0,0:0:0:0:
448,192,105806,1,0,0:0:0:0:
320,192,105806,1,0,0:0:0:0:
192,192,105969,1,0,0:0:0:0:
64,192,106132,128,0,106458:0:0:0:0:
448,192,106458,1,0,0:0:0:0:
320,192,106458,1,0,0:0:0:0:
448,192,106621,1,0,0:0:0:0:
192,192,106784,1,0,0:0:0:0:
320,192,106947,1,0,0:0:0:0:
192,192,107110,1,0,0:0:0:0:
64,192,107110,1,0,0:0:0:0:
448,192,107273,1,0,0:0:0:0:
320,192,107436,1,0,0:0:0:0:
448,192,107762,1,0,0:0:0:0:
192,192,107762,1,0,0:0:0:0:
192,192,107925,1,0,0:0:0:0:
320,192,108088,1,0,0:0:0:0:
64,192,108251,1,0,0:0:0:0:
448,192,108414,1,0,0:0:0:0:
320,192,108414,1,0,0:0:0:0:
64,192,108577,1,0,0:0:0:0:
448,192,108740,1,0,0:0:0:0:
192,192,108903,1,0,0:0:0:0:
64,192,109066,1,0,0:0:0:0:
320,192,109066,1,0,0:0:0:0:
320,192,109229,1,0,0:0:0:0:
192,192,109393,1,0,0:0:0:0:
448,192,109556,1,0,0:0:0:0:
64,192,109719,1,0,0:0:0:0:
192,192,109800,1,0,0:0:0:0:
320,192,109882,1,0,0:0:0:0:
448,192,109963,1,0,0:0:0:0:
64,192,110045,1,0,0:0:0:0:
192,192,110045,1,0,0:0:0:0:
320,192,110208,1,0,0:0:0:0:
64,192,110371,1,0,0:0:0:0:
320,192,110534,1,0,0:0:0:0:
64,192,110697,1,0,0:0:0:0:
320,192,110860,1,0,0:0:0:0:
64,192,111023,1,0,0:0:0:0:
320,192,111186,1,0,0:0:0:0:
192,192,111349,1,0,0:0:0:0:
192,192,111512,1,0,0:0:0:0:
64,192,111675,1,0,0:0:0:0:
448,192,111675,1,0,0:0:0:0:
320,192,111838,1,0,0:0:0:0:
192,192,112001,1,0,0:0:0:0:
448,192,112327,1,0,0:0:0:0:
320,192,112327,1,0,0:0:0:0:
64,192,112653,128,0,112979:0:0:0:0:
320,192,112979,1,0,0:0:0:0:
448,192,112979,128,0,113306:0:0:0:0:
192,192,113306,1,0,0:0:0:0:
320,192,113469,1,0,0:0:0:0:
64,192,113632,1,0,0:0:0:0:
448,192,113632,1,0,0:0:0:0:
192,192,113795,1,0,0:0:0:0:
320,192,113958,128,0,114284:0:0:0:0:
64,192,114284,1,0,0:0:0:0:
192,192,114284,1,0,0:0:0:0:
320,192,114447,1,0,0:0:0:0:
448,192,114610,128,0,114936:0:0:0:0:
64,192,114936,1,0,0:0:0:0:
192,192,115018,1,0,0:0:0:0:
320,192,115099,1,0,0:0:0:0:
448,192,115181,1,0,0:0:0:0:
192,192,115262,128,0,115588:0:0:0:0:
64,192,115262,1,0,0:0:0:0:
448,192,115588,1,0,0:0:0:0:
192,192,115751,128,0,116077:0:0:0:0:
448,192,116077,1,0,0:0:0:0:
192,192,116240,1,0,0:0:0:0:
448,192,116403,1,0,0:0:0:0:
64,192,116566,1,0,0:0:0:0:
320,192,116729,1,0,0:0:0:0:
192,192,116893,1,0,0:0:0:0:
448,192,117056,1,0,0:0:0:0:
320,192,117219,128,0,117545:0:0:0:0:
192,192,117545,1,0,0:0:0:0:
64,192,117545,1,0,0:0:0:0:
320,192,117708,1,0,0:0:0:0:
448,192,117871,1,0,0:0:0:0:
64,192,117871,1,0,0:0:0:0:
320,192,118197,1,0,0:0:0:0:
192,192,118360,1,0,0:0:0:0:
448,192,118523,1,0,0:0:0:0:
64,192,118523,1,0,0:0:0:0:
320,192,118686,1,0,0:0:0:0:
192,192,118849,1,0,0:0:0:0:
320,192,119012,1,0,0:0:0:0:
448,192,119012,1,0,0:0:0:0:
64,192,119338,1,0,0:0:0:0:
320,192,119338,1,0,0:0:0:0:
448,192,119501,1,0,0:0:0:0:
192,192,119664,1,0,0:0:0:0:
64,192,119664,1,0,0:0:0:0:
320,192,119827,1,0,0:0:0:0:
448,192,119827,1,0,0:0:0:0:
