osu file format v14

[General]
AudioFilename: audio.mp3
AudioLeadIn: 0
PreviewTime: 47433
Countdown: 0
SampleSet: Soft
StackLeniency: 0.7
Mode: 2
LetterboxInBreaks: 0
WidescreenStoryboard: 0

[Editor]
DistanceSpacing: 1
BeatDivisor: 4
GridSize: 16
TimelineZoom: 2.7

[Metadata]
Title:Ai no Sukima
TitleUnicode:哀の隙間
Artist:MIMI
ArtistUnicode:MIMI
Creator:Greaper
Version:Overdose
Source:osu!
Tags:xinely bastian jorkseljund 初音ミク miku hatsune feat. vocaloid japanese pop piano piapro 佐藤主税 sato chiiro featured artist fa mappers guild mpg
BeatmapID:2494357
BeatmapSetID:1197507

[Difficulty]
HPDrainRate:6
CircleSize:4
OverallDifficulty:9.3
ApproachRate:9.3
SliderMultiplier:1.8
SliderTickRate:2

[Events]
//Background and Video events
0,0,"bg.jpg",0,0
//Break Periods
//Storyboard Layer 0 (Background)
//Storyboard Layer 1 (Fail)
//Storyboard Layer 2 (Pass)
//Storyboard Layer 3 (Foreground)
//Storyboard Layer 4 (Overlay)
//Storyboard Sound Samples

[TimingPoints]
448,294.117647058824,4,2,11,35,1,0
9859,-100,4,2,11,50,0,0
28683,-111.111111111111,4,2,11,45,0,0
38095,-100,4,2,11,55,0,0
46918,-100,4,2,11,60,0,0
47506,-90.9090909090909,4,2,11,65,0,1
66330,-100,4,2,11,50,0,0
85153,-111.111111111111,4,2,11,45,0,0
94565,-100,4,2,11,55,0,0
103389,-100,4,2,11,60,0,0
103977,-90.9090909090909,4,2,11,65,0,1
122800,-100,4,2,11,55,0,0
141624,-111.111111111111,4,2,11,45,0,0
151036,-100,4,2,11,50,0,0
159859,-100,4,2,11,55,0,0
160448,-90.9090909090909,4,2,11,65,0,1
179271,-90.9090909090909,4,2,11,70,0,1
198095,-100,4,2,11,60,0,0
207506,-100,4,2,11,45,0,0

[Colours]
Combo1 : 234,231,106
Combo2 : 106,170,234
Combo3 : 234,106,189
Combo4 : 105,105,235

[HitObjects]
288,297,448,5,2,0:0:0:0:
376,274,595,1,0,0:0:0:0:
286,233,742,2,0,P|231:217|288:139,1,180
367,132,1183,1,0,0:0:0:0:
460,116,1330,1,0,0:0:0:0:
367,69,1477,1,0,0:0:0:0:
213,78,1624,6,0,L|29:68,2,180,2|0|0,0:0|0:0|0:0,0:0:0:0:
217,136,2359,1,0,0:0:0:0:
127,155,2506,1,0,0:0:0:0:
121,224,2653,1,0,0:0:0:0:
275,227,2800,6,0,P|343:202|267:140,1,180,2|0,0:0|0:0,0:0:0:0:
119,124,3389,2,0,L|29:121,2,90
395,125,3977,6,0,L|400:220,1,90,2|0,0:0|0:0,0:0:0:0:
311,224,4271,1,0,0:0:0:0:
54,224,4565,1,2,0:0:0:0:
385,281,5153,6,0,L|481:279,2,90,2|0|0,0:0|0:0|0:0,0:0:0:0:
200,300,5742,1,0,0:0:0:0:
212,209,5889,1,0,0:0:0:0:
284,153,6036,1,0,0:0:0:0:
375,149,6183,1,0,0:0:0:0:
217,96,6330,6,0,L|29:86,2,180,2|0|0,0:0|0:0|0:0,0:0:0:0:
220,161,7065,1,0,0:0:0:0:
129,182,7212,1,0,0:0:0:0:
219,222,7359,1,0,0:0:0:0:
381,222,7506,6,0,P|426:202|375:112,1,180,2|0,0:0|0:0,0:0:0:0:
195,112,8095,2,0,L|188:203,1,90
342,217,8389,6,0,P|337:275|209:327,1,180,0|2,0:0|0:0,0:0:0:0:
150,334,8830,1,0,0:0:0:0:
305,343,8977,1,0,0:0:0:0:
121,335,9271,2,0,P|72:321|130:167,1,270,2|0,0:0|0:0,0:0:0:0:
389,168,9859,6,0,L|487:166,1,90,4|0,0:0|0:0,0:0:0:0:
253,160,10153,2,0,L|249:68,1,90,8|0,0:0|0:0,0:0:0:0:
386,67,10448,1,8,0:3:0:0:
246,49,10595,1,0,0:0:0:0:
390,183,10742,2,0,L|398:281,1,90,8|8,0:0|0:3,0:0:0:0:
144,192,11036,6,0,L|50:188,2,90,0|8|8,0:0|0:3|0:0,0:0:0:0:
367,193,11477,2,0,L|274:189,1,90,0|8,0:0|0:3,0:0:0:0:
405,104,11771,1,0,0:0:0:0:
177,110,11918,2,0,L|74:105,1,90,8|0,0:0|0:0,0:0:0:0:
356,279,12212,6,0,L|456:276,1,90,8|0,0:3|0:0,0:0:0:0:
308,243,12506,2,0,L|306:146,1,90,8|0,0:0|0:0,0:0:0:0:
166,210,12800,1,8,0:3:0:0:
391,180,12948,1,0,0:0:0:0:
259,162,13095,2,0,L|144:157,1,90,8|8,0:0|0:3,0:0:0:0:
440,58,13389,6,0,L|443:169,1,90,0|8,0:0|0:3,0:0:0:0:
216,187,13683,2,0,L|114:190,1,90,8|0,0:0|0:0,0:0:0:0:
346,230,13977,1,8,0:3:0:0:
221,248,14124,1,8,0:3:0:0:
315,262,14271,1,8,0:0:0:0:
408,273,14418,1,0,0:0:0:0:
137,161,14565,6,0,L|136:66,1,90,8|0,0:3|0:0,0:0:0:0:
362,162,14859,2,0,L|366:70,1,90,8|0,0:0|0:0,0:0:0:0:
234,54,15154,1,8,0:3:0:0:
369,35,15301,1,0,0:0:0:0:
233,187,15448,2,0,L|141:195,1,90,8|8,0:0|0:3,0:0:0:0:
412,186,15742,6,0,L|506:182,2,90,0|8|8,0:0|0:3|0:0,0:0:0:0:
183,189,16183,2,0,L|182:98,1,90,0|8,0:0|0:3,0:0:0:0:
320,94,16477,1,0,0:0:0:0:
94,76,16624,2,0,L|90:172,1,90,8|0,0:0|0:0,0:0:0:0:
362,268,16918,6,0,L|462:265,1,90,8|0,0:3|0:0,0:0:0:0:
314,232,17212,2,0,L|312:135,1,90,8|0,0:0|0:0,0:0:0:0:
449,128,17506,1,8,0:3:0:0:
220,188,17654,1,0,0:0:0:0:
348,182,17801,2,0,L|445:181,1,90,8|0,0:0|0:0,0:0:0:0:
167,51,18095,6,0,L|69:51,1,90,8|8,0:3|0:3,0:0:0:0:
304,92,18389,2,0,L|308:189,1,90,8|0,0:0|0:0,0:0:0:0:
84,179,18683,1,8,0:3:0:0:
209,197,18830,1,8,0:3:0:0:
80,243,18977,2,0,L|75:334,1,90,8|0,0:0|0:0,0:0:0:0:
349,173,19271,6,0,L|231:164,1,90,8|0,0:3|0:0,0:0:0:0:
35,154,19565,2,0,L|31:62,1,90,8|0,0:0|0:0,0:0:0:0:
170,45,19860,1,8,0:3:0:0:
30,27,20007,1,0,0:0:0:0:
174,114,20154,2,0,L|69:120,1,90,8|8,0:0|0:3,0:0:0:0:
356,141,20448,6,0,L|450:137,2,90,0|8|8,0:0|0:3|0:0,0:0:0:0:
130,155,20889,2,0,L|129:262,1,90,0|8,0:0|0:3,0:0:0:0:
267,247,21183,1,0,0:0:0:0:
42,103,21330,2,0,L|145:98,1,90,8|0,0:0|0:0,0:0:0:0:
401,289,21624,6,0,L|402:188,1,90,8|0,0:3|0:0,0:0:0:0:
260,188,21918,2,0,L|156:179,1,90,8|0,0:0|0:0,0:0:0:0:
314,126,22212,1,8,0:3:0:0:
87,118,22360,1,0,0:0:0:0:
222,113,22507,2,0,L|225:10,1,90,8|0,0:0|0:0,0:0:0:0:
475,30,22801,6,0,L|481:143,1,90,8|8,0:3|0:3,0:0:0:0:
252,186,23095,2,0,L|150:189,1,90,8|0,0:0|0:0,0:0:0:0:
389,226,23389,1,8,0:3:0:0:
253,229,23536,1,8,0:3:0:0:
249,293,23683,1,8,0:0:0:0:
343,309,23830,1,0,0:0:0:0:
67,254,23977,6,0,L|64:155,1,90,8|0,0:3|0:0,0:0:0:0:
292,142,24271,2,0,L|386:137,1,90,8|0,0:0|0:0,0:0:0:0:
240,84,24566,1,8,0:3:0:0:
373,80,24713,1,0,0:0:0:0:
234,147,24860,2,0,L|142:155,1,90,8|8,0:0|0:3,0:0:0:0:
404,185,25153,6,0,L|408:283,1,90,0|8,0:0|0:3,0:0:0:0:
273,289,25448,1,8,0:0:0:0:
408,309,25595,2,0,L|411:214,1,90,0|8,0:0|0:3,0:0:0:0:
173,91,25889,1,0,0:0:0:0:
399,73,26036,2,0,L|495:75,1,90,8|0,0:0|0:0,0:0:0:0:
131,265,26330,6,0,L|31:262,1,90,8|0,0:3|0:0,0:0:0:0:
179,229,26624,2,0,L|281:219,1,90,8|0,0:0|0:0,0:0:0:0:
132,124,26918,1,8,0:3:0:0:
361,184,27066,1,0,0:0:0:0:
233,178,27213,2,0,L|221:293,1,90,8|0,0:0|0:0,0:0:0:0:
491,46,27507,6,0,L|364:46,1,90,8|8,0:3|0:3,0:0:0:0:
179,80,27801,2,0,L|175:177,1,90,8|0,0:0|0:0,0:0:0:0:
310,183,28095,2,0,L|412:186,1,90,8|8,0:3|0:3,0:0:0:0:
165,280,28389,2,0,L|65:286,1,90,8|0,0:0|0:0,0:0:0:0:
357,288,28683,5,4,0:0:0:0:
226,214,28977,1,2,0:0:0:0:
437,198,29271,1,2,0:0:0:0:
196,172,29565,2,0,L|191:82,1,80.9999975280763
338,76,29859,5,2,0:0:0:0:
469,83,30153,1,2,0:0:0:0:
258,149,30448,1,2,0:0:0:0:
386,166,30742,1,0,0:0:0:0:
168,270,31036,5,2,0:0:0:0:
302,273,31330,1,2,0:0:0:0:
89,198,31624,1,2,0:0:0:0:
317,200,31918,2,0,L|321:104,1,80.9999975280763
175,100,32212,5,2,0:0:0:0:
308,91,32506,1,2,0:0:0:0:
79,98,32800,1,2,0:0:0:0:
213,160,33095,2,0,L|212:249,1,80.9999975280763
343,240,33389,5,2,0:0:0:0:
212,259,33683,1,2,0:0:0:0:
417,260,33977,1,2,0:0:0:0:
223,271,34271,2,0,L|221:363,1,80.9999975280763
355,342,34565,6,0,P|397:322|416:210,1,161.999995056153,2|2,0:0|0:0,0:0:0:0:
226,229,35153,1,2,0:0:0:0:
356,212,35448,1,0,0:0:0:0:
111,214,35742,6,0,P|73:198|115:110,1,161.999995056153,2|2,0:0|0:0,0:0:0:0:
305,104,36330,1,2,0:0:0:0:
166,103,36624,1,0,0:0:0:0:
410,129,36918,6,0,L|492:130,1,80.9999975280763,2|0,0:0|0:0,0:0:0:0:
352,269,37212,2,0,P|303:248|436:214,1,404.999987640381
175,268,38095,6,0,P|114:201|179:177,1,180,10|0,0:3|0:0,0:0:0:0:
327,175,38536,2,0,L|332:79,1,90,2|8,0:0|0:3,0:0:0:0:
180,85,38830,2,0,L|77:82,2,90
416,317,39271,6,0,P|467:291|407:209,1,180,10|0,0:3|0:0,0:0:0:0:
277,214,39712,2,0,L|154:211,2,90,2|8|0,0:0|0:3|0:0,0:0:0:0:
133,202,40153,2,0,L|126:86,1,90
373,285,40448,6,0,P|370:231|246:169,1,180,10|0,0:3|0:0,0:0:0:0:
408,160,40889,2,0,L|412:64,1,90,2|8,0:0|0:3,0:0:0:0:
276,72,41183,1,0,0:0:0:0:
409,62,41330,2,0,L|505:58,1,90
246,196,41624,6,0,P|183:222|253:277,1,180,10|0,0:3|0:0,0:0:0:0:
385,280,42065,2,0,L|478:279,2,90,2|8|0,0:0|0:3|0:0,0:0:0:0:
234,285,42506,2,0,L|131:288,1,90
407,240,42800,6,0,P|463:216|391:145,1,180,10|0,0:3|0:0,0:0:0:0:
282,140,43242,1,2,0:0:0:0:
419,128,43389,2,0,L|422:35,1,90,8|0,0:3|0:0,0:0:0:0:
200,50,43683,2,0,L|102:48,1,90
336,148,43977,5,10,0:3:0:0:
103,155,44271,2,0,L|98:250,1,90,0|2,0:0|0:0,0:0:0:0:
244,252,44565,2,0,L|339:254,1,90,8|0,0:3|0:0,0:0:0:0:
199,254,44859,2,0,L|192:345,1,90
418,252,45153,6,0,L|423:351,1,90,10|0,0:3|0:0,0:0:0:0:
197,337,45448,1,0,0:0:0:0:
324,334,45595,1,2,0:0:0:0:
195,281,45742,2,0,L|189:182,1,90,8|0,0:3|0:0,0:0:0:0:
323,192,46036,2,0,L|428:189,1,90
126,200,46330,6,0,L|119:95,1,90,10|0,0:3|0:0,0:0:0:0:
261,154,46624,2,0,L|263:63,1,90,10|0,0:3|0:0,0:0:0:0:
487,145,46918,2,0,L|490:55,1,90,10|0,0:3|0:0,0:0:0:0:
243,61,47212,2,0,L|152:59,1,90,10|0,0:3|0:0,0:0:0:0:
462,198,47506,6,0,L|456:306,1,99.0000030212403,4|0,0:0|0:0,0:0:0:0:
210,302,47800,1,8,0:0:0:0:
349,312,47948,2,0,L|454:315,2,99.0000030212403,0|8|0,0:0|0:3|0:0,0:0:0:0:
119,271,48389,2,0,L|17:272,1,99.0000030212403,8|0,0:0|0:0,0:0:0:0:
316,230,48683,6,0,L|419:226,1,99.0000030212403,8|0,0:3|0:0,0:0:0:0:
168,142,48977,1,8,0:0:0:0:
391,121,49124,1,0,0:0:0:0:
256,136,49271,2,0,L|250:245,1,99.0000030212403,8|0,0:3|0:0,0:0:0:0:
470,222,49565,2,0,L|475:325,1,99.0000030212403,8|0,0:0|0:0,0:0:0:0:
199,333,49859,5,8,0:3:0:0:
418,327,50006,1,0,0:0:0:0:
200,278,50153,1,8,0:0:0:0:
358,276,50300,1,0,0:0:0:0:
108,270,50448,2,0,L|101:160,1,99.0000030212403,8|0,0:3|0:0,0:0:0:0:
334,142,50742,1,8,0:0:0:0:
90,126,50889,1,0,0:0:0:0:
372,95,51036,6,0,L|476:92,1,99.0000030212403,8|0,0:3|0:0,0:0:0:0:
218,165,51330,1,8,0:0:0:0:
441,170,51477,2,0,L|445:277,1,99.0000030212403,0|8,0:0|0:3,0:0:0:0:
344,277,51771,1,0,0:0:0:0:
113,216,51918,2,0,L|101:316,1,99.0000030212403,8|0,0:0|0:0,0:0:0:0:
359,323,52212,6,0,L|361:207,1,99.0000030212403,8|0,0:3|0:0,0:0:0:0:
221,219,52506,1,8,0:0:0:0:
467,178,52653,2,0,L|343:170,2,99.0000030212403,0|8|0,0:0|0:3|0:0,0:0:0:0:
239,155,53095,2,0,L|136:151,1,99.0000030212403,8|0,0:0|0:0,0:0:0:0:
391,150,53389,6,0,L|396:45,1,99.0000030212403,8|0,0:3|0:0,0:0:0:0:
176,57,53683,1,8,0:0:0:0:
391,35,53830,2,0,L|490:32,2,99.0000030212403,0|8|0,0:0|0:3|0:0,0:0:0:0:
251,61,54271,2,0,L|258:161,1,99.0000030212403,8|0,0:0|0:0,0:0:0:0:
16,176,54565,5,8,0:3:0:0:
236,195,54712,1,0,0:0:0:0:
18,219,54859,2,0,L|21:332,1,99.0000030212403,8|0,0:0|0:0,0:0:0:0:
270,301,55153,1,8,0:3:0:0:
49,305,55300,1,0,0:0:0:0:
276,346,55448,2,0,L|391:350,1,99.0000030212403,8|0,0:0|0:0,0:0:0:0:
98,263,55742,6,0,L|94:152,1,99.0000030212403,8|0,0:3|0:0,0:0:0:0:
237,220,56036,2,0,L|238:119,1,99.0000030212403,8|0,0:0|0:0,0:0:0:0:
387,176,56330,2,0,L|480:109,1,99.0000030212403,8|0,0:3|0:0,0:0:0:0:
233,90,56624,2,0,L|118:87,1,99.0000030212403,8|0,0:0|0:0,0:0:0:0:
416,187,56918,6,0,L|421:292,1,99.0000030212403,8|0,0:3|0:0,0:0:0:0:
278,286,57212,1,8,0:0:0:0:
496,304,57359,2,0,L|398:306,2,99.0000030212403,0|8|0,0:0|0:3|0:0,0:0:0:0:
267,329,57800,2,0,L|165:332,1,99.0000030212403,8|0,0:0|0:0,0:0:0:0:
470,243,58095,6,0,L|470:141,1,99.0000030212403,8|0,0:3|0:0,0:0:0:0:
247,143,58389,1,8,0:0:0:0:
475,104,58536,1,0,0:0:0:0:
344,100,58683,2,0,L|220:93,1,99.0000030212403,8|0,0:3|0:0,0:0:0:0:
391,154,58977,2,0,L|397:258,1,99.0000030212403,8|0,0:0|0:0,0:0:0:0:
94,311,59271,5,8,0:3:0:0:
313,305,59418,1,0,0:0:0:0:
95,256,59565,1,8,0:0:0:0:
245,249,59712,1,0,0:0:0:0:
493,244,59860,2,0,L|495:132,1,99.0000030212403,8|0,0:3|0:0,0:0:0:0:
272,132,60154,1,8,0:0:0:0:
476,115,60301,1,0,0:0:0:0:
178,91,60448,6,0,P|116:181|180:237,1,198.000006042481,8|8,0:3|0:0,0:0:0:0:
383,211,60889,1,0,0:0:0:0:
243,223,61036,2,0,L|240:327,1,99.0000030212403,8|0,0:3|0:0,0:0:0:0:
455,250,61330,2,0,L|461:351,1,99.0000030212403,8|0,0:0|0:0,0:0:0:0:
196,343,61624,6,0,L|94:345,1,99.0000030212403,8|0,0:3|0:0,0:0:0:0:
308,288,61918,1,8,0:0:0:0:
96,283,62065,2,0,L|196:279,2,99.0000030212403,0|8|0,0:0|0:3|0:0,0:0:0:0:
300,200,62506,2,0,L|189:195,1,99.0000030212403,8|0,0:0|0:0,0:0:0:0:
470,196,62800,6,0,L|471:96,1,99.0000030212403,8|0,0:3|0:0,0:0:0:0:
251,95,63095,1,8,0:0:0:0:
30,93,63242,2,0,L|27:199,1,99.0000030212403,0|8,0:0|0:3,0:0:0:0:
126,196,63536,1,0,0:0:0:0:
266,257,63683,2,0,L|166:261,1,99.0000030212403,8|0,0:0|0:0,0:0:0:0:
455,261,63977,5,8,0:3:0:0:
235,269,64124,1,0,0:0:0:0:
448,215,64271,2,0,L|339:209,1,99.0000030212403,8|0,0:0|0:0,0:0:0:0:
86,206,64565,1,8,0:3:0:0:
307,177,64712,1,0,0:0:0:0:
85,160,64859,2,0,L|79:56,1,99.0000030212403,8|0,0:0|0:0,0:0:0:0:
350,47,65153,6,0,L|358:148,1,99.0000030212403,8|0,0:3|0:0,0:0:0:0:
217,151,65448,1,8,0:0:0:0:
441,143,65595,2,0,P|481:178|416:290,1,198.000006042481
287,279,66036,2,0,L|392:283,1,99.0000030212403,8|0,0:0|0:0,0:0:0:0:
115,278,66330,6,0,L|112:180,1,90,4|0,0:0|0:0,0:0:0:0:
322,188,66624,2,0,L|420:186,1,90,8|0,0:0|0:0,0:0:0:0:
276,175,66918,2,0,L|272:80,1,90,8|0,0:3|0:0,0:0:0:0:
401,77,67212,1,8,0:0:0:0:
267,76,67359,1,8,0:3:0:0:
18,83,67506,6,0,L|20:201,1,90,0|8,0:0|0:3,0:0:0:0:
120,183,67800,1,8,0:0:0:0:
337,200,67948,2,0,L|340:108,1,90,0|8,0:0|0:3,0:0:0:0:
205,110,68242,1,0,0:0:0:0:
421,191,68389,2,0,L|423:100,1,90,8|0,0:0|0:0,0:0:0:0:
156,279,68683,6,0,L|56:276,1,90,8|0,0:3|0:0,0:0:0:0:
204,243,68977,2,0,L|315:241,1,90,8|0,0:0|0:0,0:0:0:0:
156,217,69271,1,8,0:3:0:0:
385,212,69419,1,0,0:0:0:0:
249,198,69566,2,0,L|146:194,1,90,8|8,0:0|0:3,0:0:0:0:
428,58,69860,6,0,L|431:169,1,90,0|8,0:0|0:3,0:0:0:0:
220,134,70154,2,0,L|118:137,1,90,8|0,0:0|0:0,0:0:0:0:
353,216,70448,2,0,L|354:117,1,90,8|8,0:3|0:3,0:0:0:0:
222,260,70742,1,8,0:0:0:0:
357,278,70889,1,0,0:0:0:0:
80,96,71036,6,0,L|81:216,1,90,8|0,0:3|0:0,0:0:0:0:
310,183,71330,2,0,L|320:91,1,90,8|0,0:0|0:0,0:0:0:0:
191,76,71625,1,8,0:3:0:0:
323,57,71772,1,0,0:0:0:0:
186,140,71919,2,0,L|94:148,1,90,8|8,0:0|0:3,0:0:0:0:
364,145,72212,6,0,L|454:140,2,90,0|8|8,0:0|0:3|0:0,0:0:0:0:
140,117,72654,2,0,L|139:209,1,90,0|8,0:0|0:3,0:0:0:0:
268,158,72948,1,0,0:0:0:0:
42,140,73095,2,0,L|38:236,1,90,8|0,0:0|0:0,0:0:0:0:
311,280,73389,6,0,L|411:277,1,90,8|0,0:3|0:0,0:0:0:0:
263,244,73683,2,0,L|261:147,1,90,8|0,0:0|0:0,0:0:0:0:
398,140,73977,1,8,0:3:0:0:
180,149,74125,1,0,0:0:0:0:
318,184,74272,2,0,L|319:88,1,90,8|8,0:0|0:3,0:0:0:0:
57,58,74566,6,0,L|48:154,1,90,0|8,0:0|0:3,0:0:0:0:
274,120,74860,2,0,L|370:126,1,90,8|0,0:0|0:0,0:0:0:0:
139,175,75154,1,8,0:3:0:0:
264,193,75301,1,8,0:3:0:0:
135,239,75448,2,0,L|130:330,1,90,8|0,0:0|0:0,0:0:0:0:
401,307,75742,6,0,L|503:303,1,90,8|0,0:3|0:0,0:0:0:0:
264,273,76036,2,0,L|260:181,1,90,8|0,0:0|0:0,0:0:0:0:
399,164,76331,1,8,0:3:0:0:
259,146,76478,1,0,0:0:0:0:
403,233,76625,2,0,L|496:234,1,90,8|8,0:0|0:3,0:0:0:0:
224,67,76919,6,0,L|130:63,2,90,0|8|8,0:0|0:3|0:0,0:0:0:0:
451,81,77360,2,0,L|452:188,1,90,0|8,0:0|0:3,0:0:0:0:
317,186,77654,1,0,0:0:0:0:
88,189,77801,2,0,L|80:96,1,90,8|0,0:0|0:0,0:0:0:0:
350,287,78095,6,0,L|453:292,1,90,8|0,0:3|0:0,0:0:0:0:
303,268,78389,2,0,L|300:161,1,90,8|0,0:0|0:0,0:0:0:0:
159,181,78683,1,8,0:3:0:0:
390,153,78831,1,0,0:0:0:0:
249,127,78978,2,0,L|146:124,1,90,8|8,0:0|0:3,0:0:0:0:
430,194,79272,6,0,L|437:299,1,90,0|8,0:0|0:3,0:0:0:0:
210,309,79566,2,0,L|108:312,1,90,8|0,0:0|0:0,0:0:0:0:
345,203,79860,1,8,0:3:0:0:
209,206,80007,1,8,0:3:0:0:
301,234,80154,1,8,0:0:0:0:
393,266,80301,1,0,0:0:0:0:
121,290,80448,6,0,L|118:191,1,90,8|0,0:3|0:0,0:0:0:0:
337,172,80742,2,0,L|342:66,1,90,8|0,0:0|0:0,0:0:0:0:
208,52,81037,1,8,0:3:0:0:
341,48,81184,1,0,0:0:0:0:
202,115,81331,2,0,L|110:123,1,90,8|8,0:0|0:3,0:0:0:0:
380,184,81624,6,0,L|384:282,1,90,0|8,0:0|0:3,0:0:0:0:
246,290,81919,1,8,0:0:0:0:
386,307,82066,2,0,L|477:310,1,90,0|8,0:0|0:3,0:0:0:0:
243,145,82360,1,0,0:0:0:0:
469,86,82507,2,0,L|473:184,1,90,8|0,0:0|0:0,0:0:0:0:
203,64,82801,6,0,L|103:61,1,90,8|0,0:3|0:0,0:0:0:0:
251,109,83095,2,0,L|260:225,1,90,8|0,0:0|0:0,0:0:0:0:
121,160,83389,1,8,0:3:0:0:
350,220,83537,1,0,0:0:0:0:
222,214,83684,2,0,L|210:329,1,90,8|8,0:0|0:3,0:0:0:0:
480,82,83978,6,0,L|353:82,1,90,0|8,0:0|0:3,0:0:0:0:
168,116,84272,2,0,L|164:213,1,90,8|0,0:0|0:0,0:0:0:0:
299,219,84566,2,0,L|190:225,1,90,8|8,0:3|0:3,0:0:0:0:
434,236,84860,2,0,L|440:325,1,90,8|0,0:0|0:0,0:0:0:0:
196,331,85153,6,0,P|156:309|208:227,1,161.999995056153,4|0,0:0|0:0,0:0:0:0:
282,222,85595,1,8,0:3:0:0:
159,196,85742,1,8,0:0:0:0:
386,175,86036,2,0,L|389:90,1,80.9999975280763,8|0,0:3|0:0,0:0:0:0:
247,90,86330,6,0,L|91:170,2,161.999995056153,0|8|8,0:0|0:3|0:0,0:0:0:0:
49,133,87212,1,0,0:0:0:0:
275,253,87506,6,0,P|301:220|222:137,1,161.999995056153,8|0,0:3|0:0,0:0:0:0:
162,140,87948,1,8,0:3:0:0:
309,94,88095,1,8,0:0:0:0:
227,88,88242,1,0,0:0:0:0:
145,79,88389,1,8,0:3:0:0:
137,154,88536,1,0,0:0:0:0:
284,303,88683,6,0,L|452:312,2,161.999995056153,0|8|8,0:0|0:3|0:0,0:0:0:0:
108,308,89565,2,0,L|106:218,1,80.9999975280763
253,241,89859,6,0,P|293:224|238:148,1,161.999995056153,8|0,0:3|0:0,0:0:0:0:
165,144,90300,1,8,0:3:0:0:
313,123,90448,2,0,L|478:119,1,161.999995056153,8|8,0:0|0:3,0:0:0:0:
478,61,90889,1,0,0:0:0:0:
341,62,91036,6,0,L|161:59,1,161.999995056153,0|8,0:0|0:3,0:0:0:0:
367,128,91624,1,8,0:0:0:0:
204,141,91918,1,0,0:0:0:0:
431,167,92212,6,0,L|441:338,1,161.999995056153,8|0,0:3|0:0,0:0:0:0:
359,330,92653,1,8,0:3:0:0:
214,301,92800,2,0,L|385:289,1,161.999995056153,8|8,0:0|0:3,0:0:0:0:
146,240,93389,6,0,P|106:217|163:138,1,161.999995056153,8|8,0:3|0:0,0:0:0:0:
299,139,93830,2,0,P|348:218|238:298,1,242.999992584229,0|8,0:0|0:0,0:0:0:0:
398,313,94418,1,8,0:0:0:0:
155,308,94565,6,0,P|59:275|36:196,1,180,10|0,0:3|0:0,0:0:0:0:
124,194,95006,1,2,0:0:0:0:
287,184,95153,2,0,L|287:86,1,90,8|0,0:0|0:0,0:0:0:0:
191,83,95448,2,0,L|95:77,1,90
328,259,95742,6,0,P|375:241|323:152,1,180,10|0,0:3|0:0,0:0:0:0:
241,148,96183,1,2,0:0:0:0:
405,128,96330,2,0,L|496:118,1,90,8|0,0:0|0:0,0:0:0:0:
349,63,96624,2,0,L|447:55,1,90
205,53,96918,6,0,P|202:120|305:174,1,180,10|0,0:3|0:0,0:0:0:0:
127,189,97359,2,0,L|37:192,1,90,2|8,0:0|0:0,0:0:0:0:
191,246,97653,2,0,L|193:341,1,90
100,341,97948,1,0,0:0:0:0:
353,327,98095,6,0,P|401:295|343:201,1,180,10|0,0:3|0:0,0:0:0:0:
191,192,98536,2,0,L|187:94,1,90,2|8,0:0|0:0,0:0:0:0:
279,90,98830,1,0,0:0:0:0:
115,75,98977,2,0,L|24:71,1,90,8|0,0:3|0:0,0:0:0:0:
268,151,99271,6,0,L|271:331,1,180,10|0,0:3|0:0,0:0:0:0:
117,322,99712,2,0,L|22:323,2,90,2|8|0,0:0|0:0|0:0,0:0:0:0:
271,320,100153,2,0,L|363:318,1,90
106,254,100448,6,0,P|55:220|122:145,1,180,10|0,0:3|0:0,0:0:0:0:
274,132,100889,2,0,L|278:40,1,90,2|8,0:0|0:0,0:0:0:0:
187,34,101183,1,0,0:0:0:0:
349,35,101330,2,0,L|353:135,1,90
110,74,101624,6,0,P|102:138|199:196,1,180,10|0,0:3|0:0,0:0:0:0:
279,193,102065,1,2,0:0:0:0:
129,214,102212,2,0,L|126:310,1,90,8|0,0:0|0:0,0:0:0:0:
278,257,102506,2,0,L|372:262,1,90
140,312,102800,6,0,L|45:317,1,90,10|0,0:0|0:0,0:0:0:0:
189,266,103095,1,10,0:3:0:0:
51,259,103242,1,8,0:0:0:0:
278,222,103389,2,0,L|388:219,1,90,10|0,0:3|0:0,0:0:0:0:
145,165,103683,2,0,L|31:159,1,90,10|0,0:0|0:0,0:0:0:0:
363,120,103977,6,0,L|368:223,1,99.0000030212403,4|0,0:0|0:0,0:0:0:0:
139,233,104271,1,8,0:0:0:0:
282,227,104418,2,0,L|293:338,1,99.0000030212403,0|8,0:0|0:3,0:0:0:0:
196,338,104712,1,0,0:0:0:0:
445,311,104860,2,0,L|457:205,1,99.0000030212403,8|0,0:0|0:0,0:0:0:0:
154,185,105154,6,0,L|44:178,1,99.0000030212403,8|0,0:3|0:0,0:0:0:0:
268,147,105448,1,8,0:0:0:0:
45,126,105595,1,0,0:0:0:0:
183,90,105742,2,0,L|296:86,1,99.0000030212403,8|0,0:3|0:0,0:0:0:0:
42,156,106036,2,0,L|37:259,1,99.0000030212403,8|0,0:0|0:0,0:0:0:0:
313,267,106330,5,8,0:3:0:0:
87,264,106477,1,0,0:0:0:0:
312,212,106624,1,8,0:0:0:0:
163,210,106771,1,0,0:0:0:0:
399,194,106919,2,0,L|501:192,1,99.0000030212403,8|0,0:3|0:0,0:0:0:0:
249,134,107213,1,8,0:0:0:0:
493,118,107360,1,0,0:0:0:0:
140,95,107506,6,0,L|36:92,1,99.0000030212403,8|0,0:3|0:0,0:0:0:0:
289,68,107800,1,8,0:0:0:0:
69,137,107948,2,0,L|62:237,1,99.0000030212403,0|8,0:0|0:3,0:0:0:0:
214,243,108242,1,0,0:0:0:0:
462,257,108389,2,0,L|356:258,1,99.0000030212403,8|0,0:0|0:0,0:0:0:0:
63,319,108683,6,0,L|61:203,1,99.0000030212403,8|0,0:3|0:0,0:0:0:0:
204,213,108977,1,8,0:0:0:0:
451,180,109124,1,0,0:0:0:0:
448,75,109271,2,0,L|343:61,1,99.0000030212403,8|0,0:3|0:0,0:0:0:0:
118,71,109566,2,0,L|15:67,1,99.0000030212403,8|0,0:0|0:0,0:0:0:0:
318,330,109860,6,0,L|323:225,1,99.0000030212403,8|0,0:3|0:0,0:0:0:0:
98,236,110154,1,8,0:0:0:0:
318,215,110301,2,0,L|417:212,2,99.0000030212403,0|8|0,0:0|0:3|0:0,0:0:0:0:
172,121,110742,2,0,L|162:14,1,99.0000030212403,8|0,0:0|0:0,0:0:0:0:
462,153,111036,5,8,0:3:0:0:
242,172,111183,1,0,0:0:0:0:
460,196,111330,2,0,L|356:207,1,99.0000030212403,8|0,0:0|0:0,0:0:0:0:
112,228,111624,1,8,0:3:0:0:
329,260,111771,1,0,0:0:0:0:
102,346,111919,2,0,L|99:232,1,99.0000030212403,8|0,0:0|0:0,0:0:0:0:
414,263,112213,6,0,P|486:208|418:152,1,198.000006042481,8|8,0:3|0:0,0:0:0:0:
327,147,112653,1,0,0:0:0:0:
96,187,112801,2,0,L|87:74,1,99.0000030212403,8|0,0:3|0:0,0:0:0:0:
307,88,113095,2,0,L|422:85,1,99.0000030212403,8|0,0:0|0:0,0:0:0:0:
108,186,113389,6,0,L|228:192,1,99.0000030212403,8|0,0:3|0:0,0:0:0:0:
57,242,113683,1,8,0:0:0:0:
284,260,113830,2,0,L|382:262,2,99.0000030212403,0|8|0,0:0|0:3|0:0,0:0:0:0:
64,236,114271,2,0,L|55:338,1,99.0000030212403,8|0,0:0|0:0,0:0:0:0:
356,223,114566,6,0,L|468:220,1,99.0000030212403,8|0,0:3|0:0,0:0:0:0:
235,192,114860,1,8,0:0:0:0:
464,165,115007,1,0,0:0:0:0:
326,118,115154,2,0,L|323:224,1,99.0000030212403,8|0,0:3|0:0,0:0:0:0:
181,124,115448,2,0,L|103:47,1,99.0000030212403,8|0,0:0|0:0,0:0:0:0:
381,314,115742,5,8,0:3:0:0:
162,308,115889,1,0,0:0:0:0:
380,259,116036,1,8,0:0:0:0:
230,252,116183,1,0,0:0:0:0:
482,242,116331,2,0,L|377:227,1,99.0000030212403,8|0,0:3|0:0,0:0:0:0:
150,177,116625,1,8,0:0:0:0:
365,153,116772,1,0,0:0:0:0:
69,107,116919,6,0,P|71:177|191:238,1,198.000006042481,8|8,0:3|0:0,0:0:0:0:
389,223,117360,1,0,0:0:0:0:
158,236,117507,2,0,L|257:238,1,99.0000030212403,8|0,0:3|0:0,0:0:0:0:
406,192,117801,2,0,L|412:81,1,99.0000030212403,8|0,0:0|0:0,0:0:0:0:
101,228,118095,6,0,L|93:113,1,99.0000030212403,8|0,0:3|0:0,0:0:0:0:
322,282,118389,1,8,0:0:0:0:
182,283,118536,2,0,L|67:281,2,99.0000030212403,0|8|0,0:0|0:3|0:0,0:0:0:0:
412,235,118977,2,0,L|415:135,1,99.0000030212403,8|0,0:0|0:0,0:0:0:0:
144,166,119271,6,0,L|266:156,1,99.0000030212403,8|0,0:3|0:0,0:0:0:0:
23,136,119566,1,8,0:0:0:0:
276,118,119713,2,0,L|382:127,1,99.0000030212403,0|8,0:0|0:3,0:0:0:0:
386,196,120007,1,0,0:0:0:0:
246,257,120154,2,0,L|136:260,1,99.0000030212403,8|0,0:0|0:0,0:0:0:0:
448,303,120448,5,8,0:3:0:0:
222,310,120595,1,0,0:0:0:0:
441,257,120742,2,0,L|446:149,1,99.0000030212403,8|0,0:0|0:0,0:0:0:0:
173,240,121036,1,8,0:3:0:0:
394,211,121183,1,0,0:0:0:0:
172,194,121330,2,0,L|53:186,1,99.0000030212403,8|0,0:0|0:0,0:0:0:0:
369,74,121624,6,0,L|377:175,1,99.0000030212403,8|0,0:3|0:0,0:0:0:0:
236,178,121919,1,8,0:0:0:0:
460,170,122066,2,0,L|463:272,1,99.0000030212403,0|8,0:0|0:3,0:0:0:0:
326,268,122359,1,0,0:0:0:0:
466,278,122506,1,8,0:0:0:0:
326,268,122653,1,0,0:0:0:0:
51,279,122800,6,0,L|47:182,1,90,4|0,0:0|0:0,0:0:0:0:
266,163,123095,2,0,L|359:158,1,90,8|0,0:0|0:0,0:0:0:0:
229,217,123389,2,0,L|223:313,1,90,8|0,0:3|0:0,0:0:0:0:
351,309,123683,1,8,0:0:0:0:
219,332,123830,1,8,0:3:0:0:
462,82,123977,6,0,L|460:200,1,90,0|8,0:0|0:3,0:0:0:0:
369,172,124271,1,8,0:0:0:0:
144,185,124418,1,0,0:0:0:0:
280,202,124565,2,0,L|287:309,1,90,8|0,0:3|0:0,0:0:0:0:
56,302,124860,2,0,L|53:211,1,90,8|0,0:0|0:0,0:0:0:0:
295,276,125153,6,0,L|394:274,1,90,8|0,0:3|0:0,0:0:0:0:
254,227,125448,1,8,0:0:0:0:
378,221,125595,1,0,0:0:0:0:
162,198,125742,2,0,L|155:98,1,90,8|0,0:3|0:0,0:0:0:0:
281,98,126036,1,8,0:0:0:0:
151,76,126183,1,8,0:3:0:0:
397,72,126330,6,0,L|491:67,1,90,0|8,0:0|0:3,0:0:0:0:
261,165,126624,1,8,0:0:0:0:
387,184,126771,1,0,0:0:0:0:
162,228,126918,2,0,L|67:237,1,90,8|8,0:3|0:3,0:0:0:0:
209,316,127212,2,0,L|119:321,1,90,8|0,0:0|0:0,0:0:0:0:
401,313,127506,6,0,L|405:217,1,90,8|0,0:3|0:0,0:0:0:0:
176,215,127801,2,0,L|299:202,1,90,8|0,0:0|0:0,0:0:0:0:
144,174,128095,2,0,L|141:71,1,90,8|0,0:3|0:0,0:0:0:0:
267,105,128389,1,8,0:0:0:0:
135,128,128536,1,8,0:3:0:0:
382,16,128683,6,0,L|390:115,1,90,0|8,0:0|0:3,0:0:0:0:
253,149,128977,1,8,0:0:0:0:
465,154,129124,1,0,0:0:0:0:
347,190,129271,2,0,L|339:298,1,90,8|0,0:3|0:0,0:0:0:0:
129,212,129566,2,0,L|33:216,1,90,8|0,0:0|0:0,0:0:0:0:
295,276,129859,6,0,L|394:274,1,90,8|0,0:3|0:0,0:0:0:0:
165,234,130154,1,8,0:0:0:0:
289,228,130301,1,0,0:0:0:0:
72,201,130448,2,0,L|65:101,1,90,8|0,0:3|0:0,0:0:0:0:
191,101,130742,1,8,0:0:0:0:
61,79,130889,1,8,0:3:0:0:
331,56,131036,6,0,L|339:161,1,90,0|8,0:0|0:3,0:0:0:0:
209,153,131330,1,8,0:0:0:0:
452,183,131477,1,0,0:0:0:0:
237,224,131624,2,0,L|333:232,1,90,8|8,0:3|0:3,0:0:0:0:
455,250,131918,2,0,L|463:343,1,90,8|0,0:0|0:0,0:0:0:0:
233,323,132212,6,0,L|136:325,1,90,8|0,0:3|0:0,0:0:0:0:
365,275,132506,2,0,P|411:259|357:167,1,180,8|8,0:0|0:3,0:0:0:0:
233,159,132948,1,0,0:0:0:0:
461,133,133095,2,0,L|470:41,1,90,8|8,0:0|0:3,0:0:0:0:
225,75,133389,6,0,L|132:72,1,90,0|8,0:0|0:3,0:0:0:0:
266,138,133683,1,8,0:0:0:0:
49,144,133830,2,0,L|42:238,1,90,0|8,0:0|0:3,0:0:0:0:
141,249,134124,1,0,0:0:0:0:
356,251,134271,2,0,L|461:253,1,90,8|0,0:0|0:0,0:0:0:0:
178,213,134565,6,0,L|177:103,1,90,8|0,0:3|0:0,0:0:0:0:
306,122,134859,1,8,0:0:0:0:
173,98,135006,1,0,0:0:0:0:
399,86,135153,1,8,0:3:0:0:
269,72,135300,2,0,L|171:68,2,90,0|8|8,0:0|0:0|0:3,0:0:0:0:
25,66,135742,5,0,0:0:0:0:
153,88,135889,2,0,L|56:92,1,90,8|8,0:3|0:0,0:0:0:0:
290,138,136183,2,0,L|297:233,1,90,0|8,0:0|0:3,0:0:0:0:
166,237,136477,1,8,0:3:0:0:
391,249,136624,2,0,L|482:250,1,90,8|0,0:0|0:0,0:0:0:0:
247,281,136918,6,0,L|243:185,1,90,8|0,0:3|0:0,0:0:0:0:
472,183,137213,2,0,L|349:170,1,90,8|0,0:0|0:0,0:0:0:0:
495,157,137507,2,0,L|498:54,1,90,8|0,0:3|0:0,0:0:0:0:
380,53,137801,1,8,0:0:0:0:
496,32,137948,1,8,0:3:0:0:
265,96,138095,6,0,L|151:97,1,90,0|8,0:0|0:3,0:0:0:0:
305,158,138389,1,8,0:0:0:0:
96,172,138536,1,0,0:0:0:0:
214,208,138683,2,0,L|222:316,1,90,8|0,0:3|0:0,0:0:0:0:
91,222,138978,2,0,L|82:335,1,90,8|0,0:0|0:0,0:0:0:0:
322,286,139271,6,0,L|421:284,1,90,8|0,0:3|0:0,0:0:0:0:
191,245,139566,1,8,0:0:0:0:
315,239,139713,1,0,0:0:0:0:
98,212,139860,2,0,L|91:112,1,90,8|0,0:3|0:0,0:0:0:0:
217,112,140154,1,8,0:0:0:0:
87,90,140301,1,8,0:3:0:0:
331,56,140448,6,0,L|339:161,1,90,0|8,0:0|0:3,0:0:0:0:
209,153,140742,1,8,0:0:0:0:
452,183,140889,1,0,0:0:0:0:
237,224,141036,2,0,L|128:237,1,90,8|8,0:3|0:3,0:0:0:0:
364,261,141330,2,0,L|472:270,1,90,8|0,0:0|0:0,0:0:0:0:
207,301,141624,6,0,P|93:268|259:83,1,485.999985168458,4|0,0:0|0:0,0:0:0:0:
456,87,142800,2,0,P|286:191|450:338,1,485.999985168458,2|0,0:0|0:0,0:0:0:0:
231,329,143977,6,0,L|32:328,1,161.999995056153,2|0,0:0|0:0,0:0:0:0:
279,246,144565,2,0,L|455:243,1,161.999995056153
209,196,145153,2,0,L|201:31,1,161.999995056153,2|0,0:0|0:0,0:0:0:0:
285,24,145595,1,0,0:0:0:0:
105,27,146036,1,0,0:0:0:0:
320,68,146330,6,0,P|423:93|269:278,1,485.999985168458,2|0,0:0|0:0,0:0:0:0:
58,282,147506,2,0,P|314:231|370:22,1,485.999985168458,2|0,0:0|0:0,0:0:0:0:
160,42,148683,6,0,L|357:59,1,161.999995056153,2|0,0:0|0:0,0:0:0:0:
88,104,149271,2,0,L|81:277,1,161.999995056153
301,74,149859,2,0,L|311:271,1,161.999995056153,2|0,0:0|0:0,0:0:0:0:
197,259,150300,2,0,P|133:223|204:100,1,242.999992584229
437,93,151036,6,0,L|191:223,2,270,2|0|0,0:0|0:0|0:0,0:0:0:0:
208,144,152212,2,0,P|163:188|270:325,1,270,2|0,0:0|0:0,0:0:0:0:
476,318,153095,1,0,0:0:0:0:
226,291,153389,6,0,L|223:103,1,180,2|0,0:0|0:0,0:0:0:0:
317,105,153830,1,0,0:0:0:0:
191,98,153977,2,0,L|8:90,1,180
265,166,154565,2,0,L|274:352,1,180,2|0,0:0|0:0,0:0:0:0:
148,348,155006,2,0,L|45:350,1,90,0|2,0:0|0:0,0:0:0:0:
221,332,155448,1,0,0:0:0:0:
455,246,155742,6,0,P|371:184|454:65,1,270,2|0,0:0|0:0,0:0:0:0:
136,70,156624,1,0,0:0:0:0:
362,72,156918,2,0,P|446:184|364:243,1,270,2|0,0:0|0:0,0:0:0:0:
117,255,157800,1,0,0:0:0:0:
368,262,158095,6,0,L|377:67,1,180,2|0,0:0|0:0,0:0:0:0:
286,81,158536,1,0,0:0:0:0:
158,241,158683,2,0,P|89:190|136:119,1,180,2|0,0:0|0:0,0:0:0:0:
488,251,159271,6,0,L|491:131,1,90,10|0,0:3|0:0,0:0:0:0:
353,178,159565,2,0,L|230:174,1,90,10|0,0:3|0:0,0:0:0:0:
478,52,159859,2,0,L|381:49,1,90,10|0,0:3|0:0,0:0:0:0:
166,44,160153,2,0,L|160:167,1,90,10|0,0:3|0:0,0:0:0:0:
462,127,160448,6,0,L|352:130,1,99.0000030212403,4|0,0:0|0:0,0:0:0:0:
135,152,160742,1,8,0:0:0:0:
276,158,160889,2,0,L|284:266,1,99.0000030212403,0|8,0:0|0:3,0:0:0:0:
186,269,161183,1,0,0:0:0:0:
444,257,161331,2,0,L|456:151,1,99.0000030212403,8|0,0:0|0:0,0:0:0:0:
154,185,161625,6,0,L|278:182,1,99.0000030212403,8|0,0:3|0:0,0:0:0:0:
20,140,161919,1,8,0:0:0:0:
269,119,162066,1,0,0:0:0:0:
367,106,162213,2,0,L|369:2,1,99.0000030212403,8|0,0:3|0:0,0:0:0:0:
136,30,162507,2,0,L|3:22,1,99.0000030212403,8|0,0:0|0:0,0:0:0:0:
313,267,162801,5,8,0:3:0:0:
87,264,162948,1,0,0:0:0:0:
312,212,163095,1,8,0:0:0:0:
163,210,163242,1,0,0:0:0:0:
399,194,163390,2,0,L|403:80,1,99.0000030212403,8|0,0:3|0:0,0:0:0:0:
159,70,163684,1,8,0:0:0:0:
403,54,163831,1,0,0:0:0:0:
109,92,163977,6,0,L|106:191,1,99.0000030212403,8|0,0:3|0:0,0:0:0:0:
344,192,164271,1,8,0:0:0:0:
98,236,164418,1,0,0:0:0:0:
192,232,164565,2,0,L|187:330,1,99.0000030212403,8|0,0:3|0:0,0:0:0:0:
418,201,164860,2,0,L|425:317,1,99.0000030212403,8|0,0:0|0:0,0:0:0:0:
143,186,165153,6,0,L|274:177,1,99.0000030212403,8|0,0:3|0:0,0:0:0:0:
100,152,165448,1,8,0:0:0:0:
359,146,165595,2,0,L|468:140,2,99.0000030212403,0|8|0,0:0|0:3|0:0,0:0:0:0:
129,134,166036,2,0,L|29:129,1,99.0000030212403,8|0,0:0|0:0,0:0:0:0:
330,47,166330,6,0,L|204:49,1,99.0000030212403,8|0,0:3|0:0,0:0:0:0:
465,67,166624,1,8,0:0:0:0:
202,112,166771,2,0,L|192:217,1,99.0000030212403,0|8,0:0|0:3,0:0:0:0:
282,230,167065,1,0,0:0:0:0:
135,272,167212,2,0,L|30:278,1,99.0000030212403,8|0,0:0|0:0,0:0:0:0:
462,153,167506,5,8,0:3:0:0:
242,172,167653,1,0,0:0:0:0:
460,196,167800,1,8,0:0:0:0:
321,199,167948,1,0,0:0:0:0:
454,270,168095,2,0,L|350:280,1,99.0000030212403,8|0,0:3|0:0,0:0:0:0:
120,298,168389,1,8,0:0:0:0:
366,329,168536,1,0,0:0:0:0:
89,231,168683,6,0,L|80:112,1,99.0000030212403,8|0,0:3|0:0,0:0:0:0:
381,119,168977,2,0,L|487:127,1,99.0000030212403,8|0,0:0|0:0,0:0:0:0:
339,171,169271,2,0,L|342:270,1,99.0000030212403,8|0,0:3|0:0,0:0:0:0:
488,192,169565,2,0,L|490:294,1,99.0000030212403,8|0,0:0|0:0,0:0:0:0:
225,291,169859,6,0,L|118:296,1,99.0000030212403,8|0,0:3|0:0,0:0:0:0:
266,252,170153,1,8,0:0:0:0:
29,261,170300,2,0,L|24:139,1,99.0000030212403,0|8,0:0|0:3,0:0:0:0:
125,157,170595,1,0,0:0:0:0:
375,157,170742,2,0,L|490:154,1,99.0000030212403,8|0,0:0|0:0,0:0:0:0:
190,109,171036,5,8,0:3:0:0:
437,100,171183,2,0,L|441:-4,1,99.0000030212403,0|8,0:0|0:0,0:0:0:0:
198,24,171477,2,0,L|84:29,2,99.0000030212403,0|8|0,0:0|0:3|0:0,0:0:0:0:
49,81,171918,2,0,L|42:187,1,99.0000030212403,8|0,0:0|0:0,0:0:0:0:
313,267,172212,5,8,0:3:0:0:
84,263,172359,1,0,0:0:0:0:
312,212,172506,1,8,0:0:0:0:
448,200,172653,1,0,0:0:0:0:
212,183,172801,2,0,L|81:175,1,99.0000030212403,8|0,0:3|0:0,0:0:0:0:
367,44,173095,1,8,0:0:0:0:
123,28,173242,1,0,0:0:0:0:
417,66,173388,6,0,L|420:165,1,99.0000030212403,8|0,0:3|0:0,0:0:0:0:
182,166,173682,1,8,0:0:0:0:
427,210,173830,2,0,L|191:217,1,198.000006042481
375,157,174271,2,0,L|376:31,1,99.0000030212403,8|0,0:0|0:0,0:0:0:0:
79,174,174565,6,0,L|178:170,1,99.0000030212403,8|0,0:3|0:0,0:0:0:0:
330,191,174859,1,8,0:0:0:0:
104,218,175006,1,0,0:0:0:0:
198,223,175153,2,0,L|201:328,1,99.0000030212403,8|0,0:3|0:0,0:0:0:0:
50,322,175448,2,0,L|153:326,1,99.0000030212403,8|0,0:0|0:0,0:0:0:0:
432,192,175742,6,0,L|438:82,1,99.0000030212403,8|0,0:3|0:0,0:0:0:0:
201,84,176036,1,8,0:0:0:0:
449,66,176183,1,0,0:0:0:0:
344,65,176330,2,0,L|339:175,1,99.0000030212403,8|0,0:3|0:0,0:0:0:0:
189,156,176624,2,0,L|178:266,1,99.0000030212403,8|0,0:0|0:0,0:0:0:0:
469,310,176918,5,8,0:3:0:0:
241,282,177065,1,0,0:0:0:0:
468,255,177212,1,8,0:0:0:0:
320,248,177359,1,0,0:0:0:0:
64,223,177507,2,0,P|78:152|203:98,1,198.000006042481,8|8,0:3|0:0,0:0:0:0:
435,99,177948,1,0,0:0:0:0:
136,80,178095,6,0,L|129:190,1,99.0000030212403,8|0,0:3|0:0,0:0:0:0:
277,174,178389,2,0,L|284:290,1,99.0000030212403,8|0,0:0|0:0,0:0:0:0:
35,283,178683,1,8,0:3:0:0:
266,261,178830,1,0,0:0:0:0:
141,226,178977,1,8,0:0:0:0:
16,224,179124,1,0,0:0:0:0:
314,213,179271,6,0,L|319:108,1,99.0000030212403,4|0,0:0|0:0,0:0:0:0:
173,98,179565,1,8,0:0:0:0:
400,48,179712,2,0,L|502:44,2,99.0000030212403,0|8|0,0:0|0:3|0:0,0:0:0:0:
166,123,180153,2,0,L|161:232,1,99.0000030212403,8|0,0:0|0:0,0:0:0:0:
435,226,180448,6,0,L|310:223,1,99.0000030212403,8|0,0:3|0:0,0:0:0:0:
85,185,180742,1,8,0:0:0:0:
365,173,180889,1,0,0:0:0:0:
369,71,181036,2,0,L|267:65,1,99.0000030212403,8|0,0:3|0:0,0:0:0:0:
496,64,181330,2,0,L|493:172,1,99.0000030212403,8|0,0:0|0:0,0:0:0:0:
171,304,181624,5,8,0:3:0:0:
390,298,181771,1,0,0:0:0:0:
172,249,181918,1,8,0:0:0:0:
330,247,182065,1,0,0:0:0:0:
80,241,182213,2,0,L|186:223,1,99.0000030212403,8|0,0:3|0:0,0:0:0:0:
450,171,182507,1,8,0:0:0:0:
206,155,182654,1,0,0:0:0:0:
496,128,182800,6,0,L|490:10,1,99.0000030212403,8|0,0:3|0:0,0:0:0:0:
232,31,183095,1,8,0:0:0:0:
459,35,183242,2,0,L|354:32,2,99.0000030212403,0|8|0,0:0|0:3|0:0,0:0:0:0:
310,99,183683,2,0,L|306:208,1,99.0000030212403,8|0,0:0|0:0,0:0:0:0:
16,192,183977,6,0,L|128:190,1,99.0000030212403,8|0,0:3|0:0,0:0:0:0:
263,197,184271,1,8,0:0:0:0:
32,224,184418,1,0,0:0:0:0:
172,273,184565,1,8,0:3:0:0:
30,281,184712,1,0,0:0:0:0:
278,259,184859,2,0,L|396:268,1,99.0000030212403,8|0,0:0|0:0,0:0:0:0:
79,223,185153,6,0,L|76:113,1,99.0000030212403,8|0,0:3|0:0,0:0:0:0:
326,119,185448,1,8,0:0:0:0:
96,70,185595,1,0,0:0:0:0:
195,68,185742,2,0,L|208:186,1,99.0000030212403,8|0,0:3|0:0,0:0:0:0:
58,179,186036,2,0,L|52:284,1,99.0000030212403,8|0,0:0|0:0,0:0:0:0:
399,128,186330,5,8,0:3:0:0:
179,147,186477,1,0,0:0:0:0:
451,178,186624,2,0,L|460:283,1,99.0000030212403,8|0,0:0|0:0,0:0:0:0:
234,290,186918,1,8,0:3:0:0:
466,307,187065,1,0,0:0:0:0:
214,216,187213,2,0,L|101:215,1,99.0000030212403,8|0,0:0|0:0,0:0:0:0:
411,215,187506,6,0,L|416:110,1,99.0000030212403,8|0,0:3|0:0,0:0:0:0:
185,118,187800,2,0,L|86:113,1,99.0000030212403,8|0,0:0|0:0,0:0:0:0:
235,112,188095,2,0,L|241:219,1,99.0000030212403,8|0,0:3|0:0,0:0:0:0:
19,146,188389,2,0,L|17:270,1,99.0000030212403,8|0,0:0|0:0,0:0:0:0:
311,249,188683,6,0,L|424:252,1,99.0000030212403,8|0,0:3|0:0,0:0:0:0:
170,224,188977,1,8,0:0:0:0:
444,210,189124,1,0,0:0:0:0:
354,199,189271,2,0,L|346:96,1,99.0000030212403,8|0,0:3|0:0,0:0:0:0:
88,88,189565,2,0,L|85:207,1,99.0000030212403,8|0,0:0|0:0,0:0:0:0:
376,78,189859,6,0,L|268:71,1,99.0000030212403,8|0,0:3|0:0,0:0:0:0:
48,48,190153,1,8,0:0:0:0:
305,139,190300,2,0,L|414:147,2,99.0000030212403,0|8|0,0:0|0:3|0:0,0:0:0:0:
447,185,190742,2,0,L|456:293,1,99.0000030212403,8|0,0:0|0:0,0:0:0:0:
156,309,191036,5,8,0:3:0:0:
385,288,191183,1,0,0:0:0:0:
157,254,191330,1,8,0:0:0:0:
299,248,191477,1,0,0:0:0:0:
52,202,191625,2,0,L|50:90,1,99.0000030212403,8|0,0:3|0:0,0:0:0:0:
273,90,191919,1,8,0:0:0:0:
69,73,192066,1,0,0:0:0:0:
368,72,192212,6,0,P|432:104|370:185,1,198.000006042481,8|8,0:3|0:0,0:0:0:0:
123,192,192653,2,0,L|20:197,2,99.0000030212403,0|8|0,0:0|0:3|0:0,0:0:0:0:
272,216,193095,2,0,L|160:220,1,99.0000030212403,8|0,0:0|0:0,0:0:0:0:
433,153,193389,6,0,L|438:263,1,99.0000030212403,8|0,0:3|0:0,0:0:0:0:
288,244,193683,1,8,0:0:0:0:
496,288,193830,2,0,L|364:286,2,99.0000030212403,0|8|0,0:0|0:3|0:0,0:0:0:0:
352,280,194271,2,0,L|345:173,1,99.0000030212403,8|0,0:0|0:0,0:0:0:0:
42,140,194565,6,0,L|35:256,1,99.0000030212403,8|0,0:3|0:0,0:0:0:0:
271,149,194859,1,8,0:0:0:0:
27,79,195006,1,0,0:0:0:0:
36,13,195153,2,0,L|169:8,1,99.0000030212403,8|0,0:3|0:0,0:0:0:0:
285,47,195448,2,0,L|163:54,1,99.0000030212403,8|0,0:0|0:0,0:0:0:0:
479,105,195742,5,8,0:3:0:0:
232,112,195889,1,0,0:0:0:0:
449,108,196036,1,8,0:0:0:0:
311,113,196183,1,0,0:0:0:0:
72,118,196330,2,0,L|65:219,1,99.0000030212403,8|0,0:3|0:0,0:0:0:0:
301,230,196624,1,8,0:0:0:0:
53,238,196771,1,0,0:0:0:0:
402,309,196918,6,0,P|443:280|388:168,1,198.000006042481,8|8,0:3|0:0,0:0:0:0:
140,153,197359,2,0,L|132:283,1,99.0000030212403,0|8,0:0|0:3,0:0:0:0:
273,200,197653,1,0,0:0:0:0:
129,200,197800,2,0,L|123:299,1,99.0000030212403,8|0,0:0|0:0,0:0:0:0:
397,167,198095,6,0,L|399:66,1,90,4|0,0:0|0:0,0:0:0:0:
261,159,198389,2,0,L|154:157,1,90,8|0,0:0|0:0,0:0:0:0:
307,95,198684,1,8,0:3:0:0:
167,77,198831,1,0,0:0:0:0:
311,211,198978,2,0,L|319:309,1,90,8|8,0:0|0:3,0:0:0:0:
93,295,199271,6,0,L|92:197,1,90,0|8,0:0|0:3,0:0:0:0:
227,294,199565,2,0,L|230:191,1,90,8|0,0:0|0:0,0:0:0:0:
367,208,199859,1,8,0:3:0:0:
138,163,200006,2,0,L|32:156,2,90,0|8|0,0:0|0:0|0:0,0:0:0:0:
383,162,200448,6,0,L|485:155,1,90,8|0,0:3|0:0,0:0:0:0:
332,112,200742,2,0,L|427:99,1,90,8|0,0:0|0:0,0:0:0:0:
196,111,201036,1,8,0:3:0:0:
323,147,201183,1,0,0:0:0:0:
190,157,201330,2,0,L|187:264,1,90,8|8,0:0|0:3,0:0:0:0:
458,248,201624,6,0,L|350:243,1,90,0|8,0:0|0:3,0:0:0:0:
141,241,201918,2,0,L|135:144,1,90,8|0,0:0|0:0,0:0:0:0:
366,147,202212,1,8,0:3:0:0:
245,141,202359,1,8,0:3:0:0:
370,113,202506,2,0,L|375:10,1,90,8|0,0:0|0:0,0:0:0:0:
128,32,202800,6,0,L|28:36,1,90,8|0,0:3|0:0,0:0:0:0:
177,95,203095,2,0,P|231:127|179:217,1,180,8|8,0:0|0:3,0:0:0:0:
62,218,203536,1,0,0:0:0:0:
291,283,203683,2,0,L|401:287,1,90,8|8,0:0|0:3,0:0:0:0:
127,287,203977,6,0,L|121:184,1,90,0|8,0:0|0:3,0:0:0:0:
256,218,204271,2,0,L|262:122,1,90,8|0,0:0|0:0,0:0:0:0:
37,110,204565,1,8,0:3:0:0:
280,83,204712,1,0,0:0:0:0:
174,73,204859,1,8,0:0:0:0:
66,63,205006,1,0,0:0:0:0:
327,135,205153,6,0,L|331:242,1,90,8|0,0:3|0:0,0:0:0:0:
194,194,205448,2,0,L|87:196,1,90,8|0,0:0|0:0,0:0:0:0:
317,260,205742,1,8,0:3:0:0:
183,265,205889,1,0,0:0:0:0:
325,259,206036,2,0,L|330:148,1,90,8|8,0:0|0:3,0:0:0:0:
69,160,206330,5,0,0:0:0:0:
277,167,206477,1,8,0:3:0:0:
59,125,206624,2,0,L|55:19,1,90,8|0,0:0|0:0,0:0:0:0:
284,51,206918,2,0,L|381:48,1,90,8|8,0:3|0:3,0:0:0:0:
230,98,207212,2,0,L|222:193,1,90,8|0,0:0|0:0,0:0:0:0:
450,193,207506,5,2,0:0:0:0:
