osu file format v14

[General]
AudioFilename: audio.mp3
AudioLeadIn: 0
PreviewTime: 47433
Countdown: 0
SampleSet: Soft
StackLeniency: 0.7
Mode: 2
LetterboxInBreaks: 0
WidescreenStoryboard: 1

[Editor]
Bookmarks: 9859,132212
DistanceSpacing: 1
BeatDivisor: 4
GridSize: 4
TimelineZoom: 1

[Metadata]
Title:Ai no Sukima
TitleUnicode:哀の隙間
Artist:MIMI
ArtistUnicode:MIMI
Creator:Greaper
Version:Nely's Salad
Source:osu!
Tags:xinely bastian jorkseljund 初音ミク miku hatsune feat. vocaloid japanese pop piano piapro 佐藤主税 sato chiiro featured artist fa mappers guild mpg
BeatmapID:2548628
BeatmapSetID:1197507

[Difficulty]
HPDrainRate:4
CircleSize:3
OverallDifficulty:7
ApproachRate:7
SliderMultiplier:1.35
SliderTickRate:1

[Events]
//Background and Video events
0,0,"bg.jpg"
//Break Periods
2,141824,150136
//Storyboard Layer 0 (Background)
//Storyboard Layer 1 (Fail)
//Storyboard Layer 2 (Pass)
//Storyboard Layer 3 (Foreground)
//Storyboard Layer 4 (Overlay)
//Storyboard Sound Samples

[TimingPoints]
448,294.117647058824,4,2,11,35,1,0
9859,-100,4,2,11,50,0,0
28683,-111.111111111111,4,2,11,45,0,0
38095,-100,4,2,11,55,0,0
46918,-100,4,2,11,60,0,0
47506,-100,4,2,11,65,0,1
66330,-100,4,2,11,50,0,0
85153,-111.111111111111,4,2,11,45,0,0
94565,-100,4,2,11,55,0,0
103389,-100,4,2,11,60,0,0
103977,-100,4,2,11,65,0,1
122800,-100,4,2,11,55,0,0
141624,-111.111111111111,4,2,11,45,0,0
151036,-100,4,2,11,50,0,0
159859,-100,4,2,11,55,0,0
160448,-100,4,2,11,65,0,1
179271,-100,4,2,11,70,0,1
198095,-100,4,2,11,60,0,0
207506,-100,4,2,11,45,0,0

[Colours]
Combo1 : 234,231,106
Combo2 : 106,170,234
Combo3 : 234,106,189
Combo4 : 105,105,235

[HitObjects]
117,153,448,6,0,L|68:89,2,67.5,2|0|0,0:0|0:0|0:0,0:0:0:0:
250,164,1036,2,0,P|314:152|380:183,1,135
268,163,1624,2,0,L|268:21,1,135,2|0,0:0|0:0,0:0:0:0:
402,327,2212,1,0,0:0:0:0:
466,277,2359,1,0,0:0:0:0:
467,193,2506,1,0,0:0:0:0:
397,154,2653,1,0,0:0:0:0:
298,158,2800,6,0,L|152:159,2,135,2|0|0,0:0|0:0|0:0,0:0:0:0:
364,155,3536,2,0,L|366:237,1,67.5
238,267,3977,2,0,L|160:268,2,67.5,2|0|0,0:0|0:0|0:0,0:0:0:0:
372,271,4565,1,2,0:0:0:0:
132,117,5153,6,0,L|64:117,2,67.5,2|0|0,0:0|0:0|0:0,0:0:0:0:
267,117,5742,2,0,L|124:117,1,135
266,169,6330,2,0,L|266:22,1,135,2|0,0:0|0:0,0:0:0:0:
130,39,6918,2,0,L|59:38,1,67.5
60,121,7212,2,0,L|141:123,1,67.5
227,124,7506,6,0,L|356:61,2,135,2|0|0,0:0|0:0|0:0,0:0:0:0:
162,127,8242,2,0,L|162:205,1,67.5
300,213,8683,2,0,L|367:212,2,67.5,2|0|0,0:0|0:0|0:0,0:0:0:0:
56,212,9271,1,2,0:0:0:0:
246,206,9859,6,0,L|328:213,2,67.5,4|0|8,0:0|0:0|0:0,0:0:0:0:
110,204,10448,2,0,L|112:358,1,135,8|8,0:3|0:0,0:0:0:0:
354,304,11036,2,0,L|501:301,1,135,0|8,0:0|0:0,0:0:0:0:
353,214,11624,2,0,L|261:213,2,67.5,8|0|8,0:3|0:0|0:0,0:0:0:0:
488,190,12212,6,0,L|487:38,1,135,8|8,0:3|0:0,0:0:0:0:
325,50,12800,2,0,L|237:46,2,67.5,8|0|8,0:3|0:0|0:0,0:0:0:0:
436,155,13389,2,0,L|511:150,2,67.5,0|8|8,0:0|0:3|0:0,0:0:0:0:
261,167,13977,2,0,L|118:165,1,135,8|8,0:3|0:0,0:0:0:0:
371,111,14565,6,0,L|465:119,2,67.5,8|0|8,0:3|0:0|0:0,0:0:0:0:
235,115,15153,2,0,L|77:107,1,135,8|8,0:3|0:0,0:0:0:0:
340,231,15742,2,0,L|344:66,1,135,0|8,0:0|0:0,0:0:0:0:
207,85,16330,2,0,L|124:89,2,67.5,8|0|8,0:3|0:0|0:0,0:0:0:0:
343,96,16918,6,0,L|465:175,1,135,8|8,0:3|0:0,0:0:0:0:
315,203,17506,2,0,L|249:239,2,67.5,8|0|8,0:3|0:0|0:0,0:0:0:0:
156,245,18095,2,0,L|88:244,1,67.5,8|8,0:3|0:3,0:0:0:0:
90,155,18389,2,0,L|163:158,1,67.5,8|0,0:0|0:0,0:0:0:0:
261,159,18683,2,0,P|294:93|254:49,1,135,8|8,0:3|0:0,0:0:0:0:
18,83,19271,6,0,L|18:151,2,67.5,8|0|8,0:3|0:0|0:0,0:0:0:0:
193,86,19859,2,0,L|260:84,1,67.5,8|0,0:3|0:0,0:0:0:0:
338,129,20153,2,0,L|340:211,1,67.5,8|8,0:0|0:3,0:0:0:0:
190,238,20448,2,0,L|46:240,1,135,0|8,0:0|0:0,0:0:0:0:
200,153,21036,2,0,L|267:154,2,67.5,8|0|8,0:3|0:0|0:0,0:0:0:0:
28,166,21624,6,0,L|147:229,1,135,8|8,0:3|0:0,0:0:0:0:
277,327,22212,2,0,L|348:332,2,67.5,8|0|8,0:3|0:0|0:0,0:0:0:0:
138,304,22800,2,0,L|69:289,2,67.5,8|8|8,0:3|0:3|0:0,0:0:0:0:
311,288,23389,2,0,P|341:229|302:167,1,135,8|8,0:3|0:0,0:0:0:0:
67,181,23977,6,0,L|-9:181,2,67.5,8|0|8,0:3|0:0|0:0,0:0:0:0:
241,140,24565,2,0,L|312:140,1,67.5,8|0,0:3|0:0,0:0:0:0:
314,232,24859,2,0,L|233:233,1,67.5,8|8,0:0|0:3,0:0:0:0:
100,223,25153,2,0,P|78:153|103:99,1,135,0|8,0:0|0:0,0:0:0:0:
238,89,25742,2,0,L|315:82,2,67.5,8|0|8,0:3|0:0|0:0,0:0:0:0:
104,112,26330,6,0,L|106:262,1,135,8|8,0:3|0:0,0:0:0:0:
243,247,26918,2,0,L|317:247,2,67.5,8|0|8,0:3|0:0|0:0,0:0:0:0:
109,241,27506,2,0,L|38:221,2,67.5,8|8|8,0:3|0:3|0:0,0:0:0:0:
353,158,28095,2,0,L|510:156,2,135,8|8|4,0:3|0:0|0:0,0:0:0:0:
137,170,29565,6,0,L|60:170,2,60.7499981460572,0|0|2,0:0|0:0|0:0,0:0:0:0:
349,182,30742,2,0,L|224:230,1,121.499996292114,0|2,0:0|0:0,0:0:0:0:
434,274,31918,2,0,L|510:265,2,60.7499981460572,0|0|2,0:0|0:0|0:0,0:0:0:0:
240,271,33095,6,0,L|154:259,2,60.7499981460572,0|0|2,0:0|0:0|0:0,0:0:0:0:
440,190,34271,2,0,L|522:163,2,60.7499981460572,0|0|2,0:0|0:0|0:0,0:0:0:0:
322,192,34859,1,2,0:0:0:0:
129,197,35448,1,0,0:0:0:0:
257,203,35742,6,0,L|399:199,2,121.499996292114,2|2|2,0:0|0:0|0:0,0:0:0:0:
257,203,36624,1,0,0:0:0:0:
100,202,36918,2,0,L|21:200,2,60.7499981460572,2|0|0,0:0|0:0|0:0,0:0:0:0:
394,129,38095,6,0,P|354:237|205:223,1,270,10|8,0:3|0:3,0:0:0:0:
129,192,38830,2,0,L|53:191,2,67.5
238,139,39271,2,0,P|329:94|457:197,1,270,10|8,0:3|0:3,0:0:0:0:
341,200,40153,1,0,0:0:0:0:
94,209,40448,6,0,P|16:189|114:95,1,270,10|8,0:3|0:3,0:0:0:0:
194,94,41183,2,0,L|278:98,2,67.5
90,163,41624,2,0,P|121:218|284:149,1,270,10|8,0:3|0:3,0:0:0:0:
421,153,42506,1,0,0:0:0:0:
180,144,42800,6,0,P|116:188|232:271,1,270,10|8,0:3|0:3,0:0:0:0:
368,271,43683,1,0,0:0:0:0:
197,265,43977,2,0,L|49:266,1,135,10|0,0:3|0:0,0:0:0:0:
196,174,44565,2,0,L|337:173,1,135,8|0,0:3|0:0,0:0:0:0:
100,245,45153,6,0,P|30:158|129:58,1,270,10|8,0:3|0:3,0:0:0:0:
234,61,46036,1,0,0:0:0:0:
351,67,46330,2,0,P|409:54|481:90,1,135,10|10,0:3|0:3,0:0:0:0:
302,181,46918,1,10,0:3:0:0:
172,182,47212,1,10,0:3:0:0:
415,179,47506,6,0,P|445:239|409:297,1,135,4|8,0:0|0:0,0:0:0:0:
333,315,47948,2,0,P|272:302|195:336,1,135
118,329,48389,1,8,0:0:0:0:
347,211,48683,2,0,P|395:172|346:137,1,135,8|8,0:3|0:0,0:0:0:0:
270,134,49124,2,0,L|126:135,1,135
215,134,49565,1,8,0:0:0:0:
445,129,49859,6,0,L|521:103,2,67.5,8|0|8,0:3|0:0|0:0,0:0:0:0:
310,130,50448,2,0,L|242:132,2,67.5,8|0|8,0:3|0:0|0:0,0:0:0:0:
91,135,51036,2,0,P|53:175|99:238,1,135,8|8,0:3|0:0,0:0:0:0:
171,233,51477,1,0,0:0:0:0:
250,234,51624,2,0,P|314:211|374:248,1,135,8|8,0:3|0:0,0:0:0:0:
131,322,52212,6,0,L|-14:290,1,135,8|8,0:3|0:0,0:0:0:0:
76,310,52653,1,0,0:0:0:0:
153,328,52800,2,0,P|201:338|299:334,1,135,8|8,0:3|0:0,0:0:0:0:
51,229,53389,2,0,P|11:168|77:146,1,135,8|8,0:3|0:0,0:0:0:0:
136,135,53830,2,0,P|176:180|133:224,1,135
46,222,54271,1,8,0:0:0:0:
282,244,54565,6,0,L|371:248,2,67.5,8|0|8,0:3|0:0|0:0,0:0:0:0:
149,235,55153,2,0,L|69:249,2,67.5,8|0|8,0:3|0:0|0:0,0:0:0:0:
387,126,55742,2,0,L|389:266,1,135,8|8,0:3|0:0,0:0:0:0:
250,260,56330,2,0,L|87:256,1,135,8|8,0:3|0:0,0:0:0:0:
352,248,56918,6,0,P|393:291|349:350,1,135,8|8,0:3|0:0,0:0:0:0:
274,344,57359,1,0,0:0:0:0:
186,328,57506,2,0,L|27:329,1,135,8|8,0:3|0:0,0:0:0:0:
290,254,58095,2,0,P|332:206|281:169,1,135,8|8,0:3|0:0,0:0:0:0:
207,175,58536,2,0,P|150:197|57:159,1,135
2,132,58977,1,8,0:0:0:0:
244,82,59271,6,0,L|338:82,2,67.5,8|0|8,0:3|0:0|0:0,0:0:0:0:
105,130,59859,2,0,L|27:125,2,67.5,8|0|8,0:3|0:0|0:0,0:0:0:0:
342,141,60448,2,0,L|345:276,1,135,8|8,0:3|0:0,0:0:0:0:
256,279,60889,2,0,L|107:281,1,135
204,277,61330,1,8,0:0:0:0:
440,274,61624,6,0,P|471:252|426:179,1,135,8|8,0:3|0:0,0:0:0:0:
345,173,62065,2,0,L|262:179,1,67.5,0|8,0:0|0:3,0:0:0:0:
117,183,62506,1,8,0:0:0:0:
354,176,62800,2,0,P|395:224|350:275,1,135,8|8,0:3|0:0,0:0:0:0:
270,277,63242,2,0,L|124:273,1,135
49,270,63683,1,8,0:0:0:0:
293,214,63977,6,0,L|376:207,2,67.5,8|0|8,0:3|0:0|0:0,0:0:0:0:
160,211,64565,2,0,L|80:201,2,67.5,8|0|8,0:3|0:0|0:0,0:0:0:0:
397,163,65153,2,0,L|399:314,1,135,8|8,0:3|0:0,0:0:0:0:
308,316,65595,2,0,P|220:331|154:299,1,135
88,306,66036,1,8,0:0:0:0:
340,235,66330,5,4,0:0:0:0:
74,223,66918,2,0,L|75:79,1,135,8|8,0:3|0:0,0:0:0:0:
207,226,67506,2,0,L|208:68,1,135,0|8,0:0|0:0,0:0:0:0:
434,70,68095,2,0,L|520:70,1,67.5,8|0,0:3|0:0,0:0:0:0:
502,162,68389,2,0,L|410:164,1,67.5,8|0,0:0|0:0,0:0:0:0:
337,162,68683,6,0,L|475:162,1,135,8|8,0:3|0:0,0:0:0:0:
325,263,69271,2,0,L|231:261,2,67.5,8|0|8,0:3|0:0|0:0,0:0:0:0:
467,268,69859,2,0,L|468:181,1,67.5,0|8,0:0|0:3,0:0:0:0:
388,174,70153,1,8,0:0:0:0:
247,168,70448,2,0,P|196:198|261:227,1,135,8|8,0:3|0:0,0:0:0:0:
464,312,71036,6,0,L|311:314,1,135,8|8,0:3|0:0,0:0:0:0:
192,312,71624,2,0,L|191:236,1,67.5,8|0,0:3|0:0,0:0:0:0:
289,241,71918,2,0,L|289:309,1,67.5,8|8,0:0|0:3,0:0:0:0:
192,312,72212,2,0,L|57:311,1,135,0|8,0:0|0:0,0:0:0:0:
182,255,72800,1,8,0:3:0:0:
142,214,72948,1,0,0:0:0:0:
142,214,73095,1,8,0:0:0:0:
373,168,73389,6,0,L|496:265,1,135,8|8,0:3|0:0,0:0:0:0:
315,290,73977,2,0,L|226:293,2,67.5,8|0|8,0:3|0:0|0:0,0:0:0:0:
446,251,74565,2,0,L|512:260,2,67.5,0|8|8,0:0|0:3|0:0,0:0:0:0:
311,266,75153,2,0,L|445:251,1,135,8|8,0:3|0:0,0:0:0:0:
207,179,75742,6,0,L|112:175,2,67.5,8|0|8,0:3|0:0|0:0,0:0:0:0:
348,145,76330,2,0,L|432:143,1,67.5,8|0,0:3|0:0,0:0:0:0:
421,229,76624,2,0,L|331:233,1,67.5,8|8,0:0|0:3,0:0:0:0:
255,239,76918,2,0,P|230:313|280:368,1,135,0|8,0:0|0:0,0:0:0:0:
394,335,77506,6,0,L|469:341,2,67.5,8|0|8,0:3|0:0|0:0,0:0:0:0:
164,328,78095,2,0,L|164:182,1,135,8|8,0:3|0:0,0:0:0:0:
316,167,78683,2,0,L|397:160,2,67.5,8|0|8,0:3|0:0|0:0,0:0:0:0:
78,102,79271,2,0,L|-4:91,2,67.5,0|8|8,0:0|0:3|0:0,0:0:0:0:
213,119,79859,2,0,L|354:118,1,135,8|8,0:3|0:0,0:0:0:0:
115,226,80448,6,0,L|39:227,2,67.5,8|0|8,0:3|0:0|0:0,0:0:0:0:
286,227,81036,2,0,L|285:137,1,67.5,8|0,0:3|0:0,0:0:0:0:
379,159,81330,2,0,L|379:226,1,67.5,8|8,0:0|0:3,0:0:0:0:
256,231,81624,2,0,L|122:213,1,135,0|8,0:0|0:0,0:0:0:0:
291,146,82212,2,0,L|377:145,2,67.5,8|0|8,0:3|0:0|0:0,0:0:0:0:
54,137,82800,2,0,P|26:203|54:263,1,135,8|8,0:3|0:0,0:0:0:0:
181,271,83389,2,0,L|256:286,2,67.5,8|0|8,0:3|0:0|0:0,0:0:0:0:
413,206,83977,6,0,L|480:210,2,67.5,0|8|8,0:0|0:3|0:0,0:0:0:0:
266,189,84565,2,0,L|422:189,1,135,8|8,0:3|0:0,0:0:0:0:
191,189,85153,5,4,0:0:0:0:
357,201,85595,2,0,L|358:128,1,60.7499981460572,8|8,0:3|0:0,0:0:0:0:
241,105,86036,1,8,0:3:0:0:
82,125,86330,1,0,0:0:0:0:
199,154,86624,1,8,0:3:0:0:
78,170,86918,1,8,0:0:0:0:
365,162,87506,5,8,0:3:0:0:
180,173,87948,2,0,L|177:98,1,60.7499981460572,8|8,0:3|0:0,0:0:0:0:
301,92,88389,1,8,0:3:0:0:
423,161,88683,1,0,0:0:0:0:
268,181,88977,2,0,L|146:177,1,121.499996292114,8|8,0:3|0:0,0:0:0:0:
393,186,89859,5,8,0:3:0:0:
218,171,90300,2,0,L|219:246,1,60.7499981460572,8|8,0:3|0:0,0:0:0:0:
344,299,90742,1,8,0:3:0:0:
186,307,91036,2,0,L|57:302,2,121.499996292114,0|8|8,0:0|0:3|0:0,0:0:0:0:
426,277,92212,5,8,0:3:0:0:
246,254,92653,2,0,L|242:169,1,60.7499981460572,8|8,0:3|0:0,0:0:0:0:
380,152,93095,1,8,0:3:0:0:
254,153,93389,1,8,0:3:0:0:
414,217,93683,1,8,0:0:0:0:
191,216,94271,2,0,L|191:140,1,60.7499981460572,8|8,0:0|0:0,0:0:0:0:
356,108,94565,6,0,P|419:88|460:148,1,135,10|0,0:3|0:0,0:0:0:0:
385,156,95006,1,2,0:0:0:0:
284,150,95153,1,8,0:0:0:0:
420,203,95448,1,0,0:0:0:0:
233,200,95742,2,0,P|186:243|249:281,1,135,10|0,0:3|0:0,0:0:0:0:
304,306,96183,2,0,L|373:309,1,67.5,2|8,0:0|0:0,0:0:0:0:
491,233,96624,1,0,0:0:0:0:
258,194,96918,6,0,L|97:193,1,135,10|0,0:3|0:0,0:0:0:0:
191,191,97359,2,0,L|188:119,1,67.5,2|8,0:0|0:0,0:0:0:0:
50,111,97800,1,0,0:0:0:0:
233,105,98095,1,10,0:3:0:0:
97,153,98389,2,0,L|96:235,1,67.5,0|2,0:0|0:0,0:0:0:0:
198,253,98683,2,0,L|332:252,1,135,8|8,0:0|0:3,0:0:0:0:
104,179,99271,5,10,0:3:0:0:
247,166,99565,2,0,L|321:168,2,67.5,0|2|8,0:0|0:0|0:0,0:0:0:0:
102,147,100153,1,0,0:0:0:0:
281,113,100448,2,0,L|418:104,1,135,10|0,0:3|0:0,0:0:0:0:
274,201,101036,2,0,L|110:188,1,135,8|0,0:0|0:0,0:0:0:0:
370,139,101624,6,0,L|373:299,1,135,10|0,0:3|0:0,0:0:0:0:
292,318,102065,2,0,L|219:321,1,67.5,2|8,0:0|0:0,0:0:0:0:
84,303,102506,1,0,0:0:0:0:
261,227,102800,2,0,L|400:215,1,135,10|10,0:0|0:3,0:0:0:0:
176,79,103389,2,0,L|95:85,1,67.5,10|0,0:3|0:0,0:0:0:0:
108,180,103683,2,0,L|207:186,1,67.5,10|0,0:0|0:0,0:0:0:0:
345,181,103977,6,0,P|375:241|339:299,1,135,4|8,0:0|0:0,0:0:0:0:
252,294,104418,2,0,P|221:236|251:179,1,135
345,181,104860,1,8,0:0:0:0:
111,179,105154,2,0,P|63:140|112:105,1,135,8|8,0:3|0:0,0:0:0:0:
185,104,105595,2,0,L|41:105,1,135
125,104,106036,1,8,0:0:0:0:
360,108,106330,6,0,L|442:109,2,67.5,8|0|8,0:3|0:0|0:0,0:0:0:0:
229,109,106919,2,0,L|161:111,2,67.5,8|0|8,0:3|0:0|0:0,0:0:0:0:
459,133,107507,2,0,P|497:173|451:236,1,135,8|8,0:3|0:0,0:0:0:0:
380,235,107948,1,0,0:0:0:0:
298,234,108095,2,0,L|159:227,1,135,8|8,0:3|0:0,0:0:0:0:
396,243,108683,6,0,L|403:88,1,135,8|8,0:3|0:0,0:0:0:0:
317,107,109124,1,0,0:0:0:0:
229,107,109271,1,8,0:3:0:0:
373,111,109565,1,8,0:0:0:0:
139,194,109860,2,0,P|99:133|165:111,1,135,8|8,0:3|0:0,0:0:0:0:
229,107,110301,2,0,P|269:152|226:196,1,135
139,194,110742,1,8,0:0:0:0:
369,246,111036,6,0,L|458:250,2,67.5,8|0|8,0:3|0:0|0:0,0:0:0:0:
232,247,111624,2,0,L|146:243,2,67.5,8|0|8,0:3|0:0|0:0,0:0:0:0:
461,252,112213,2,0,L|459:117,1,135,8|8,0:3|0:0,0:0:0:0:
310,112,112801,2,0,L|147:108,1,135,8|8,0:3|0:0,0:0:0:0:
408,110,113389,6,0,P|449:153|405:212,1,135,8|8,0:3|0:0,0:0:0:0:
335,228,113830,1,0,0:0:0:0:
423,276,113977,1,8,0:3:0:0:
287,284,114271,1,8,0:0:0:0:
54,265,114566,2,0,P|12:217|63:180,1,135,8|8,0:3|0:0,0:0:0:0:
143,171,115006,2,0,P|180:199|125:261,1,135
54,265,115448,1,8,0:0:0:0:
286,94,115742,6,0,L|367:83,2,67.5,8|0|8,0:3|0:0|0:0,0:0:0:0:
165,136,116330,2,0,L|98:111,2,67.5,8|0|8,0:3|0:0|0:0,0:0:0:0:
402,173,116919,2,0,L|243:173,1,135,8|8,0:3|0:0,0:0:0:0:
160,174,117360,2,0,P|125:121|165:52,1,135
239,53,117801,1,8,0:0:0:0:
479,67,118095,6,0,L|480:210,1,135,8|8,0:3|0:0,0:0:0:0:
383,209,118536,2,0,L|316:214,1,67.5,0|8,0:0|0:3,0:0:0:0:
176,222,118977,1,8,0:0:0:0:
413,180,119271,2,0,P|454:228|409:279,1,135,8|8,0:3|0:0,0:0:0:0:
325,283,119713,2,0,L|179:279,1,135
89,297,120154,1,8,0:0:0:0:
329,213,120448,6,0,L|412:206,2,67.5,8|0|8,0:3|0:0|0:0,0:0:0:0:
166,211,121036,2,0,L|86:201,2,67.5,8|0|8,0:3|0:0|0:0,0:0:0:0:
402,163,121624,2,0,L|404:314,1,135,8|8,0:3|0:0,0:0:0:0:
315,323,122066,2,0,P|227:338|161:306,1,135
99,287,122506,2,0,L|99:218,1,67.5,8|0,0:0|0:0,0:0:0:0:
268,220,122801,5,4,0:0:0:0:
125,217,123095,1,8,0:0:0:0:
298,221,123389,2,0,L|383:215,2,67.5,8|0|8,0:3|0:0|0:0,0:0:0:0:
137,160,123977,2,0,L|48:161,1,67.5,0|8,0:0|0:3,0:0:0:0:
72,259,124271,2,0,L|139:258,1,67.5,8|0,0:0|0:0,0:0:0:0:
214,204,124565,1,8,0:3:0:0:
77,201,124859,1,8,0:0:0:0:
312,206,125153,6,0,P|358:161|298:140,1,135,8|8,0:3|0:0,0:0:0:0:
224,129,125595,2,0,L|224:58,1,67.5,0|8,0:0|0:3,0:0:0:0:
316,60,125889,2,0,L|316:136,1,67.5,0|8,0:0|0:0,0:0:0:0:
141,200,126330,2,0,L|68:190,2,67.5,0|8|8,0:0|0:3|0:0,0:0:0:0:
279,205,126918,2,0,L|420:215,1,135,8|8,0:3|0:0,0:0:0:0:
176,274,127506,5,8,0:3:0:0:
323,272,127800,1,8,0:0:0:0:
157,205,128095,2,0,L|76:206,2,67.5,8|0|8,0:3|0:0|0:0,0:0:0:0:
294,111,128683,2,0,L|371:114,1,67.5,0|8,0:0|0:3,0:0:0:0:
360,199,128977,2,0,L|274:202,1,67.5,8|0,0:0|0:0,0:0:0:0:
210,159,129271,1,8,0:3:0:0:
359,155,129565,1,8,0:0:0:0:
122,161,129859,6,0,P|82:207|131:246,1,135,8|8,0:3|0:0,0:0:0:0:
213,256,130300,2,0,L|287:248,1,67.5,0|8,0:0|0:3,0:0:0:0:
389,231,130742,1,8,0:0:0:0:
244,162,131036,2,0,L|250:81,1,67.5,0|8,0:0|0:3,0:0:0:0:
424,81,131477,2,0,L|499:75,1,67.5,0|8,0:0|0:3,0:0:0:0:
490,155,131771,1,8,0:3:0:0:
417,202,131918,1,8,0:0:0:0:
328,207,132065,1,0,0:0:0:0:
158,207,132212,6,0,L|7:203,2,135,8|8|8,0:3|0:0|0:3,0:0:0:0:
247,202,132948,2,0,L|246:129,1,67.5,0|8,0:0|0:0,0:0:0:0:
73,104,133389,2,0,L|148:104,1,67.5,0|8,0:0|0:3,0:0:0:0:
141,194,133683,2,0,L|68:192,1,67.5,8|0,0:0|0:0,0:0:0:0:
0,144,133977,1,8,0:3:0:0:
141,141,134271,1,8,0:0:0:0:
378,140,134565,6,0,P|418:186|382:240,1,135,8|8,0:3|0:0,0:0:0:0:
289,241,135006,2,0,L|212:242,1,67.5,0|8,0:0|0:3,0:0:0:0:
224,326,135300,2,0,L|305:325,1,67.5,0|8,0:0|0:0,0:0:0:0:
130,268,135742,2,0,L|50:269,2,67.5,0|8|8,0:0|0:3|0:0,0:0:0:0:
289,257,136330,2,0,P|330:203|280:159,1,135,8|8,0:3|0:0,0:0:0:0:
60,172,136918,6,0,P|17:195|74:256,1,135,8|8,0:3|0:0,0:0:0:0:
185,265,137506,2,0,L|252:259,2,67.5,8|0|8,0:3|0:0|0:0,0:0:0:0:
360,180,138095,2,0,L|447:181,1,67.5,0|8,0:0|0:3,0:0:0:0:
426,277,138389,2,0,L|358:274,1,67.5,8|0,0:0|0:0,0:0:0:0:
275,221,138683,1,8,0:3:0:0:
425,218,138977,1,8,0:0:0:0:
187,218,139271,6,0,P|139:261|204:295,1,135,8|8,0:3|0:0,0:0:0:0:
265,306,139712,1,0,0:0:0:0:
360,307,139859,2,0,P|386:286|342:205,1,135,8|8,0:3|0:0,0:0:0:0:
179,149,140448,2,0,L|92:149,1,67.5,0|8,0:0|0:3,0:0:0:0:
262,144,140889,2,0,L|345:140,1,67.5,0|8,0:0|0:3,0:0:0:0:
338,230,141183,2,0,L|261:234,1,67.5,8|8,0:3|0:0,0:0:0:0:
56,218,141624,5,4,0:0:0:0:
287,174,151036,6,0,P|357:153|458:240,2,202.5,2|0|0,0:0|0:0|0:0,0:0:0:0:
139,184,152212,2,0,L|-9:23,2,202.5,2|0|0,0:0|0:0|0:0,0:0:0:0:
281,190,153389,6,0,L|513:190,1,202.5,2|0,0:0|0:0,0:0:0:0:
286,186,154271,1,0,0:0:0:0:
111,191,154565,1,2,0:0:0:0:
299,172,155153,1,2,0:0:0:0:
115,183,155742,6,0,P|41:223|128:262,1,202.5,2|0,0:0|0:0,0:0:0:0:
297,279,156624,1,0,0:0:0:0:
434,277,156918,2,0,L|222:281,1,202.5,2|0,0:0|0:0,0:0:0:0:
48,280,157800,1,0,0:0:0:0:
224,215,158095,2,0,L|440:215,2,202.5,2|0|0,0:0|0:0|0:0,0:0:0:0:
83,212,159271,6,0,L|85:63,1,135,10|10,0:3|0:3,0:0:0:0:
224,215,159859,2,0,L|229:63,1,135,10|10,0:3|0:3,0:0:0:0:
470,173,160448,6,0,P|500:233|464:291,1,135,4|8,0:0|0:0,0:0:0:0:
386,312,160890,2,0,P|325:299|248:333,1,135
168,344,161331,1,8,0:0:0:0:
400,205,161625,2,0,P|448:166|399:131,1,135,8|8,0:3|0:0,0:0:0:0:
316,132,162066,2,0,L|172:133,1,135
90,133,162507,1,8,0:0:0:0:
325,136,162801,6,0,L|401:110,2,67.5,8|0|8,0:3|0:0|0:0,0:0:0:0:
199,161,163390,2,0,L|131:163,2,67.5,8|0|8,0:3|0:0|0:0,0:0:0:0:
435,200,163978,2,0,P|473:240|427:303,1,135,8|8,0:3|0:0,0:0:0:0:
348,292,164419,1,0,0:0:0:0:
263,233,164566,2,0,P|327:210|387:247,1,135,8|8,0:3|0:0,0:0:0:0:
149,322,165154,6,0,L|-10:290,1,135,8|8,0:3|0:0,0:0:0:0:
80,310,165595,1,0,0:0:0:0:
157,328,165742,2,0,P|205:338|303:334,1,135,8|8,0:3|0:0,0:0:0:0:
55,229,166331,2,0,P|15:168|81:146,1,135,8|8,0:3|0:0,0:0:0:0:
140,135,166772,2,0,P|180:180|137:224,1,135
50,222,167213,1,8,0:0:0:0:
286,244,167507,6,0,L|375:248,2,67.5,8|0|8,0:3|0:0|0:0,0:0:0:0:
153,235,168095,2,0,L|73:249,2,67.5,8|0|8,0:3|0:0|0:0,0:0:0:0:
391,126,168684,2,0,L|393:266,1,135,8|8,0:3|0:0,0:0:0:0:
254,260,169272,2,0,L|91:256,1,135,8|8,0:3|0:0,0:0:0:0:
356,248,169860,6,0,P|397:291|353:350,1,135,8|8,0:3|0:0,0:0:0:0:
278,344,170301,1,0,0:0:0:0:
190,328,170448,2,0,L|31:329,1,135,8|8,0:3|0:0,0:0:0:0:
294,254,171037,2,0,L|391:258,2,67.5,8|0|8,0:3|0:0|0:0,0:0:0:0:
211,175,171478,2,0,P|154:197|61:159,1,135
6,132,171919,1,8,0:0:0:0:
248,82,172212,6,0,L|319:89,2,67.5,8|0|8,0:3|0:0|0:0,0:0:0:0:
106,141,172801,2,0,L|22:140,2,67.5,8|0|8,0:3|0:0|0:0,0:0:0:0:
346,141,173390,2,0,L|349:276,1,135,8|8,0:3|0:0,0:0:0:0:
260,279,173831,2,0,L|111:281,1,135
208,277,174272,1,8,0:0:0:0:
444,274,174566,6,0,P|475:252|430:179,1,135,8|8,0:3|0:0,0:0:0:0:
349,173,175007,2,0,L|266:179,1,67.5,0|8,0:0|0:3,0:0:0:0:
121,183,175448,1,8,0:0:0:0:
358,176,175742,2,0,P|399:224|354:275,1,135,8|8,0:3|0:0,0:0:0:0:
274,277,176184,2,0,L|128:273,1,135
53,270,176625,1,8,0:0:0:0:
297,214,176919,6,0,L|380:207,2,67.5,8|0|8,0:3|0:0|0:0,0:0:0:0:
164,211,177507,2,0,L|84:201,2,67.5,8|0|8,0:3|0:0|0:0,0:0:0:0:
401,163,178095,2,0,L|250:166,1,135,8|8,0:3|0:0,0:0:0:0:
404,266,178683,1,8,0:3:0:0:
404,266,178978,1,8,0:0:0:0:
167,181,179271,6,0,P|137:241|173:299,1,135,4|8,0:0|0:0,0:0:0:0:
260,294,179712,2,0,P|291:236|261:179,1,135
167,181,180154,1,8,0:0:0:0:
401,179,180448,2,0,P|449:140|400:105,1,135,8|8,0:3|0:0,0:0:0:0:
327,104,180889,2,0,L|471:105,1,135
387,104,181330,1,8,0:0:0:0:
152,108,181624,6,0,L|70:109,2,67.5,8|0|8,0:3|0:0|0:0,0:0:0:0:
283,109,182213,2,0,L|351:111,2,67.5,8|0|8,0:3|0:0|0:0,0:0:0:0:
53,133,182801,2,0,P|15:173|61:236,1,135,8|8,0:3|0:0,0:0:0:0:
132,235,183242,1,0,0:0:0:0:
214,234,183389,2,0,L|353:227,1,135,8|8,0:3|0:0,0:0:0:0:
116,243,183977,6,0,L|109:88,1,135,8|8,0:3|0:0,0:0:0:0:
195,107,184418,1,0,0:0:0:0:
283,107,184565,1,8,0:3:0:0:
139,111,184859,1,8,0:0:0:0:
373,194,185154,2,0,P|413:133|347:111,1,135,8|8,0:3|0:0,0:0:0:0:
283,107,185595,2,0,P|243:152|286:196,1,135
373,194,186036,1,8,0:0:0:0:
143,246,186330,6,0,L|54:250,2,67.5,8|0|8,0:3|0:0|0:0,0:0:0:0:
280,247,186918,2,0,L|366:243,2,67.5,8|0|8,0:3|0:0|0:0,0:0:0:0:
51,252,187507,2,0,L|53:117,1,135,8|8,0:3|0:0,0:0:0:0:
202,112,188095,2,0,L|365:108,1,135,8|8,0:3|0:0,0:0:0:0:
104,110,188683,6,0,P|63:153|107:212,1,135,8|8,0:3|0:0,0:0:0:0:
175,207,189124,1,0,0:0:0:0:
253,207,189271,1,8,0:3:0:0:
116,244,189565,1,8,0:0:0:0:
351,259,189860,2,0,P|393:211|342:174,1,135,8|8,0:3|0:0,0:0:0:0:
262,165,190300,2,0,P|225:193|280:255,1,135
351,259,190742,1,8,0:0:0:0:
116,122,191036,6,0,L|23:114,2,67.5,8|0|8,0:3|0:0|0:0,0:0:0:0:
259,126,191624,2,0,L|335:116,2,67.5,8|0|8,0:3|0:0|0:0,0:0:0:0:
19,169,192213,2,0,L|178:169,1,135,8|8,0:3|0:0,0:0:0:0:
241,173,192654,2,0,P|276:120|236:51,1,135
162,67,193095,1,8,0:0:0:0:
397,72,193389,6,0,L|396:215,1,135,8|8,0:3|0:0,0:0:0:0:
311,207,193830,2,0,L|244:202,1,67.5,0|8,0:0|0:3,0:0:0:0:
378,200,194271,1,8,0:0:0:0:
141,179,194565,2,0,P|100:227|145:278,1,135,8|8,0:3|0:0,0:0:0:0:
225,286,195007,2,0,L|371:282,1,135
448,275,195448,1,8,0:0:0:0:
212,214,195742,6,0,L|129:207,2,67.5,8|0|8,0:3|0:0|0:0,0:0:0:0:
346,211,196330,2,0,L|426:201,2,67.5,8|0|8,0:3|0:0|0:0,0:0:0:0:
110,163,196918,2,0,L|108:314,1,135,8|8,0:3|0:0,0:0:0:0:
197,323,197360,2,0,P|285:338|351:306,1,135
411,301,197800,1,8,0:0:0:0:
173,219,198095,5,4,0:0:0:0:
391,202,198683,2,0,L|487:199,2,67.5,8|0|8,0:3|0:0|0:0,0:0:0:0:
230,203,199271,2,0,P|190:251|250:285,1,135,0|8,0:0|0:0,0:0:0:0:
376,292,199859,2,0,L|457:289,2,67.5,8|0|8,0:3|0:0|0:0,0:0:0:0:
137,213,200448,6,0,L|136:64,1,135,8|8,0:3|0:0,0:0:0:0:
302,83,201036,2,0,L|397:77,2,67.5,8|0|8,0:3|0:0|0:0,0:0:0:0:
167,88,201624,2,0,L|90:97,2,67.5,0|8|8,0:0|0:3|0:0,0:0:0:0:
328,82,202212,2,0,P|372:112|318:160,1,135,8|8,0:3|0:0,0:0:0:0:
93,187,202800,6,0,L|6:183,2,67.5,8|0|8,0:3|0:0|0:0,0:0:0:0:
232,199,203389,2,0,L|318:199,1,67.5,8|0,0:3|0:0,0:0:0:0:
374,291,203683,2,0,L|306:290,1,67.5,8|8,0:0|0:3,0:0:0:0:
135,269,203977,2,0,P|114:203|148:137,1,135,0|8,0:0|0:0,0:0:0:0:
268,132,204565,2,0,L|343:123,2,67.5,8|0|8,0:3|0:0|0:0,0:0:0:0:
34,138,205153,6,0,L|37:289,1,135,8|8,0:3|0:0,0:0:0:0:
180,283,205742,2,0,L|246:271,2,67.5,8|0|8,0:3|0:0|0:0,0:0:0:0:
67,313,206330,2,0,L|0:319,2,67.5,0|8|8,0:0|0:3|0:0,0:0:0:0:
246,271,206918,2,0,L|396:212,1,135,8|8,0:3|0:0,0:0:0:0:
138,182,207506,5,2,0:0:0:0:
