osu file format v14

[General]
AudioFilename: audio.mp3
AudioLeadIn: 0
PreviewTime: 47433
Countdown: 0
SampleSet: Soft
StackLeniency: 0.7
Mode: 2
LetterboxInBreaks: 0
WidescreenStoryboard: 1

[Editor]
Bookmarks: 9859,28683,38095,47506,56918,66330,85153,94565,103977,113389,122800,141624,151036,160448,169859,179271,188683,198095,207506
DistanceSpacing: 2.4
BeatDivisor: 6
GridSize: 4
TimelineZoom: 2.7

[Metadata]
Title:Ai no Sukima
TitleUnicode:哀の隙間
Artist:MIMI
ArtistUnicode:MIMI
Creator:Greaper
Version:Bastian's Rain
Source:osu!
Tags:xinely bastian jorkseljund 初音ミク miku hatsune feat. vocaloid japanese pop piano piapro 佐藤主税 sato chiiro featured artist fa mappers guild mpg
BeatmapID:2585052
BeatmapSetID:1197507

[Difficulty]
HPDrainRate:5
CircleSize:4
OverallDifficulty:9
ApproachRate:9
SliderMultiplier:1.8
SliderTickRate:2

[Events]
//Background and Video events
0,0,"bg.jpg"
//Break Periods
//Storyboard Layer 0 (Background)
//Storyboard Layer 1 (Fail)
//Storyboard Layer 2 (Pass)
//Storyboard Layer 3 (Foreground)
//Storyboard Layer 4 (Overlay)
//Storyboard Sound Samples

[TimingPoints]
448,294.117647058824,4,2,11,35,1,0
9859,-100,4,2,11,50,0,0
28683,-100,4,2,11,45,0,0
38095,-100,4,2,11,55,0,0
46918,-100,4,2,11,60,0,0
47506,-100,4,2,11,65,0,1
66330,-100,4,2,11,50,0,0
85153,-100,4,2,11,45,0,0
94565,-100,4,2,11,55,0,0
103389,-100,4,2,11,60,0,0
103977,-100,4,2,11,65,0,1
122800,-100,4,2,11,55,0,0
141624,-100,4,2,11,45,0,0
151036,-100,4,2,11,50,0,0
159859,-100,4,2,11,55,0,0
160448,-100,4,2,11,65,0,1
179271,-100,4,2,11,70,0,1
198095,-100,4,2,11,60,0,0
207506,-100,4,2,11,45,0,0

[Colours]
Combo1 : 234,231,106
Combo2 : 106,170,234
Combo3 : 234,106,189
Combo4 : 105,105,235

[HitObjects]
331,341,448,6,0,L|372:248,1,90,2|0,0:0|0:0,0:0:0:0:
277,258,742,2,0,P|218:204|288:154,1,180
368,151,1183,2,0,L|454:91,2,90
224,151,1624,6,0,L|403:247,2,180,2|0|0,0:0|0:0|0:0,0:0:0:0:
134,151,2359,2,0,L|74:249,2,90
277,151,2800,6,0,P|336:208|250:257,1,180,2|0,0:0|0:0,0:0:0:0:
99,264,3389,2,0,L|52:344,1,90
143,341,3683,1,0,0:0:0:0:
430,341,3977,6,0,L|470:246,1,90,2|0,0:0|0:0,0:0:0:0:
374,258,4271,1,0,0:0:0:0:
86,258,4565,1,2,0:0:0:0:
445,258,5153,6,0,L|484:175,1,90,2|0,0:0|0:0,0:0:0:0:
392,176,5448,2,0,L|201:176,1,180
301,176,5889,1,0,0:0:0:0:
212,176,6036,1,0,0:0:0:0:
301,176,6183,1,0,0:0:0:0:
444,176,6330,6,0,L|275:291,2,180,2|0|0,0:0|0:0|0:0,0:0:0:0:
354,176,7065,1,0,0:0:0:0:
443,176,7212,1,0,0:0:0:0:
353,176,7359,1,0,0:0:0:0:
209,176,7506,6,0,P|150:115|234:76,1,180,2|0,0:0|0:0,0:0:0:0:
388,67,8095,2,0,L|489:67,2,90
100,67,8683,6,0,L|47:155,1,90,2|0,0:0|0:0,0:0:0:0:
143,144,8977,1,0,0:0:0:0:
430,144,9271,1,2,0:0:0:0:
106,329,9859,6,0,L|68:244,1,90,4|0,0:0|0:0,0:0:0:0:
213,246,10153,2,0,L|337:246,1,90,8|0,0:0|0:0,0:0:0:0:
85,246,10448,2,0,L|47:160,1,90,8|0,0:3|0:0,0:0:0:0:
183,163,10742,1,8,0:0:0:0:
48,163,10889,1,8,0:3:0:0:
281,163,11036,6,0,P|336:106|259:54,1,180,0|8,0:0|0:0,0:0:0:0:
140,50,11477,1,0,0:0:0:0:
274,50,11624,1,8,0:3:0:0:
130,50,11771,2,0,L|20:50,2,90,0|8|0,0:0|0:0|0:0,0:0:0:0:
363,50,12212,6,0,P|421:104|347:153,1,180,8|8,0:3|0:0,0:0:0:0:
216,156,12653,1,0,0:0:0:0:
359,156,12800,2,0,L|399:246,1,90,8|0,0:3|0:0,0:0:0:0:
259,238,13095,1,8,0:0:0:0:
393,238,13242,1,8,0:3:0:0:
159,238,13389,6,0,L|122:157,1,90,0|8,0:0|0:3,0:0:0:0:
265,156,13683,2,0,L|376:156,1,90,8|0,0:0|0:0,0:0:0:0:
139,156,13977,2,0,P|82:104|168:53,1,180,8|8,0:3|0:0,0:0:0:0:
230,44,14418,1,0,0:0:0:0:
463,44,14565,6,0,L|497:135,1,90,8|0,0:3|0:0,0:0:0:0:
359,128,14859,1,8,0:0:0:0:
493,128,15006,1,0,0:0:0:0:
277,128,15153,2,0,L|174:128,1,90,8|0,0:3|0:0,0:0:0:0:
331,128,15448,2,0,L|421:128,1,90,8|8,0:0|0:3,0:0:0:0:
187,128,15742,6,0,P|122:128|72:232,1,180,0|8,0:0|0:0,0:0:0:0:
213,219,16183,1,0,0:0:0:0:
69,219,16330,2,0,L|33:315,1,90,8|0,0:3|0:0,0:0:0:0:
181,303,16624,2,0,L|290:302,1,90,8|0,0:0|0:0,0:0:0:0:
37,302,16918,6,0,P|25:245|130:171,1,180,8|8,0:3|0:0,0:0:0:0:
250,169,17359,1,0,0:0:0:0:
106,169,17506,2,0,L|80:268,1,90,8|0,0:3|0:0,0:0:0:0:
218,256,17800,1,8,0:0:0:0:
82,256,17948,1,0,0:0:0:0:
315,256,18095,6,0,L|354:161,1,90,8|8,0:3|0:3,0:0:0:0:
205,172,18389,2,0,L|170:88,1,90,8|0,0:0|0:0,0:0:0:0:
386,88,18683,2,0,P|444:144|379:194,1,180,8|8,0:3|0:0,0:0:0:0:
293,194,19124,1,0,0:0:0:0:
59,194,19271,6,0,L|172:194,3,90,8|0|8|0,0:3|0:0|0:0|0:0,0:0:0:0:
364,194,19859,2,0,L|396:279,1,90,8|0,0:3|0:0,0:0:0:0:
251,278,20153,2,0,L|152:278,1,90,8|8,0:0|0:3,0:0:0:0:
396,278,20448,6,0,P|403:224|288:158,1,180,0|8,0:0|0:0,0:0:0:0:
178,153,20889,1,0,0:0:0:0:
312,153,21036,1,8,0:3:0:0:
168,153,21183,2,0,L|126:70,1,90,0|8,0:0|0:0,0:0:0:0:
217,72,21477,1,0,0:0:0:0:
450,72,21624,6,0,L|237:72,1,180,8|8,0:3|0:0,0:0:0:0:
413,72,22065,1,0,0:0:0:0:
269,72,22212,2,0,L|150:72,1,90,8|0,0:3|0:0,0:0:0:0:
322,72,22506,2,0,L|359:157,1,90,8|0,0:0|0:0,0:0:0:0:
124,154,22800,6,0,L|81:249,1,90,8|8,0:3|0:3,0:0:0:0:
222,235,23095,1,8,0:0:0:0:
87,235,23242,1,0,0:0:0:0:
302,235,23389,2,0,L|498:235,1,180,8|8,0:3|0:0,0:0:0:0:
392,235,23830,1,0,0:0:0:0:
158,235,23977,6,0,L|127:329,1,90,8|0,0:3|0:0,0:0:0:0:
273,320,24271,2,0,L|308:220,1,90,8|0,0:0|0:0,0:0:0:0:
86,235,24565,2,0,L|59:148,1,90,8|0,0:3|0:0,0:0:0:0:
194,149,24859,1,8,0:0:0:0:
59,149,25006,1,8,0:3:0:0:
292,149,25153,6,0,P|349:89|277:37,1,180,0|8,0:0|0:0,0:0:0:0:
146,35,25595,1,0,0:0:0:0:
289,35,25742,2,0,L|388:35,1,90,8|0,0:3|0:0,0:0:0:0:
236,35,26036,2,0,L|146:35,1,90,8|0,0:0|0:0,0:0:0:0:
379,35,26330,6,0,P|383:100|261:135,1,180,8|8,0:3|0:0,0:0:0:0:
147,149,26771,1,0,0:0:0:0:
290,149,26918,2,0,L|290:246,1,90,8|0,0:3|0:0,0:0:0:0:
433,239,27212,2,0,L|433:336,1,90,8|0,0:0|0:0,0:0:0:0:
199,329,27506,6,0,L|105:329,1,90,8|8,0:3|0:3,0:0:0:0:
252,329,27800,2,0,L|342:329,1,90,8|0,0:0|0:0,0:0:0:0:
124,329,28095,2,0,P|68:269|150:223,1,180,8|8,0:3|0:0,0:0:0:0:
217,216,28536,1,0,0:0:0:0:
468,216,28683,6,0,L|510:28,2,180,4|2|2,0:0|0:0|0:0,0:0:0:0:
147,40,29859,6,0,L|108:216,2,180,2|2|2,0:0|0:0|0:0,0:0:0:0:
385,57,31036,6,0,L|345:232,2,180,2|2|2,0:0|0:0|0:0,0:0:0:0:
102,62,32212,6,0,L|141:237,2,180,2|2|2,0:0|0:0|0:0,0:0:0:0:
385,57,33389,6,0,L|464:242,2,180,2|2|2,0:0|0:0|0:0,0:0:0:0:
205,57,34271,2,0,L|130:124,1,90
258,57,34565,6,0,L|391:217,2,180,2|2|2,0:0|0:0|0:0,0:0:0:0:
438,57,35448,1,0,0:0:0:0:
150,57,35742,6,0,P|94:115|159:172,1,180,2|2,0:0|0:0,0:0:0:0:
332,172,36330,2,0,P|388:230|323:287,1,180,2|0,0:0|0:0,0:0:0:0:
41,287,36918,2,0,L|161:287,1,90,2|0,0:0|0:0,0:0:0:0:
346,287,37212,1,0,0:0:0:0:
144,341,38095,6,0,P|85:287|163:237,1,180,10|0,0:3|0:0,0:0:0:0:
287,232,38536,2,0,P|346:178|268:128,1,180,2|0,0:0|0:0,0:0:0:0:
143,123,38977,2,0,L|143:24,1,90
376,33,39271,6,0,P|434:87|375:142,1,180,10|0,0:3|0:0,0:0:0:0:
231,142,39712,2,0,P|172:196|231:251,1,180,2|0,0:0|0:0,0:0:0:0:
375,251,40153,2,0,L|485:251,1,90
229,251,40448,6,0,L|26:251,1,180,10|0,0:3|0:0,0:0:0:0:
195,251,40889,2,0,L|375:251,1,180,2|0,0:0|0:0,0:0:0:0:
240,251,41330,1,0,0:0:0:0:
374,251,41477,1,0,0:0:0:0:
140,251,41624,6,0,P|128:190|227:131,1,180,10|0,0:3|0:0,0:0:0:0:
448,128,42065,2,0,P|460:67|361:8,1,180,2|0,0:0|0:0,0:0:0:0:
238,5,42506,1,0,0:0:0:0:
372,5,42653,1,0,0:0:0:0:
138,5,42800,6,0,P|83:37|151:107,1,180,10|0,0:3|0:0,0:0:0:0:
284,109,43242,1,2,0:0:0:0:
140,109,43389,2,0,L|105:211,1,90,8|0,0:3|0:0,0:0:0:0:
245,194,43683,1,0,0:0:0:0:
110,194,43830,1,0,0:0:0:0:
343,194,43977,6,0,P|417:198|468:300,1,180,10|0,0:3|0:0,0:0:0:0:
325,281,44418,2,0,P|239:269|198:193,1,180,2|0,0:0|0:0,0:0:0:0:
342,193,44859,2,0,L|457:193,1,90
198,193,45153,6,0,L|159:292,1,90,10|0,0:3|0:0,0:0:0:0:
309,276,45448,2,0,L|341:192,1,90,0|2,0:0|0:0,0:0:0:0:
198,192,45742,2,0,L|91:192,1,90,8|0,0:3|0:0,0:0:0:0:
251,192,46036,2,0,L|341:192,1,90
107,192,46330,6,0,L|74:284,1,90,10|0,0:3|0:0,0:0:0:0:
211,276,46624,1,10,0:3:0:0:
76,276,46771,1,0,0:0:0:0:
291,276,46918,2,0,L|408:276,1,90,10|0,0:3|0:0,0:0:0:0:
165,276,47212,2,0,L|57:276,1,90,10|0,0:3|0:0,0:0:0:0:
326,276,47506,6,0,L|439:276,2,90,4|0|8,0:0|0:0|0:0,0:0:0:0:
181,276,47948,2,0,P|124:220|207:168,1,180
325,161,48389,2,0,L|447:161,1,90,8|0,0:0|0:0,0:0:0:0:
181,161,48683,6,0,L|74:161,2,90,8|0|8,0:3|0:0|0:0,0:0:0:0:
324,161,49124,2,0,P|326:111|195:53,1,180
94,42,49565,1,8,0:0:0:0:
228,42,49712,1,0,0:0:0:0:
461,42,49859,6,0,L|494:130,1,90,8|0,0:3|0:0,0:0:0:0:
357,126,50153,1,8,0:0:0:0:
491,126,50300,1,0,0:0:0:0:
273,126,50448,2,0,L|162:126,3,90,8|0|8|0,0:3|0:0|0:0|0:0,0:0:0:0:
416,126,51036,6,0,P|476:178|418:235,1,180,8|8,0:3|0:0,0:0:0:0:
274,234,51477,2,0,L|63:234,1,180
237,234,51918,2,0,L|354:235,1,90,8|0,0:0|0:0,0:0:0:0:
93,234,52212,6,0,L|-4:234,2,90,8|0|8,0:3|0:0|0:0,0:0:0:0:
236,234,52653,2,0,P|294:287|218:335,1,180
96,339,53095,1,8,0:0:0:0:
230,339,53242,1,0,0:0:0:0:
463,339,53389,6,0,L|494:252,1,90,8|0,0:3|0:0,0:0:0:0:
403,254,53683,1,8,0:0:0:0:
259,254,53830,2,0,P|250:194|346:134,1,180
482,132,54271,2,0,L|482:42,1,90,8|0,0:0|0:0,0:0:0:0:
248,42,54565,6,0,L|129:42,1,90,8|0,0:3|0:0,0:0:0:0:
301,42,54859,2,0,L|391:42,1,90,8|0,0:0|0:0,0:0:0:0:
175,42,55153,2,0,L|143:148,1,90,8|0,0:3|0:0,0:0:0:0:
293,128,55448,2,0,L|402:128,1,90,8|0,0:0|0:0,0:0:0:0:
149,128,55742,6,0,L|118:222,1,90,8|0,0:3|0:0,0:0:0:0:
255,213,56036,1,8,0:0:0:0:
120,213,56183,1,0,0:0:0:0:
335,213,56330,2,0,L|446:213,1,90,8|0,0:3|0:0,0:0:0:0:
209,213,56624,2,0,L|99:213,1,90,8|0,0:0|0:0,0:0:0:0:
370,213,56918,6,0,L|410:124,1,90,8|0,0:3|0:0,0:0:0:0:
316,130,57212,1,8,0:0:0:0:
172,130,57359,2,0,L|374:130,1,180
217,130,57800,1,8,0:0:0:0:
352,130,57948,1,0,0:0:0:0:
118,130,58095,6,0,L|77:223,1,90,8|0,0:3|0:0,0:0:0:0:
171,212,58389,1,8,0:0:0:0:
314,212,58536,2,0,P|318:286|226:329,1,180
89,330,58977,2,0,L|198:330,1,90,8|0,0:0|0:0,0:0:0:0:
412,330,59271,6,0,L|510:330,3,90,8|0|8|0,0:3|0:0|0:0|0:0,0:0:0:0:
286,330,59859,2,0,L|245:242,1,90,8|0,0:3|0:0,0:0:0:0:
391,248,60153,2,0,L|432:160,1,90,8|0,0:0|0:0,0:0:0:0:
193,166,60448,6,0,P|135:110|214:64,1,180,8|8,0:3|0:0,0:0:0:0:
339,58,60889,2,0,L|147:58,1,180
302,58,61330,2,0,L|334:148,1,90,8|0,0:0|0:0,0:0:0:0:
98,142,61624,6,0,L|1:142,2,90,8|0|8,0:3|0:0|0:0,0:0:0:0:
241,142,62065,2,0,P|301:197|214:238,1,180
98,249,62506,2,0,L|69:341,1,90,8|0,0:0|0:0,0:0:0:0:
304,334,62800,6,0,L|412:334,2,90,8|0|8,0:3|0:0|0:0,0:0:0:0:
159,334,63242,2,0,L|350:334,1,180
204,334,63683,1,8,0:0:0:0:
338,334,63830,1,0,0:0:0:0:
104,334,63977,6,0,L|65:248,1,90,8|0,0:3|0:0,0:0:0:0:
201,252,64271,1,8,0:0:0:0:
66,252,64418,1,0,0:0:0:0:
281,252,64565,2,0,L|318:164,1,90,8|0,0:3|0:0,0:0:0:0:
171,169,64859,2,0,L|135:84,1,90,8|0,0:0|0:0,0:0:0:0:
369,86,65153,6,0,P|432:87|483:193,1,180,8|8,0:3|0:0,0:0:0:0:
403,176,65595,1,0,0:0:0:0:
187,176,65742,2,0,L|158:271,1,90
304,262,66036,2,0,L|409:262,1,90,8|0,0:0|0:0,0:0:0:0:
142,262,66330,6,0,L|104:357,1,90,4|0,0:0|0:0,0:0:0:0:
243,345,66624,1,8,0:0:0:0:
108,345,66771,1,0,0:0:0:0:
323,345,66918,2,0,L|434:345,1,90,8|0,0:3|0:0,0:0:0:0:
269,345,67212,2,0,L|359:345,1,90,8|8,0:0|0:3,0:0:0:0:
125,345,67506,6,0,P|67:302|137:244,1,180,0|8,0:0|0:0,0:0:0:0:
272,241,67948,2,0,L|369:241,1,90,0|8,0:0|0:3,0:0:0:0:
218,241,68242,2,0,L|112:241,2,90,0|8|0,0:0|0:0|0:0,0:0:0:0:
451,241,68683,6,0,P|449:180|334:136,1,180,8|8,0:3|0:0,0:0:0:0:
208,129,69124,1,0,0:0:0:0:
351,129,69271,2,0,L|374:226,1,90,8|0,0:3|0:0,0:0:0:0:
236,216,69565,1,8,0:0:0:0:
370,216,69712,1,8,0:3:0:0:
136,216,69859,6,0,L|105:303,1,90,0|8,0:0|0:3,0:0:0:0:
249,300,70153,2,0,L|366:300,1,90,8|0,0:0|0:0,0:0:0:0:
121,300,70448,2,0,P|63:251|150:206,1,180,8|8,0:3|0:0,0:0:0:0:
214,194,70889,1,0,0:0:0:0:
447,192,71036,6,0,L|349:192,3,90,8|0|8|0,0:3|0:0|0:0|0:0,0:0:0:0:
141,192,71624,2,0,L|105:290,1,90,8|0,0:3|0:0,0:0:0:0:
244,276,71918,1,8,0:0:0:0:
109,276,72065,1,8,0:3:0:0:
342,276,72212,6,0,P|343:220|230:166,1,180,0|8,0:0|0:0,0:0:0:0:
390,161,72653,2,0,L|421:73,1,90,0|8,0:0|0:3,0:0:0:0:
274,76,72948,2,0,L|387:76,2,90,0|8|0,0:0|0:0|0:0,0:0:0:0:
40,76,73389,6,0,L|241:76,1,180,8|8,0:3|0:0,0:0:0:0:
76,76,73830,2,0,L|47:176,1,90,0|8,0:0|0:3,0:0:0:0:
194,162,74124,1,0,0:0:0:0:
50,162,74271,2,0,L|24:248,1,90,8|8,0:0|0:3,0:0:0:0:
258,248,74565,6,0,L|371:248,1,90,0|8,0:0|0:3,0:0:0:0:
204,248,74859,2,0,L|165:157,1,90,8|0,0:0|0:0,0:0:0:0:
384,165,75153,2,0,P|442:106|381:56,1,180,8|8,0:3|0:0,0:0:0:0:
292,55,75595,1,0,0:0:0:0:
58,55,75742,6,0,L|28:149,1,90,8|0,0:3|0:0,0:0:0:0:
165,140,76036,1,8,0:0:0:0:
30,140,76183,1,0,0:0:0:0:
245,140,76330,2,0,L|285:231,1,90,8|0,0:3|0:0,0:0:0:0:
137,222,76624,2,0,L|100:322,1,90,8|8,0:0|0:3,0:0:0:0:
321,306,76918,6,0,P|325:235|208:199,1,180,0|8,0:0|0:0,0:0:0:0:
382,187,77359,1,0,0:0:0:0:
238,187,77506,2,0,L|204:102,1,90,8|0,0:3|0:0,0:0:0:0:
348,103,77800,2,0,L|390:13,1,90,8|0,0:0|0:0,0:0:0:0:
150,21,78095,6,0,L|346:21,1,180,8|8,0:3|0:0,0:0:0:0:
186,21,78536,1,0,0:0:0:0:
329,21,78683,2,0,L|364:115,1,90,8|0,0:3|0:0,0:0:0:0:
225,105,78977,1,8,0:0:0:0:
359,105,79124,1,8,0:3:0:0:
125,105,79271,6,0,L|94:198,1,90,0|8,0:0|0:3,0:0:0:0:
240,190,79565,2,0,L|357:190,1,90,8|0,0:0|0:0,0:0:0:0:
114,190,79859,2,0,P|56:239|135:295,1,180,8|8,0:3|0:0,0:0:0:0:
204,300,80300,1,0,0:0:0:0:
439,300,80448,6,0,L|323:300,3,90,8|0|8|0,0:3|0:0|0:0|0:0,0:0:0:0:
133,300,81036,2,0,L|99:208,1,90,8|0,0:3|0:0,0:0:0:0:
245,215,81330,2,0,L|296:121,1,90,8|8,0:0|0:3,0:0:0:0:
54,135,81624,6,0,P|51:82|161:24,1,180,0|8,0:0|0:0,0:0:0:0:
291,20,82065,1,0,0:0:0:0:
147,20,82212,2,0,L|122:111,1,90,8|0,0:3|0:0,0:0:0:0:
258,106,82506,1,8,0:0:0:0:
123,106,82653,1,0,0:0:0:0:
356,106,82800,6,0,P|361:164|241:208,1,180,8|8,0:3|0:0,0:0:0:0:
411,218,83242,1,0,0:0:0:0:
267,218,83389,2,0,L|237:313,1,90,8|0,0:3|0:0,0:0:0:0:
383,303,83683,2,0,L|410:217,1,90,8|8,0:0|0:3,0:0:0:0:
176,217,83977,6,0,L|67:217,1,90,0|8,0:0|0:3,0:0:0:0:
229,217,84271,2,0,L|139:217,1,90,8|0,0:0|0:0,0:0:0:0:
354,217,84565,2,0,P|411:168|339:110,1,180,8|8,0:3|0:0,0:0:0:0:
261,107,85006,1,0,0:0:0:0:
9,107,85153,6,0,P|6:178|109:228,1,180,4|0,0:0|0:0,0:0:0:0:
181,231,85595,1,8,0:3:0:0:
324,231,85742,1,8,0:0:0:0:
162,231,86036,1,8,0:3:0:0:
449,231,86330,6,0,L|481:44,1,180,0|8,0:0|0:3,0:0:0:0:
317,53,86918,1,8,0:0:0:0:
478,53,87212,1,0,0:0:0:0:
190,53,87506,6,0,P|144:111|208:196,1,180,8|0,0:3|0:0,0:0:0:0:
283,192,87948,1,8,0:3:0:0:
426,192,88095,2,0,P|449:257|369:338,1,180,8|8,0:0|0:3,0:0:0:0:
95,335,88683,6,0,L|262:227,1,180,0|8,0:0|0:3,0:0:0:0:
84,237,89271,2,0,L|43:57,1,180,8|0,0:0|0:0,0:0:0:0:
133,61,89712,1,0,0:0:0:0:
276,61,89859,6,0,P|352:95|403:211,1,180,8|0,0:3|0:0,0:0:0:0:
309,175,90300,1,8,0:3:0:0:
164,175,90448,2,0,P|105:240|171:336,1,180,8|8,0:0|0:3,0:0:0:0:
223,318,90889,1,0,0:0:0:0:
366,318,91036,6,0,L|205:204,1,180,0|8,0:0|0:3,0:0:0:0:
381,213,91624,2,0,P|439:184|470:55,1,180,8|0,0:0|0:0,0:0:0:0:
188,80,92212,6,0,P|90:112|74:209,1,180,8|0,0:3|0:0,0:0:0:0:
157,178,92653,1,8,0:3:0:0:
300,178,92800,1,8,0:0:0:0:
137,178,93095,1,8,0:3:0:0:
424,178,93389,6,0,P|433:120|335:57,1,180,8|8,0:3|0:0,0:0:0:0:
200,52,93830,1,0,0:0:0:0:
469,52,94271,2,0,L|490:150,1,90,8|8,0:0|0:0,0:0:0:0:
235,140,94565,6,0,L|36:140,1,180,10|0,0:3|0:0,0:0:0:0:
198,140,95006,2,0,L|322:140,2,90,2|8|0,0:0|0:0|0:0,0:0:0:0:
55,255,95448,2,0,L|164:255,1,90
378,255,95742,6,0,P|434:198|369:140,1,180,10|0,0:3|0:0,0:0:0:0:
231,139,96183,1,2,0:0:0:0:
375,139,96330,2,0,L|416:33,1,90,8|0,0:0|0:0,0:0:0:0:
272,55,96624,1,0,0:0:0:0:
406,55,96771,1,0,0:0:0:0:
172,55,96918,6,0,P|113:110|174:168,1,180,10|0,0:3|0:0,0:0:0:0:
313,168,97359,2,0,L|435:168,2,90,2|8|0,0:0|0:0|0:0,0:0:0:0:
169,168,97800,2,0,L|59:168,1,90
314,168,98095,6,0,P|316:235|212:280,1,180,10|0,0:3|0:0,0:0:0:0:
81,282,98536,2,0,L|50:196,1,90,2|8,0:0|0:0,0:0:0:0:
140,197,98830,1,0,0:0:0:0:
283,197,98977,2,0,L|390:197,1,90,8|0,0:3|0:0,0:0:0:0:
140,197,99271,6,0,P|82:142|165:92,1,180,10|0,0:3|0:0,0:0:0:0:
284,85,99712,1,2,0:0:0:0:
140,85,99859,2,0,L|112:183,1,90,8|0,0:0|0:0,0:0:0:0:
250,171,100153,1,0,0:0:0:0:
115,171,100300,1,0,0:0:0:0:
350,171,100448,6,0,P|437:175|479:261,1,180,10|0,0:3|0:0,0:0:0:0:
335,249,100889,2,0,L|141:249,1,180,2|0,0:0|0:0,0:0:0:0:
298,249,101330,2,0,L|339:153,1,90
99,166,101624,6,0,L|61:75,1,90,10|0,0:3|0:0,0:0:0:0:
199,82,101918,1,0,0:0:0:0:
64,82,102065,1,2,0:0:0:0:
207,82,102212,2,0,L|310:82,1,90,8|0,0:0|0:0,0:0:0:0:
153,82,102506,2,0,L|50:82,1,90
296,82,102800,6,0,L|332:177,1,90,10|0,0:0|0:0,0:0:0:0:
182,166,103095,2,0,L|72:166,1,90,10|8,0:3|0:0,0:0:0:0:
307,166,103389,2,0,L|351:264,1,90,10|0,0:3|0:0,0:0:0:0:
128,248,103683,2,0,L|91:165,1,90,10|0,0:0|0:0,0:0:0:0:
343,165,103977,6,0,L|454:165,2,90,4|0|8,0:0|0:0|0:0,0:0:0:0:
199,165,104418,2,0,P|139:222|225:260,1,180
341,270,104859,2,0,L|378:176,1,90,8|0,0:0|0:0,0:0:0:0:
140,186,105153,6,0,L|27:186,2,90,8|0|8,0:3|0:0|0:0,0:0:0:0:
284,186,105595,2,0,P|297:131|177:80,1,180
352,66,106036,2,0,L|390:159,1,90,8|0,0:0|0:0,0:0:0:0:
152,149,106330,6,0,L|50:149,3,90,8|0|8|0,0:3|0:0|0:0|0:0,0:0:0:0:
277,149,106918,2,0,L|313:235,1,90,8|0,0:3|0:0,0:0:0:0:
167,232,107212,2,0,L|132:336,1,90,8|0,0:0|0:0,0:0:0:0:
372,317,107506,6,0,P|429:264|366:207,1,180,8|8,0:3|0:0,0:0:0:0:
224,206,107948,2,0,L|411:206,1,180
260,206,108389,2,0,L|155:206,1,90,8|0,0:0|0:0,0:0:0:0:
403,206,108683,6,0,L|506:206,2,90,8|0|8,0:3|0:0|0:0,0:0:0:0:
259,206,109124,2,0,P|252:157|359:90,1,180
490,87,109565,2,0,L|385:87,1,90,8|0,0:0|0:0,0:0:0:0:
166,87,109859,6,0,L|114:171,1,90,8|0,0:3|0:0,0:0:0:0:
262,163,110153,1,8,0:0:0:0:
118,163,110300,2,0,P|60:220|132:278,1,180
251,279,110742,1,8,0:0:0:0:
116,279,110889,1,0,0:0:0:0:
349,279,111036,6,0,L|380:183,1,90,8|0,0:3|0:0,0:0:0:0:
232,193,111330,2,0,L|130:193,1,90,8|0,0:0|0:0,0:0:0:0:
357,193,111624,2,0,L|486:193,3,90,8|0|8|0,0:3|0:0|0:0|0:0,0:0:0:0:
213,193,112212,6,0,P|205:138|332:86,1,180,8|8,0:3|0:0,0:0:0:0:
440,72,112653,1,0,0:0:0:0:
224,72,112800,2,0,L|112:72,1,90,8|0,0:3|0:0,0:0:0:0:
351,72,113095,2,0,L|386:161,1,90,8|0,0:0|0:0,0:0:0:0:
132,155,113389,6,0,L|26:155,2,90,8|0|8,0:3|0:0|0:0,0:0:0:0:
275,155,113830,2,0,P|281:233|175:269,1,180
56,276,114271,2,0,L|152:276,1,90,8|0,0:0|0:0,0:0:0:0:
379,276,114565,6,0,L|416:192,1,90,8|0,0:3|0:0,0:0:0:0:
325,193,114859,1,8,0:0:0:0:
181,193,115006,2,0,P|122:141|194:91,1,180
327,88,115448,2,0,L|434:88,1,90,8|0,0:0|0:0,0:0:0:0:
183,88,115742,6,0,L|80:88,1,90,8|0,0:3|0:0,0:0:0:0:
236,88,116036,2,0,L|326:88,1,90,8|0,0:0|0:0,0:0:0:0:
110,88,116330,2,0,L|77:182,1,90,8|0,0:3|0:0,0:0:0:0:
215,172,116624,1,8,0:0:0:0:
80,172,116771,1,0,0:0:0:0:
313,172,116918,6,0,P|317:245|221:289,1,180,8|8,0:3|0:0,0:0:0:0:
375,291,117359,2,0,P|430:224|363:174,1,180
238,173,117800,1,8,0:0:0:0:
373,173,117948,1,0,0:0:0:0:
139,173,118095,6,0,L|28:173,2,90,8|0|8,0:3|0:0|0:0,0:0:0:0:
282,173,118536,2,0,P|350:173|403:266,1,180
268,261,118977,1,8,0:0:0:0:
402,261,119124,1,0,0:0:0:0:
168,261,119271,6,0,L|124:179,1,90,8|0,0:3|0:0,0:0:0:0:
215,181,119565,1,8,0:0:0:0:
358,181,119712,2,0,P|357:127|235:84,1,180
111,75,120153,2,0,L|75:169,1,90,8|0,0:0|0:0,0:0:0:0:
314,159,120448,6,0,L|352:250,1,90,8|0,0:3|0:0,0:0:0:0:
204,242,120742,2,0,L|99:242,1,90,8|0,0:0|0:0,0:0:0:0:
329,242,121036,2,0,L|363:158,1,90,8|0,0:3|0:0,0:0:0:0:
227,158,121330,1,8,0:0:0:0:
362,158,121477,1,0,0:0:0:0:
128,158,121624,6,0,P|69:105|139:53,1,180,8|8,0:3|0:0,0:0:0:0:
218,50,122065,1,0,0:0:0:0:
433,50,122212,2,0,L|466:146,1,90,8|0,0:3|0:0,0:0:0:0:
327,135,122506,1,8,0:0:0:0:
461,135,122653,1,0,0:0:0:0:
209,135,122800,6,0,L|21:135,1,180,4|8,0:0|0:0,0:0:0:0:
119,135,123242,1,0,0:0:0:0:
334,135,123389,2,0,L|369:231,1,90,8|0,0:3|0:0,0:0:0:0:
220,219,123683,2,0,L|189:303,1,90,8|8,0:0|0:3,0:0:0:0:
405,303,123977,6,0,L|447:214,1,90,0|8,0:0|0:3,0:0:0:0:
308,221,124271,1,8,0:0:0:0:
442,221,124418,1,0,0:0:0:0:
226,221,124565,2,0,L|19:221,1,180,8|8,0:3|0:0,0:0:0:0:
135,221,125006,1,0,0:0:0:0:
368,221,125153,6,0,P|367:165|256:109,1,180,8|8,0:3|0:0,0:0:0:0:
414,105,125595,1,0,0:0:0:0:
198,105,125742,2,0,L|103:105,1,90,8|0,0:3|0:0,0:0:0:0:
251,105,126036,2,0,L|341:105,1,90,8|8,0:0|0:3,0:0:0:0:
107,105,126330,6,0,L|71:191,1,90,0|8,0:0|0:3,0:0:0:0:
216,188,126624,2,0,L|331:188,1,90,8|0,0:0|0:0,0:0:0:0:
90,188,126918,2,0,P|31:129|114:96,1,180,8|8,0:3|0:0,0:0:0:0:
181,85,127359,1,0,0:0:0:0:
414,85,127506,6,0,L|210:85,1,180,8|8,0:3|0:0,0:0:0:0:
378,85,127948,1,0,0:0:0:0:
162,85,128095,2,0,L|61:85,3,90,8|0|8|8,0:3|0:0|0:0|0:3,0:0:0:0:
305,85,128683,6,0,L|335:173,1,90,0|8,0:0|0:3,0:0:0:0:
199,170,128977,1,8,0:0:0:0:
333,170,129124,1,0,0:0:0:0:
117,170,129271,2,0,P|57:227|138:269,1,180,8|8,0:3|0:0,0:0:0:0:
205,276,129712,1,0,0:0:0:0:
438,276,129859,6,0,L|232:276,1,180,8|8,0:3|0:0,0:0:0:0:
401,276,130300,1,0,0:0:0:0:
183,276,130448,2,0,P|176:227|283:158,1,180,8|8,0:3|0:0,0:0:0:0:
413,155,130889,1,8,0:3:0:0:
179,155,131036,6,0,L|54:155,2,90,0|8|8,0:0|0:3|0:0,0:0:0:0:
394,155,131477,2,0,L|428:249,1,90,0|8,0:0|0:3,0:0:0:0:
280,239,131771,1,8,0:3:0:0:
424,239,131918,2,0,L|393:323,1,90,8|0,0:0|0:0,0:0:0:0:
159,323,132212,6,0,P|95:324|38:224,1,180,8|8,0:3|0:0,0:0:0:0:
126,234,132653,1,0,0:0:0:0:
341,234,132800,2,0,L|368:141,1,90,8|0,0:3|0:0,0:0:0:0:
221,147,133095,2,0,L|107:147,1,90,8|8,0:0|0:3,0:0:0:0:
364,147,133389,6,0,L|463:147,3,90,0|8|8|0,0:0|0:3|0:0|0:0,0:0:0:0:
238,147,133977,2,0,P|239:231|330:260,1,180,8|8,0:3|0:0,0:0:0:0:
408,263,134418,1,0,0:0:0:0:
174,263,134565,6,0,P|115:212|199:163,1,180,8|8,0:3|0:0,0:0:0:0:
317,154,135006,1,0,0:0:0:0:
101,154,135153,2,0,L|68:255,1,90,8|0,0:3|0:0,0:0:0:0:
208,239,135448,1,8,0:0:0:0:
73,239,135595,1,8,0:3:0:0:
306,239,135742,6,0,L|401:239,1,90,0|8,0:0|0:3,0:0:0:0:
252,239,136036,2,0,L|129:239,1,90,8|0,0:0|0:0,0:0:0:0:
377,239,136330,2,0,P|432:293|359:355,1,180,8|8,0:3|0:0,0:0:0:0:
284,356,136771,1,0,0:0:0:0:
50,356,136918,6,0,P|45:300|144:228,1,180,8|8,0:3|0:0,0:0:0:0:
223,227,137359,1,0,0:0:0:0:
438,227,137506,2,0,L|465:132,1,90,8|0,0:3|0:0,0:0:0:0:
327,140,137800,1,8,0:0:0:0:
462,140,137948,1,8,0:3:0:0:
246,140,138095,6,0,L|210:231,1,90,0|8,0:0|0:3,0:0:0:0:
356,223,138389,2,0,L|389:139,1,90,8|0,0:0|0:0,0:0:0:0:
173,139,138683,2,0,P|172:68|274:28,1,180,8|8,0:3|0:0,0:0:0:0:
116,24,139124,1,0,0:0:0:0:
349,24,139271,6,0,P|404:74|330:139,1,180,8|8,0:3|0:0,0:0:0:0:
203,141,139712,1,0,0:0:0:0:
418,141,139859,2,0,P|475:207|387:244,1,180,8|8,0:3|0:0,0:0:0:0:
328,254,140300,1,8,0:3:0:0:
110,254,140448,6,0,L|95:164,1,90,0|8,0:0|0:3,0:0:0:0:
184,165,140742,1,8,0:0:0:0:
399,165,140889,2,0,L|498:165,2,90,0|8|8,0:0|0:3|0:3,0:0:0:0:
183,165,141330,2,0,L|147:71,1,90,8|0,0:0|0:0,0:0:0:0:
403,80,141624,6,0,P|459:114|234:209,1,540,4|0,0:0|0:0,0:0:0:0:
401,242,142800,2,0,P|464:210|337:228,1,540,2|0,0:0|0:0,0:0:0:0:
44,236,143977,6,0,P|26:186|115:75,1,180,2|0,0:0|0:0,0:0:0:0:
244,78,144565,2,0,L|92:185,1,180
384,181,145153,6,0,P|395:259|303:317,1,180,2|0,0:0|0:0,0:0:0:0:
177,316,145595,1,0,0:0:0:0:
419,316,146036,1,0,0:0:0:0:
131,316,146330,6,0,P|95:281|341:52,1,540,2|0,0:0|0:0,0:0:0:0:
173,47,147506,2,0,P|112:48|219:302,1,540,2|0,0:0|0:0,0:0:0:0:
503,304,148683,6,0,P|472:202|399:175,1,180,2|0,0:0|0:0,0:0:0:0:
248,175,149271,2,0,L|424:123,1,180
131,89,149859,6,0,P|126:157|221:217,1,180,2|0,0:0|0:0,0:0:0:0:
353,217,150300,1,0,0:0:0:0:
109,217,150742,1,0,0:0:0:0:
396,280,151036,6,0,L|217:70,2,270,2|0|0,0:0|0:0|0:0,0:0:0:0:
108,280,152212,6,0,L|280:70,2,270,2|0|0,0:0|0:0|0:0,0:0:0:0:
396,280,153389,6,0,P|448:209|375:158,1,180,2|0,0:0|0:0,0:0:0:0:
230,157,153977,2,0,L|365:29,1,180
72,33,154565,6,0,P|61:101|154:166,1,180,2|0,0:0|0:0,0:0:0:0:
283,166,155006,1,0,0:0:0:0:
39,166,155448,1,0,0:0:0:0:
326,166,155742,6,0,P|381:170|464:344,2,270,2|0|0,0:0|0:0|0:0,0:0:0:0:
38,166,156918,6,0,P|32:102|195:25,2,270,2|0|0,0:0|0:0|0:0,0:0:0:0:
326,166,158095,6,0,L|363:368,1,180,2|0,0:0|0:0,0:0:0:0:
206,340,158683,2,0,L|147:157,1,180,2|0,0:0|0:0,0:0:0:0:
438,168,159271,6,0,L|473:266,1,90,10|0,0:3|0:0,0:0:0:0:
333,252,159565,1,10,0:3:0:0:
467,252,159712,1,0,0:0:0:0:
251,252,159859,2,0,L|142:252,1,90,10|0,0:3|0:0,0:0:0:0:
376,252,160153,2,0,L|399:155,1,90,10|0,0:3|0:0,0:0:0:0:
161,164,160448,6,0,L|50:164,2,90,4|0|8,0:0|0:0|0:0,0:0:0:0:
305,164,160889,2,0,P|365:221|279:259,1,180
163,269,161330,2,0,L|126:175,1,90,8|0,0:0|0:0,0:0:0:0:
364,185,161624,6,0,L|477:185,2,90,8|0|8,0:3|0:0|0:0,0:0:0:0:
220,185,162066,2,0,P|207:130|327:79,1,180
152,65,162507,2,0,L|114:158,1,90,8|0,0:0|0:0,0:0:0:0:
352,148,162801,6,0,L|454:148,3,90,8|0|8|0,0:3|0:0|0:0|0:0,0:0:0:0:
227,148,163389,2,0,L|191:234,1,90,8|0,0:3|0:0,0:0:0:0:
337,231,163683,2,0,L|372:335,1,90,8|0,0:0|0:0,0:0:0:0:
132,316,163977,6,0,P|75:263|138:206,1,180,8|8,0:3|0:0,0:0:0:0:
280,205,164419,2,0,L|93:205,1,180
244,205,164860,2,0,L|349:205,1,90,8|0,0:0|0:0,0:0:0:0:
100,205,165153,6,0,L|3:205,2,90,8|0|8,0:3|0:0|0:0,0:0:0:0:
243,205,165594,2,0,P|301:258|225:306,1,180
103,310,166036,1,8,0:0:0:0:
237,310,166183,1,0,0:0:0:0:
470,310,166330,6,0,L|501:223,1,90,8|0,0:3|0:0,0:0:0:0:
410,225,166624,1,8,0:0:0:0:
266,225,166771,2,0,P|257:165|353:105,1,180
489,103,167212,2,0,L|489:13,1,90,8|0,0:0|0:0,0:0:0:0:
255,13,167506,6,0,L|136:13,1,90,8|0,0:3|0:0,0:0:0:0:
308,13,167800,2,0,L|398:13,1,90,8|0,0:0|0:0,0:0:0:0:
182,13,168094,2,0,L|150:119,1,90,8|0,0:3|0:0,0:0:0:0:
300,99,168389,2,0,L|409:99,1,90,8|0,0:0|0:0,0:0:0:0:
156,99,168683,6,0,L|52:99,3,90,8|0|8|0,0:3|0:0|0:0|0:0,0:0:0:0:
281,99,169271,2,0,L|392:99,1,90,8|0,0:3|0:0,0:0:0:0:
155,99,169565,2,0,L|119:202,1,90,8|0,0:0|0:0,0:0:0:0:
359,183,169859,6,0,L|399:272,1,90,8|0,0:3|0:0,0:0:0:0:
305,266,170153,1,8,0:0:0:0:
161,266,170300,2,0,L|363:266,1,180
206,266,170741,1,8,0:0:0:0:
341,266,170889,1,0,0:0:0:0:
107,266,171036,6,0,L|6:266,2,90,8|0|8,0:3|0:0|0:0,0:0:0:0:
322,266,171477,2,0,P|326:192|234:149,1,180
106,147,171918,2,0,L|204:147,1,90,8|0,0:0|0:0,0:0:0:0:
429,147,172212,6,0,L|464:243,1,90,8|0,0:3|0:0,0:0:0:0:
324,231,172506,1,8,0:0:0:0:
458,231,172653,1,0,0:0:0:0:
242,231,172800,2,0,L|134:231,3,90,8|0|8|0,0:3|0:0|0:0|0:0,0:0:0:0:
387,231,173389,6,0,P|444:182|377:122,1,180,8|8,0:3|0:0,0:0:0:0:
240,120,173830,2,0,L|38:120,1,180
194,120,174271,1,8,0:0:0:0:
59,120,174418,1,0,0:0:0:0:
292,120,174565,6,0,L|414:120,2,90,8|0|8,0:3|0:0|0:0,0:0:0:0:
76,120,175006,2,0,L|279:120,1,180
111,120,175448,2,0,L|78:208,1,90,8|0,0:0|0:0,0:0:0:0:
313,204,175742,6,0,L|429:204,2,90,8|0|8,0:3|0:0|0:0,0:0:0:0:
169,204,176183,2,0,P|168:275|275:313,1,180
400,319,176624,2,0,L|300:319,1,90,8|0,0:0|0:0,0:0:0:0:
76,319,176918,6,0,L|45:229,1,90,8|0,0:3|0:0,0:0:0:0:
181,233,177212,1,8,0:0:0:0:
46,233,177359,1,0,0:0:0:0:
261,233,177506,2,0,L|389:233,1,90,8|0,0:3|0:0,0:0:0:0:
207,233,177800,2,0,L|117:233,1,90,8|0,0:0|0:0,0:0:0:0:
334,233,178095,6,0,L|370:136,1,90,8|0,0:3|0:0,0:0:0:0:
221,148,178389,2,0,L|112:148,1,90,8|0,0:0|0:0,0:0:0:0:
346,148,178683,2,0,L|346:259,1,90,8|0,0:3|0:0,0:0:0:0:
130,238,178977,2,0,L|130:144,1,90,8|0,0:0|0:0,0:0:0:0:
381,148,179271,6,0,L|485:148,2,90,4|0|8,0:0|0:0|0:0,0:0:0:0:
237,148,179712,2,0,P|231:226|337:262,1,180
456,269,180153,2,0,L|360:269,1,90,8|0,0:0|0:0,0:0:0:0:
133,269,180447,6,0,L|96:185,1,90,8|0,0:3|0:0,0:0:0:0:
187,186,180741,1,8,0:0:0:0:
402,186,180888,2,0,P|416:117|314:90,1,180
185,81,181330,2,0,L|78:81,1,90,8|0,0:0|0:0,0:0:0:0:
329,81,181624,6,0,L|432:81,1,90,8|0,0:3|0:0,0:0:0:0:
276,81,181918,2,0,L|186:81,1,90,8|0,0:0|0:0,0:0:0:0:
402,81,182212,2,0,L|435:175,1,90,8|0,0:3|0:0,0:0:0:0:
296,165,182506,1,8,0:0:0:0:
432,165,182653,1,0,0:0:0:0:
199,165,182800,6,0,P|195:238|291:282,1,180,8|8,0:3|0:0,0:0:0:0:
137,284,183241,2,0,P|82:217|149:167,1,180
273,166,183682,1,8,0:0:0:0:
139,166,183830,1,0,0:0:0:0:
372,166,183977,6,0,L|394:257,1,90,8|0,0:3|0:0,0:0:0:0:
303,253,184271,1,8,0:0:0:0:
159,253,184418,2,0,L|360:253,1,180
195,253,184859,2,0,L|148:166,1,90,8|0,0:0|0:0,0:0:0:0:
386,173,185153,6,0,L|503:173,2,90,8|0|8,0:3|0:0|0:0,0:0:0:0:
241,173,185595,2,0,P|186:144|243:73,1,180
387,73,186036,2,0,L|426:163,1,90,8|0,0:0|0:0,0:0:0:0:
188,155,186330,6,0,L|86:155,3,90,8|0|8|0,0:3|0:0|0:0|0:0,0:0:0:0:
313,155,186918,2,0,L|343:250,1,90,8|0,0:3|0:0,0:0:0:0:
196,240,187212,2,0,L|168:154,1,90,8|0,0:0|0:0,0:0:0:0:
402,154,187506,6,0,L|438:246,1,90,8|0,0:3|0:0,0:0:0:0:
299,237,187800,1,8,0:0:0:0:
434,237,187948,1,0,0:0:0:0:
218,237,188095,2,0,L|101:237,1,90,8|0,0:3|0:0,0:0:0:0:
343,237,188389,2,0,L|383:338,1,90,8|0,0:0|0:0,0:0:0:0:
124,320,188683,6,0,L|19:320,2,90,8|0|8,0:3|0:0|0:0,0:0:0:0:
267,320,189124,2,0,L|465:321,1,180
312,320,189565,1,8,0:0:0:0:
446,320,189712,1,0,0:0:0:0:
212,320,189859,6,0,L|100:320,2,90,8|0|8,0:3|0:0|0:0,0:0:0:0:
355,320,190300,2,0,P|357:266|245:208,1,180
115,204,190742,2,0,L|78:117,1,90,8|0,0:0|0:0,0:0:0:0:
313,121,191036,6,0,L|432:121,1,90,8|0,0:3|0:0,0:0:0:0:
259,121,191330,2,0,L|169:121,1,90,8|0,0:0|0:0,0:0:0:0:
402,121,191624,2,0,L|503:121,3,90,8|0|8|0,0:3|0:0|0:0|0:0,0:0:0:0:
258,121,192212,6,0,P|174:120|129:215,1,180,8|8,0:3|0:0,0:0:0:0:
271,194,192653,2,0,P|329:247|263:307,1,180
127,307,193095,2,0,L|91:216,1,90,8|0,0:0|0:0,0:0:0:0:
327,223,193389,6,0,L|359:137,1,90,8|0,0:3|0:0,0:0:0:0:
268,138,193683,1,8,0:0:0:0:
124,138,193830,2,0,P|67:81|148:33,1,180
261,27,194271,1,8,0:0:0:0:
126,27,194418,1,0,0:0:0:0:
359,27,194565,6,0,L|470:27,2,90,8|0|8,0:3|0:0|0:0,0:0:0:0:
215,27,195006,2,0,L|414:27,1,180
250,27,195448,2,0,L|134:27,1,90,8|0,0:0|0:0,0:0:0:0:
393,27,195742,6,0,L|503:27,3,90,8|0|8|0,0:3|0:0|0:0|0:0,0:0:0:0:
267,27,196330,2,0,L|155:27,1,90,8|0,0:3|0:0,0:0:0:0:
320,27,196624,2,0,L|354:118,1,90,8|0,0:0|0:0,0:0:0:0:
117,111,196918,6,0,P|106:186|207:233,1,180,8|8,0:3|0:0,0:0:0:0:
328,237,197359,1,0,0:0:0:0:
184,237,197506,2,0,L|152:331,1,90,8|0,0:3|0:0,0:0:0:0:
298,322,197800,2,0,L|327:236,1,90,8|0,0:0|0:0,0:0:0:0:
73,236,198095,6,0,L|43:138,1,90,4|0,0:0|0:0,0:0:0:0:
181,149,198389,1,8,0:0:0:0:
46,149,198536,1,0,0:0:0:0:
261,149,198683,2,0,L|298:244,1,90,8|0,0:3|0:0,0:0:0:0:
149,232,198977,2,0,L|41:232,1,90,8|8,0:0|0:3,0:0:0:0:
292,232,199271,6,0,P|366:232|419:138,1,180,0|8,0:0|0:0,0:0:0:0:
275,149,199712,2,0,L|159:149,2,90,0|8|0,0:0|0:3|0:0,0:0:0:0:
418,149,200153,2,0,L|449:62,1,90,8|0,0:0|0:0,0:0:0:0:
212,64,200448,6,0,L|23:64,1,180,8|8,0:3|0:0,0:0:0:0:
175,64,200889,1,0,0:0:0:0:
31,64,201036,2,0,L|7:162,1,90,8|0,0:3|0:0,0:0:0:0:
144,151,201330,1,8,0:0:0:0:
9,151,201477,1,8,0:3:0:0:
242,151,201624,6,0,L|284:246,1,90,0|8,0:0|0:3,0:0:0:0:
134,233,201918,2,0,L|97:150,1,90,8|0,0:0|0:0,0:0:0:0:
313,150,202212,2,0,P|406:150|450:67,1,180,8|8,0:3|0:0,0:0:0:0:
359,83,202653,1,0,0:0:0:0:
125,83,202800,6,0,L|19:83,3,90,8|0|8|0,0:3|0:0|0:0|0:0,0:0:0:0:
252,83,203389,2,0,L|290:170,1,90,8|0,0:3|0:0,0:0:0:0:
144,165,203683,2,0,L|106:252,1,90,8|8,0:0|0:3,0:0:0:0:
341,247,203977,6,0,L|146:247,1,180,0|8,0:0|0:0,0:0:0:0:
304,247,204418,1,0,0:0:0:0:
160,247,204565,2,0,L|125:153,1,90,8|0,0:3|0:0,0:0:0:0:
272,162,204859,2,0,L|396:162,1,90,8|0,0:0|0:0,0:0:0:0:
128,162,205153,6,0,P|71:106|141:52,1,180,8|8,0:3|0:0,0:0:0:0:
275,50,205595,1,0,0:0:0:0:
131,50,205742,2,0,L|101:145,1,90,8|0,0:3|0:0,0:0:0:0:
238,135,206036,1,8,0:0:0:0:
103,135,206183,1,8,0:3:0:0:
336,135,206330,6,0,L|458:135,3,90,0|8|8|0,0:0|0:3|0:0|0:0,0:0:0:0:
210,135,206918,2,0,L|181:237,1,90,8|8,0:3|0:3,0:0:0:0:
329,221,207212,1,8,0:0:0:0:
185,221,207359,1,0,0:0:0:0:
436,221,207506,5,2,0:0:0:0:
