osu file format v14

[General]
AudioFilename: audio.mp3
AudioLeadIn: 0
PreviewTime: 47992
Countdown: 0
SampleSet: Normal
StackLeniency: 0.7
Mode: 1
LetterboxInBreaks: 0
WidescreenStoryboard: 1

[Editor]
DistanceSpacing: 1.3
BeatDivisor: 1
GridSize: 32
TimelineZoom: 2.3

[Metadata]
Title:Ai no Sukima (Cut Ver.)
TitleUnicode:哀の隙間 (Cut Ver.)
Artist:MIMI
ArtistUnicode:MIMI
Creator:Eriha
Version:Oni
Source:
Tags:featured artist fa 佐藤主税 sorrow's gap vocaloid japanese pop jpop j-pop feat. hatsune miku 初音ミク
BeatmapID:3554171
BeatmapSetID:1737179

[Difficulty]
HPDrainRate:6.3
CircleSize:5
OverallDifficulty:5.5
ApproachRate:5
SliderMultiplier:1.4
SliderTickRate:1

[Events]
//Background and Video events
0,0,"ilovemiku1.jpg",0,100
//Break Periods
//Storyboard Layer 0 (Background)
//Storyboard Layer 1 (Fail)
//Storyboard Layer 2 (Pass)
//Storyboard Layer 3 (Foreground)
//Storyboard Layer 4 (Overlay)
//Storyboard Sound Samples

[TimingPoints]
934,294.117647058824,4,1,0,75,1,0
934,-125,4,1,0,75,0,0
10272,-100,4,1,0,85,0,0
28856,-111.111111111111,4,1,0,80,0,0
29150,-125,4,1,0,75,0,0
38507,-100,4,1,0,85,0,0
46797,-100,4,1,0,85,0,0
46945,-98.765432098765,4,1,0,86,0,0
47092,-97.560975609756,4,1,0,86,0,0
47386,-95.238095238095,4,1,0,88,0,0
47533,-94.117647058824,4,1,0,88,0,0
47680,-93.023255813953,4,1,0,89,0,0
47827,-91.954022988506,4,1,0,89,0,0
47974,-90.909090909091,4,1,0,90,0,0
47992,-90.9090909090909,4,1,0,90,0,1
66816,-90.9090909090909,4,1,0,90,0,0

[HitObjects]
256,192,934,5,0,0:0:0:0:
256,192,1081,1,0,0:0:0:0:
256,192,1228,1,8,0:0:0:0:
256,192,1522,1,8,0:0:0:0:
256,192,1669,1,8,0:0:0:0:
256,192,1816,1,0,0:0:0:0:
256,192,2110,1,8,0:0:0:0:
256,192,2404,1,0,0:0:0:0:
256,192,2698,1,0,0:0:0:0:
256,192,2845,1,0,0:0:0:0:
256,192,2992,1,8,0:0:0:0:
256,192,3286,1,8,0:0:0:0:
256,192,3581,1,0,0:0:0:0:
256,192,3875,1,0,0:0:0:0:
256,192,4022,1,8,0:0:0:0:
256,192,4169,1,8,0:0:0:0:
256,192,4463,1,8,0:0:0:0:
256,192,4757,1,8,0:0:0:0:
256,192,5051,1,0,0:0:0:0:
256,192,5639,1,0,0:0:0:0:
256,192,5786,1,0,0:0:0:0:
256,192,5933,1,8,0:0:0:0:
256,192,6227,1,8,0:0:0:0:
256,192,6374,1,8,0:0:0:0:
256,192,6521,1,0,0:0:0:0:
256,192,6815,1,8,0:0:0:0:
256,192,7109,1,0,0:0:0:0:
256,192,7403,1,0,0:0:0:0:
256,192,7550,1,0,0:0:0:0:
256,192,7697,1,8,0:0:0:0:
256,192,7991,1,8,0:0:0:0:
256,192,8286,1,0,0:0:0:0:
256,192,8580,1,0,0:0:0:0:
256,192,8727,1,8,0:0:0:0:
256,192,8874,1,8,0:0:0:0:
256,192,9168,1,8,0:0:0:0:
256,192,9463,1,0,0:0:0:0:
256,192,9756,1,0,0:0:0:0:
256,192,10345,1,4,0:0:0:0:
256,192,10492,1,0,0:0:0:0:
256,192,10566,1,0,0:0:0:0:
256,192,10639,1,8,0:0:0:0:
256,192,10933,1,8,0:0:0:0:
256,192,11081,1,8,0:0:0:0:
256,192,11227,1,0,0:0:0:0:
256,192,11374,1,0,0:0:0:0:
256,192,11521,1,8,0:0:0:0:
256,192,11815,1,0,0:0:0:0:
256,192,12109,1,0,0:0:0:0:
256,192,12184,1,0,0:0:0:0:
256,192,12256,1,0,0:0:0:0:
256,192,12403,1,8,0:0:0:0:
256,192,12697,1,8,0:0:0:0:
256,192,12992,1,0,0:0:0:0:
256,192,13286,1,0,0:0:0:0:
256,192,13360,1,0,0:0:0:0:
256,192,13433,1,8,0:0:0:0:
256,192,13580,1,8,0:0:0:0:
256,192,13874,1,8,0:0:0:0:
256,192,14021,1,0,0:0:0:0:
256,192,14168,1,8,0:0:0:0:
256,192,14462,1,0,0:0:0:0:
256,192,14757,1,8,0:0:0:0:
256,192,15051,1,0,0:0:0:0:
256,192,15198,1,0,0:0:0:0:
256,192,15272,1,0,0:0:0:0:
256,192,15345,1,8,0:0:0:0:
256,192,15639,1,8,0:0:0:0:
256,192,15786,1,8,0:0:0:0:
256,192,15933,1,0,0:0:0:0:
256,192,16080,1,0,0:0:0:0:
256,192,16227,1,8,0:0:0:0:
256,192,16521,1,0,0:0:0:0:
256,192,16815,1,0,0:0:0:0:
256,192,16889,1,0,0:0:0:0:
256,192,16962,1,0,0:0:0:0:
256,192,17109,1,8,0:0:0:0:
256,192,17403,1,8,0:0:0:0:
256,192,17698,1,0,0:0:0:0:
256,192,17992,1,0,0:0:0:0:
256,192,18066,1,0,0:0:0:0:
256,192,18139,1,8,0:0:0:0:
256,192,18286,1,8,0:0:0:0:
256,192,18580,1,8,0:0:0:0:
256,192,18727,1,0,0:0:0:0:
256,192,18875,1,0,0:0:0:0:
256,192,19168,1,0,0:0:0:0:
256,192,19463,1,8,0:0:0:0:
256,192,19757,1,0,0:0:0:0:
256,192,19904,1,0,0:0:0:0:
256,192,19978,1,0,0:0:0:0:
256,192,20051,1,8,0:0:0:0:
256,192,20345,1,8,0:0:0:0:
256,192,20493,1,8,0:0:0:0:
256,192,20639,1,0,0:0:0:0:
256,192,20786,1,0,0:0:0:0:
256,192,20933,1,8,0:0:0:0:
256,192,21227,1,0,0:0:0:0:
256,192,21521,1,0,0:0:0:0:
256,192,21596,1,0,0:0:0:0:
256,192,21668,1,0,0:0:0:0:
256,192,21815,1,8,0:0:0:0:
256,192,22109,1,8,0:0:0:0:
256,192,22404,1,0,0:0:0:0:
256,192,22698,1,0,0:0:0:0:
256,192,22772,1,0,0:0:0:0:
256,192,22845,1,8,0:0:0:0:
256,192,22992,1,8,0:0:0:0:
256,192,23286,1,8,0:0:0:0:
256,192,23433,1,0,0:0:0:0:
256,192,23580,1,8,0:0:0:0:
256,192,23874,1,0,0:0:0:0:
256,192,24169,1,8,0:0:0:0:
256,192,24463,1,0,0:0:0:0:
256,192,24610,1,0,0:0:0:0:
256,192,24684,1,0,0:0:0:0:
256,192,24757,1,8,0:0:0:0:
256,192,25051,1,8,0:0:0:0:
256,192,25198,1,8,0:0:0:0:
256,192,25345,1,0,0:0:0:0:
256,192,25492,1,0,0:0:0:0:
256,192,25639,1,8,0:0:0:0:
256,192,25933,1,0,0:0:0:0:
256,192,26227,1,0,0:0:0:0:
256,192,26301,1,0,0:0:0:0:
256,192,26374,1,0,0:0:0:0:
256,192,26521,1,8,0:0:0:0:
256,192,26815,1,8,0:0:0:0:
256,192,27110,1,0,0:0:0:0:
256,192,27404,1,0,0:0:0:0:
256,192,27478,1,0,0:0:0:0:
256,192,27551,1,8,0:0:0:0:
256,192,27698,1,8,0:0:0:0:
256,192,27992,1,8,0:0:0:0:
256,192,28139,1,0,0:0:0:0:
256,192,28287,1,0,0:0:0:0:
256,192,28580,1,0,0:0:0:0:
256,192,28875,1,8,0:0:0:0:
256,192,29169,1,0,0:0:0:0:
256,192,29463,1,0,0:0:0:0:
256,192,29757,1,8,0:0:0:0:
256,192,30345,1,0,0:0:0:0:
256,192,30639,1,8,0:0:0:0:
256,192,30934,1,8,0:0:0:0:
256,192,31522,1,0,0:0:0:0:
256,192,31816,1,0,0:0:0:0:
256,192,32110,1,8,0:0:0:0:
256,192,32698,1,8,0:0:0:0:
256,192,32992,1,0,0:0:0:0:
256,192,33286,1,8,0:0:0:0:
256,192,33875,1,0,0:0:0:0:
256,192,34169,1,0,0:0:0:0:
256,192,34463,1,8,0:0:0:0:
256,192,35051,1,0,0:0:0:0:
256,192,35345,1,8,0:0:0:0:
256,192,35639,1,8,0:0:0:0:
256,192,36228,1,8,0:0:0:0:
256,192,36522,1,0,0:0:0:0:
256,192,36816,1,8,0:0:0:0:
256,192,37404,1,8,0:0:0:0:
256,192,38581,1,4,0:0:0:0:
256,192,39022,1,8,0:0:0:0:
256,192,39316,1,8,0:0:0:0:
256,192,39463,1,8,0:0:0:0:
256,192,39757,1,0,0:0:0:0:
256,192,40198,1,8,0:0:0:0:
256,192,40639,1,8,0:0:0:0:
256,192,40934,1,8,0:0:0:0:
256,192,41375,1,8,0:0:0:0:
256,192,41669,1,8,0:0:0:0:
256,192,41816,1,8,0:0:0:0:
256,192,42110,1,8,0:0:0:0:
256,192,42551,1,8,0:0:0:0:
256,192,42992,1,0,0:0:0:0:
256,192,43139,1,8,0:0:0:0:
256,192,43286,1,0,0:0:0:0:
256,192,43875,1,8,0:0:0:0:
256,192,44022,1,8,0:0:0:0:
256,192,44169,1,0,0:0:0:0:
256,192,44316,1,0,0:0:0:0:
256,192,44463,1,8,0:0:0:0:
256,192,44757,1,0,0:0:0:0:
256,192,45345,1,0,0:0:0:0:
256,192,45639,1,8,0:0:0:0:
256,192,45934,1,8,0:0:0:0:
256,192,46228,1,0,0:0:0:0:
256,192,46522,1,8,0:0:0:0:
256,192,46816,1,0,0:0:0:0:
256,192,46963,1,0,0:0:0:0:
256,192,47110,1,8,0:0:0:0:
256,192,47404,1,0,0:0:0:0:
256,192,47551,1,8,0:0:0:0:
256,192,47698,1,8,0:0:0:0:
256,192,47845,1,8,0:0:0:0:
256,192,47992,1,4,0:0:0:0:
256,192,48139,1,0,0:0:0:0:
256,192,48213,1,0,0:0:0:0:
256,192,48286,1,8,0:0:0:0:
256,192,48434,1,8,0:0:0:0:
256,192,48728,1,8,0:0:0:0:
256,192,48801,1,8,0:0:0:0:
256,192,48875,1,8,0:0:0:0:
256,192,49022,1,8,0:0:0:0:
256,192,49169,1,0,0:0:0:0:
256,192,49316,1,0,0:0:0:0:
256,192,49463,1,8,0:0:0:0:
256,192,49610,1,0,0:0:0:0:
256,192,50051,1,8,0:0:0:0:
256,192,50198,1,0,0:0:0:0:
256,192,50345,1,8,0:0:0:0:
256,192,50419,1,8,0:0:0:0:
256,192,50492,1,0,0:0:0:0:
256,192,50639,1,8,0:0:0:0:
256,192,50786,1,0,0:0:0:0:
256,192,50934,1,8,0:0:0:0:
256,192,51081,1,0,0:0:0:0:
256,192,51154,1,0,0:0:0:0:
256,192,51228,1,8,0:0:0:0:
256,192,51375,1,0,0:0:0:0:
256,192,51522,1,8,0:0:0:0:
256,192,51816,1,0,0:0:0:0:
256,192,51963,1,8,0:0:0:0:
256,192,52257,1,0,0:0:0:0:
256,192,52331,1,0,0:0:0:0:
256,192,52404,1,8,0:0:0:0:
256,192,52551,1,0,0:0:0:0:
256,192,52698,1,8,0:0:0:0:
256,192,52992,1,8,0:0:0:0:
256,192,53139,1,0,0:0:0:0:
256,192,53434,1,0,0:0:0:0:
256,192,53507,1,0,0:0:0:0:
256,192,53581,1,8,0:0:0:0:
256,192,53728,1,0,0:0:0:0:
256,192,53875,1,0,0:0:0:0:
256,192,54022,1,8,0:0:0:0:
256,192,54169,1,8,0:0:0:0:
256,192,54316,1,0,0:0:0:0:
256,192,54757,1,8,0:0:0:0:
256,192,54904,1,0,0:0:0:0:
256,192,55051,1,8,0:0:0:0:
256,192,55125,1,0,0:0:0:0:
256,192,55198,1,0,0:0:0:0:
256,192,55345,1,8,0:0:0:0:
256,192,55492,1,0,0:0:0:0:
256,192,55639,1,8,0:0:0:0:
256,192,55786,1,0,0:0:0:0:
256,192,55860,1,0,0:0:0:0:
256,192,55934,1,8,0:0:0:0:
256,192,56081,1,0,0:0:0:0:
256,192,56228,1,8,0:0:0:0:
256,192,56375,1,0,0:0:0:0:
256,192,56522,1,8,0:0:0:0:
256,192,56816,1,0,0:0:0:0:
256,192,56889,1,0,0:0:0:0:
256,192,56963,1,0,0:0:0:0:
256,192,57110,1,8,0:0:0:0:
256,192,57404,1,0,0:0:0:0:
256,192,57551,1,8,0:0:0:0:
256,192,57625,1,8,0:0:0:0:
256,192,57698,1,8,0:0:0:0:
256,192,57845,1,0,0:0:0:0:
256,192,58139,1,0,0:0:0:0:
256,192,58286,1,8,0:0:0:0:
256,192,58434,1,0,0:0:0:0:
256,192,58581,1,8,0:0:0:0:
256,192,58654,1,8,0:0:0:0:
256,192,58801,1,8,0:0:0:0:
256,192,58875,1,8,0:0:0:0:
256,192,59022,1,0,0:0:0:0:
256,192,59463,1,8,0:0:0:0:
256,192,59610,1,0,0:0:0:0:
256,192,59757,1,8,0:0:0:0:
256,192,59831,1,8,0:0:0:0:
256,192,59904,1,0,0:0:0:0:
256,192,60051,1,8,0:0:0:0:
256,192,60198,1,0,0:0:0:0:
256,192,60345,1,8,0:0:0:0:
256,192,60492,1,8,0:0:0:0:
256,192,60566,1,8,0:0:0:0:
256,192,60639,1,0,0:0:0:0:
256,192,60786,1,8,0:0:0:0:
256,192,60934,1,0,0:0:0:0:
256,192,61081,1,0,0:0:0:0:
256,192,61228,1,8,0:0:0:0:
256,192,61375,1,0,0:0:0:0:
256,192,61816,1,8,0:0:0:0:
256,192,61963,1,0,0:0:0:0:
256,192,62110,1,8,0:0:0:0:
256,192,62257,1,0,0:0:0:0:
256,192,62331,1,0,0:0:0:0:
256,192,62404,1,8,0:0:0:0:
256,192,62551,1,0,0:0:0:0:
256,192,62845,1,0,0:0:0:0:
256,192,62992,1,8,0:0:0:0:
256,192,63139,1,0,0:0:0:0:
256,192,63286,1,8,0:0:0:0:
256,192,63360,1,8,0:0:0:0:
256,192,63434,1,8,0:0:0:0:
256,192,63581,1,8,0:0:0:0:
256,192,63728,1,0,0:0:0:0:
256,192,64169,1,8,0:0:0:0:
256,192,64316,1,0,0:0:0:0:
256,192,64463,1,8,0:0:0:0:
256,192,64536,1,8,0:0:0:0:
256,192,64610,1,8,0:0:0:0:
256,192,64757,1,8,0:0:0:0:
256,192,64904,1,0,0:0:0:0:
256,192,65051,1,8,0:0:0:0:
256,192,65198,1,0,0:0:0:0:
256,192,65272,1,8,0:0:0:0:
256,192,65345,1,0,0:0:0:0:
256,192,65492,1,8,0:0:0:0:
256,192,65639,1,0,0:0:0:0:
256,192,65786,1,0,0:0:0:0:
256,192,65934,1,8,0:0:0:0:
256,192,66081,1,0,0:0:0:0:
256,192,66375,1,0,0:0:0:0:
256,192,66522,1,8,0:0:0:0:
256,192,66669,1,8,0:0:0:0:
256,192,66816,1,4,0:0:0:0:
256,192,67110,12,8,71522,0:0:0:0:
