osu file format v14

[General]
AudioFilename: audio.mp3
AudioLeadIn: 0
PreviewTime: 6549
Countdown: 0
SampleSet: Soft
StackLeniency: 0.3
Mode: 0
LetterboxInBreaks: 0
WidescreenStoryboard: 1

[Editor]
DistanceSpacing: 0.5
BeatDivisor: 8
GridSize: 8
TimelineZoom: 2.7

[Metadata]
Title:Ai no Sukima (Arrange Ver.)
TitleUnicode:哀の隙間 (Arrange Ver.)
Artist:MIMI
ArtistUnicode:MIMI
Creator:Hivie
Version:muya-'s Hard
Source:
Tags:vocaloid feat. Hatsune Miku 初音ミク pop japanese jpop j-pop sorrow's gap sorrows muya- wanpachi cycopton version
BeatmapID:3410965
BeatmapSetID:1667841

[Difficulty]
HPDrainRate:4
CircleSize:3.6
OverallDifficulty:6.2
ApproachRate:7.4
SliderMultiplier:2.79999990463257
SliderTickRate:2

[Events]
//Background and Video events
0,0,"background.jpg",0,0
//Break Periods
//Storyboard Layer 0 (Background)
//Storyboard Layer 1 (Fail)
//Storyboard Layer 2 (Pass)
//Storyboard Layer 3 (Foreground)
//Storyboard Layer 4 (Overlay)
//Storyboard Sound Samples

[TimingPoints]
835,714.285714285714,4,2,1,40,1,0
835,-142.857142857143,4,2,1,40,0,0
2263,-142.857142857143,4,2,2,40,0,0
2620,-142.857142857143,4,2,1,40,0,0
3692,-142.857142857143,4,2,2,40,0,0
4049,-142.857142857143,4,2,1,40,0,0
5120,-166.666666666667,4,2,2,40,0,0
6549,-95.2380952380952,4,2,1,50,0,1
17799,-95.2380952380952,4,2,1,50,0,0
17977,-95.2380952380952,4,2,1,50,0,1
29406,-100,4,2,1,55,0,0
50834,-100,4,2,1,40,0,0
51906,-100,4,2,1,30,0,0
52263,-90.9090909090909,4,2,1,60,0,1
63513,-90.9090909090909,4,2,1,60,0,0
63692,-90.9090909090909,4,2,1,60,0,1
73692,-111.111111111111,4,2,1,40,0,0
74049,-111.111111111111,4,2,1,40,0,0
74406,-111.111111111111,4,2,1,30,0,0
75120,-142.857142857143,4,2,1,30,0,0

[Colours]
Combo1 : 0,178,255
Combo2 : 121,255,149
Combo3 : 96,255,237
Combo4 : 172,122,255

[HitObjects]
189,87,835,6,0,B|271:20|340:126|294:134|312:244|416:208,1,293.999981014252,2|2,0:0|0:0,0:0:0:0:
489,84,2263,2,0,P|368:116|199:194,1,293.999981014252,10|2,0:0|0:0,0:0:0:0:
42,186,3692,2,0,B|6:141|45:90|116:84|159:143|127:217|92:189|45:256|116:317,1,293.999981014252,10|0,0:0|0:0,0:0:0:0:
186,384,5120,2,0,B|233:338|226:269|226:269|235:349|305:371,1,251.999983726502,10|10,0:0|0:0,0:0:0:0:
475,328,6549,6,0,P|497:295|481:247,1,73.4999952535631,6|0,1:2|0:0,0:0:0:0:
499,172,6906,1,2,0:0:0:0:
499,172,7084,2,0,B|423:154|435:222|363:213,1,146.999990507126,2|0,1:2|0:0,0:0:0:0:
274,181,7620,2,0,P|261:147|267:104,1,73.4999952535631,2|0,1:2|0:0,0:0:0:0:
208,27,7977,6,0,P|185:55|144:71,1,73.4999952535631,2|0,0:0|0:0,0:0:0:0:
52,58,8334,1,2,1:2:0:0:
52,58,8513,2,0,P|72:133|86:210,1,146.999990507126,2|0,0:0|0:0,0:0:0:0:
83,299,9049,1,2,0:0:0:0:
184,245,9227,1,0,0:0:0:0:
184,245,9317,1,0,0:0:0:0:
184,245,9406,6,0,P|227:217|266:221,1,73.4999952535631,2|2,1:2|0:0,0:0:0:0:
271,123,9763,2,0,P|316:146|332:182,1,73.4999952535631,2|2,0:0|1:2,0:0:0:0:
420,137,10120,2,0,P|422:188|399:220,1,73.4999952535631,10|2,0:0|0:0,0:0:0:0:
482,273,10477,2,0,P|438:301|400:297,1,73.4999952535631,2|2,1:2|0:0,0:0:0:0:
295,307,10834,6,0,P|303:252|330:156,1,146.999990507126,2|2,0:0|0:0,0:0:0:0:
366,78,11370,1,2,0:0:0:0:
366,78,11549,1,8,0:0:0:0:
198,0,11906,1,2,1:2:0:0:
111,68,12084,1,0,0:0:0:0:
111,68,12174,1,0,0:0:0:0:
111,68,12263,6,0,B|113:148|184:118|167:222,1,146.999990507126,2|2,1:2|0:0,0:0:0:0:
136,286,12799,2,0,P|64:267|85:198,1,146.999990507126,2|0,1:2|0:0,0:0:0:0:
169,196,13334,2,0,P|204:216|257:216,1,73.4999952535631,2|0,1:2|0:0,0:0:0:0:
305,152,13692,6,0,P|337:128|393:132,1,73.4999952535631,2|0,0:0|0:0,0:0:0:0:
468,138,14049,1,2,1:2:0:0:
468,138,14227,2,0,P|446:218|433:295,1,146.999990507126,2|0,0:0|0:0,0:0:0:0:
429,379,14763,1,2,0:0:0:0:
343,308,14942,1,0,0:0:0:0:
343,308,15031,1,0,0:0:0:0:
343,308,15120,6,0,P|302:279|264:280,1,73.4999952535631,2|2,1:2|0:0,0:0:0:0:
253,184,15477,2,0,P|207:205|189:238,1,73.4999952535631,2|2,0:0|1:2,0:0:0:0:
165,313,15834,2,0,P|132:342|86:342,1,73.4999952535631,10|2,0:0|0:0,0:0:0:0:
21,295,16192,2,0,P|12:251|35:212,1,73.4999952535631,2|2,1:2|0:0,0:0:0:0:
9,120,16549,6,0,B|86:98|79:170|162:149,1,146.999990507126,2|2,0:0|0:0,0:0:0:0:
336,124,17263,2,0,P|351:87|337:41,1,73.4999952535631,10|0,0:0|0:0,0:0:0:0:
262,0,17620,1,2,1:2:0:0:
162,45,17799,1,2,1:2:0:0:
162,45,17888,1,0,1:2:0:0:
162,45,17977,6,0,P|182:132|193:209,1,146.999990507126,6|0,1:2|0:0,0:0:0:0:
190,284,18513,2,0,B|276:264|255:335|337:322,1,146.999990507126,2|0,1:2|0:0,0:0:0:0:
405,272,19049,2,0,P|397:227|381:189,1,73.4999952535631,2|0,1:2|0:0,0:0:0:0:
465,154,19406,5,2,0:0:0:0:
465,154,19584,2,0,P|473:109|489:71,1,73.4999952535631,2|2,0:0|1:2,0:0:0:0:
407,22,19942,2,0,B|348:30|348:30|332:52|332:52|255:64,1,146.999990507126,2|0,0:0|0:0,0:0:0:0:
170,70,20477,1,2,0:0:0:0:
257,164,20656,1,0,0:0:0:0:
257,164,20745,1,0,0:0:0:0:
257,164,20834,6,0,P|284:200|275:253,1,73.4999952535631,2|2,1:2|0:0,0:0:0:0:
228,311,21192,2,0,P|183:316|141:282,1,73.4999952535631,2|2,0:0|1:2,0:0:0:0:
84,243,21549,2,0,P|93:203|107:171,1,73.4999952535631,10|2,0:0|0:0,0:0:0:0:
30,113,21906,2,0,P|20:73|7:41,1,73.4999952535631,2|2,1:2|0:0,0:0:0:0:
128,25,22263,6,0,B|211:15|189:79|279:76,1,146.999990507126,2|2,0:0|0:0,0:0:0:0:
347,31,22799,1,2,0:0:0:0:
347,31,22978,1,8,0:0:0:0:
492,159,23335,1,2,1:2:0:0:
427,243,23513,1,0,0:0:0:0:
427,243,23603,1,0,0:0:0:0:
427,243,23692,6,0,B|370:251|370:251|352:272|352:272|283:279,1,146.999990507126,2|2,1:2|0:0,0:0:0:0:
206,232,24228,2,0,P|240:167|300:188,1,146.999990507126,2|0,1:2|0:0,0:0:0:0:
290,278,24763,2,0,P|277:313|272:355,1,73.4999952535631,2|0,1:2|0:0,0:0:0:0:
182,381,25120,6,0,P|176:344|164:310,1,73.4999952535631,2|0,0:0|1:2,0:0:0:0:
83,268,25478,1,2,0:0:0:0:
83,268,25656,2,0,P|58:202|63:122,1,146.999990507126,2|0,0:0|0:0,0:0:0:0:
109,37,26192,1,2,0:0:0:0:
216,107,26371,1,0,0:0:0:0:
216,107,26460,1,0,0:0:0:0:
216,107,26549,6,0,P|257:136|295:135,1,73.4999952535631,2|2,1:2|0:0,0:0:0:0:
347,70,26906,2,0,P|386:49|429:55,1,73.4999952535631,2|2,0:0|1:2,0:0:0:0:
496,98,27263,2,0,B|494:175|417:145|429:252,1,146.999990507126,10|2,0:0|1:2,0:0:0:0:
451,323,27799,1,2,0:0:0:0:
451,323,27977,6,0,P|481:288|413:224,1,146.999990507126,2|2,0:0|0:0,0:0:0:0:
356,283,28513,1,0,0:0:0:0:
356,283,28602,1,0,0:0:0:0:
356,283,28692,2,0,P|315:313|277:307,1,73.4999952535631,10|2,0:0|0:0,0:0:0:0:
218,263,29049,1,2,1:2:0:0:
218,263,29227,1,2,1:2:0:0:
286,169,29406,6,0,P|320:183|359:185,2,69.9999976158143,6|2|2,1:2|0:0|0:0,0:0:0:0:
145,42,30120,2,0,P|114:21|71:25,1,69.9999976158143,10|2,0:0|0:0,0:0:0:0:
12,79,30477,2,0,P|9:116|34:151,1,69.9999976158143,2|2,1:2|0:0,0:0:0:0:
111,176,30834,2,0,P|144:159|162:120,1,69.9999976158143,2|0,0:0|0:0,0:0:0:0:
234,77,31192,1,2,1:2:0:0:
234,77,31370,2,0,L|392:105,1,139.999995231629,2|2,0:0|0:0,0:0:0:0:
471,116,31906,1,2,0:0:0:0:
395,202,32084,1,2,0:0:0:0:
395,202,32174,1,0,0:0:0:0:
395,202,32263,6,0,B|316:192|339:261|242:241,1,139.999995231629,2|2,1:2|0:0,0:0:0:0:
106,158,32977,2,0,P|85:129|37:121,2,69.9999976158143,10|2|2,0:0|0:0|1:2,0:0:0:0:
183,205,33513,2,0,P|161:288|149:366,1,139.999995231629,2|2,0:0|1:2,0:0:0:0:
237,384,34049,1,2,0:0:0:0:
237,384,34227,1,2,0:0:0:0:
317,340,34406,2,0,P|331:310|327:265,1,69.9999976158143,10|2,0:0|0:0,0:0:0:0:
269,205,34763,1,2,1:2:0:0:
390,69,35120,6,0,P|432:74|453:109,1,69.9999976158143,2|0,1:2|0:0,0:0:0:0:
496,171,35477,1,2,0:0:0:0:
496,171,35656,2,0,P|467:243|464:317,1,139.999995231629,2|2,1:2|0:0,0:0:0:0:
384,348,36192,1,2,1:2:0:0:
384,348,36370,2,0,P|371:297|333:234,1,104.999996423721,2|2,0:0|0:0,0:0:0:0:
336,241,36727,2,0,P|295:232|252:256,1,69.9999976158143,2|0,0:0|1:2,0:0:0:0:
206,306,37084,2,0,B|150:313|150:313|132:332|132:332|56:342,1,139.999995231629,2|2,0:0|0:0,0:0:0:0:
0,283,37620,1,2,0:0:0:0:
69,192,37799,1,2,0:0:0:0:
69,192,37888,1,0,0:0:0:0:
69,192,37977,6,0,P|110:160|86:72,1,139.999995231629,2|2,1:2|0:0,0:0:0:0:
280,108,38692,2,0,L|379:124,1,69.9999976158143,10|2,0:0|0:0,0:0:0:0:
444,128,39049,1,2,1:2:0:0:
444,128,39227,2,0,P|461:69|396:37,1,139.999995231629,2|2,0:0|1:2,0:0:0:0:
349,119,39763,2,0,P|358:158|365:204,1,69.9999976158143,2|2,0:0|0:0,0:0:0:0:
367,278,40120,1,10,0:0:0:0:
217,378,40477,1,2,1:2:0:0:
142,313,40656,1,2,1:2:0:0:
142,313,40745,1,0,0:0:0:0:
142,313,40834,6,0,P|131:268|116:235,2,69.9999976158143,6|2|0,1:2|0:0|0:0,0:0:0:0:
226,264,41370,2,0,P|233:229|251:199,1,69.9999976158143,2|10,1:2|0:0,0:0:0:0:
313,133,41727,1,2,0:2:0:0:
313,133,41906,2,0,P|307:104|282:62,1,69.9999976158143,2|2,1:2|0:0,0:0:0:0:
214,14,42263,2,0,B|127:7|162:69|82:63,1,139.999995231629,2|2,0:0|1:2,0:0:0:0:
3,35,42799,2,0,P|59:71|28:149,1,139.999995231629,2|2,0:0|0:0,0:0:0:0:
15,220,43334,1,2,0:0:0:0:
86,293,43513,1,2,0:0:0:0:
86,293,43602,1,0,0:0:0:0:
86,293,43692,6,0,B|143:304|143:304|159:320|159:320|234:332,1,139.999995231629,2|2,1:2|0:0,0:0:0:0:
399,342,44406,2,0,P|417:310|410:268,1,69.9999976158143,10|2,0:0|0:0,0:0:0:0:
342,221,44763,2,0,P|313:178|316:146,1,69.9999976158143,2|2,1:2|0:0,0:0:0:0:
354,73,45120,2,0,P|418:91|386:157,1,139.999995231629,2|2,0:0|0:0,0:0:0:0:
312,161,45656,2,0,P|243:144|141:144,1,139.999995231629,2|2,0:0|0:0,0:0:0:0:
85,162,46192,1,2,1:2:0:0:
7,105,46370,1,2,0:0:0:0:
7,105,46459,1,0,0:0:0:0:
7,105,46549,6,0,P|18:68|24:24,2,69.9999976158143,2|2|2,1:2|0:0|0:0,0:0:0:0:
85,162,47084,2,0,P|90:232|108:313,1,139.999995231629,2|2,1:2|0:0,0:0:0:0:
166,373,47620,1,0,1:2:0:0:
166,373,47799,1,2,0:0:0:0:
324,283,48156,2,0,B|328:215|265:225|261:156,1,139.999995231629,2|2,1:2|0:0,0:0:0:0:
288,76,48692,2,0,P|325:87|368:93,1,69.9999976158143,10|2,0:0|0:0,0:0:0:0:
439,40,49049,1,2,0:0:0:0:
504,131,49227,1,2,0:0:0:0:
504,131,49317,1,0,0:0:0:0:
504,131,49406,6,0,P|489:198|477:283,1,139.999995231629,2|2,1:2|0:0,0:0:0:0:
485,364,49942,2,0,P|524:321|474:268,1,139.999995231629,2|2,1:2|0:0,0:0:0:0:
404,320,50477,1,0,1:2:0:0:
318,255,50656,1,2,0:0:0:0:
322,259,51013,5,2,0:0:0:0:
322,259,51192,2,0,B|252:241|260:308|176:289,1,139.999995231629,2|8,1:2|0:0,0:0:0:0:
29,197,51906,1,0,1:0:0:0:
29,197,51995,1,0,1:0:0:0:
29,197,52084,2,0,P|28:174|39:145,1,34.9999988079071,0|0,1:0|1:0,0:0:0:0:
101,100,52263,6,0,B|137:54|137:54|181:66|242:82,1,153.999999454498,6|2,1:2|0:0,0:0:0:0:
316,142,52799,1,2,1:2:0:0:
316,142,52977,2,0,P|337:107|331:57,1,76.9999997272492,8|0,0:0|0:0,0:0:0:0:
230,79,53334,2,0,P|209:114|215:164,1,76.9999997272492,2|0,1:2|0:0,0:0:0:0:
278,245,53692,6,0,B|362:224|340:288|428:278,1,153.999999454498,2|2,0:0|1:2,0:0:0:0:
511,235,54227,2,0,P|499:177|405:191,1,153.999999454498,2|0,0:0|0:0,0:0:0:0:
380,275,54763,1,2,0:0:0:0:
278,245,54942,1,0,0:0:0:0:
278,245,55031,1,0,0:0:0:0:
278,245,55120,6,0,P|284:206|301:168,1,76.9999997272492,2|2,1:2|0:0,0:0:0:0:
167,125,55477,2,0,P|182:160|187:198,1,76.9999997272492,2|2,0:0|1:2,0:0:0:0:
172,300,55834,1,10,0:0:0:0:
172,300,56013,1,2,0:0:0:0:
83,342,56192,1,2,1:2:0:0:
83,342,56370,1,2,0:0:0:0:
5,277,56549,6,0,B|15:214|15:214|28:194|28:194|39:123,1,153.999999454498,2|2,0:0|0:0,0:0:0:0:
64,35,57084,1,2,0:0:0:0:
64,35,57263,2,0,P|107:37|141:78,1,76.9999997272492,8|0,0:0|0:0,0:0:0:0:
208,122,57620,1,2,1:2:0:0:
321,98,57799,1,0,0:0:0:0:
321,98,57888,1,0,0:0:0:0:
321,98,57977,6,0,P|306:29|218:21,1,153.999999454498,2|2,1:2|0:0,0:0:0:0:
208,122,58513,1,2,1:2:0:0:
208,122,58691,2,0,L|219:208,1,76.9999997272492,8|0,0:0|0:0,0:0:0:0:
311,234,59049,2,0,L|300:320,1,76.9999997272492,2|0,1:2|0:0,0:0:0:0:
385,376,59406,6,0,L|407:208,1,153.999999454498,2|2,0:0|1:2,0:0:0:0:
311,234,59941,2,0,B|226:218|246:290|156:269,1,153.999999454498,2|0,0:0|0:0,0:0:0:0:
75,236,60477,1,2,0:0:0:0:
65,126,60656,1,0,0:0:0:0:
65,126,60745,1,0,0:0:0:0:
65,126,60834,6,0,P|94:96|149:97,1,76.9999997272492,2|2,1:2|0:0,0:0:0:0:
172,4,61192,2,0,P|212:14|239:62,1,76.9999997272492,2|2,0:0|1:2,0:0:0:0:
300,122,61549,1,10,0:0:0:0:
300,122,61727,1,2,0:0:0:0:
401,151,61906,1,2,1:2:0:0:
401,151,62084,1,2,0:0:0:0:
492,107,62263,6,0,P|451:47|366:52,1,153.999999454498,2|2,0:0|0:0,0:0:0:0:
260,204,62977,2,0,P|271:241|277:286,1,76.9999997272492,10|0,0:0|0:0,0:0:0:0:
252,375,63334,1,2,1:2:0:0:
165,309,63513,1,2,1:2:0:0:
165,309,63602,1,0,1:2:0:0:
165,309,63692,6,0,P|132:279|84:278,1,76.9999997272492,6|0,1:2|0:0,0:0:0:0:
20,197,64049,1,2,0:0:0:0:
20,197,64227,2,0,P|94:174|149:116,1,153.999999454498,2|0,1:2|0:0,0:0:0:0:
208,41,64763,2,0,P|251:16|289:26,1,76.9999997272492,2|0,1:2|0:0,0:0:0:0:
372,75,65120,6,0,L|356:168,1,76.9999997272492,2|0,0:0|0:0,0:0:0:0:
380,171,65388,1,2,0:0:0:0:
380,171,65477,2,0,L|394:256,1,76.9999997272492,2|2,1:2|0:0,0:0:0:0:
321,317,65834,2,0,B|235:290|252:361|165:338,1,153.999999454498,8|2,0:0|0:0,0:0:0:0:
77,269,66370,1,0,0:0:0:0:
77,269,66459,1,0,0:0:0:0:
77,269,66549,6,0,P|90:228|133:206,1,76.9999997272492,2|2,1:2|0:0,0:0:0:0:
129,111,66906,2,0,P|171:101|211:127,1,76.9999997272492,2|2,0:0|1:2,0:0:0:0:
272,193,67263,1,10,0:0:0:0:
272,193,67442,1,2,0:0:0:0:
373,218,67620,1,2,1:2:0:0:
373,218,67799,1,2,0:0:0:0:
452,157,67977,6,0,P|469:103|391:56,1,153.999999454498,2|2,0:0|0:0,0:0:0:0:
304,79,68513,1,2,0:0:0:0:
304,79,68692,2,0,P|268:103|221:98,1,76.9999997272492,8|0,0:0|0:0,0:0:0:0:
157,32,69049,1,2,1:2:0:0:
74,113,69228,1,0,0:0:0:0:
74,113,69317,1,0,0:0:0:0:
74,113,69406,6,0,B|66:193|142:167|147:267,1,153.999999454498,2|2,1:2|0:0,0:0:0:0:
71,323,69942,1,2,1:2:0:0:
71,323,70120,2,0,P|44:291|50:240,1,76.9999997272492,8|0,0:0|0:0,0:0:0:0:
109,187,70478,2,0,L|210:205,1,76.9999997272492,2|0,1:2|0:0,0:0:0:0:
247,278,70835,6,0,B|312:290|312:290|327:315|327:315|409:331,1,153.999999454498,2|2,0:0|0:0,0:0:0:0:
470,274,71370,2,0,P|500:232|447:155,1,153.999999454498,2|0,0:0|0:0,0:0:0:0:
390,69,71906,1,2,0:0:0:0:
297,136,72085,1,0,0:0:0:0:
297,136,72174,1,0,0:0:0:0:
297,136,72263,6,0,P|307:178|313:221,1,76.9999997272492,2|2,1:2|0:0,0:0:0:0:
245,286,72620,2,0,P|202:296|160:302,1,76.9999997272492,2|2,0:0|1:2,0:0:0:0:
92,245,72978,1,10,0:0:0:0:
92,245,73156,1,2,0:0:0:0:
148,163,73335,1,2,1:2:0:0:
148,163,73513,1,2,0:0:0:0:
119,54,73692,6,0,P|61:79|64:146,1,125.999991863251,2|2,0:0|0:0,0:0:0:0:
148,163,74227,1,2,0:0:0:0:
148,163,74406,2,0,P|179:156|224:148,1,62.9999959316255,2|2,1:2|1:2,0:0:0:0:
313,128,74763,1,2,1:2:0:0:
323,122,74852,1,0,1:2:0:0:
331,113,74942,2,0,P|332:89|324:61,1,31.4999979658128,2|0,1:2|1:2,0:0:0:0:
276,14,75120,5,6,0:0:0:0:
