osu file format v14

[General]
AudioFilename: audio.mp3
AudioLeadIn: 0
PreviewTime:6549
Countdown: 0
SampleSet: Soft
StackLeniency: 0.3
Mode: 0
LetterboxInBreaks: 0
WidescreenStoryboard: 1

[Editor]
DistanceSpacing: 1
BeatDivisor: 4
GridSize: 32
TimelineZoom: 2.7

[Metadata]
Title:Ai no Sukima (Arrange Ver.)
TitleUnicode:哀の隙間 (Arrange Ver.)
Artist:MIMI
ArtistUnicode:MIMI
Creator:Hivie
Version:Wanpachi's Normal
Source:
Tags:vocaloid feat. Hatsune Miku 初音ミク pop japanese jpop j-pop sorrow's gap sorrows muya- wanpachi cycopton version
BeatmapID:3412516
BeatmapSetID:1667841

[Difficulty]
HPDrainRate:3.2
CircleSize:3.2
OverallDifficulty:3.8
ApproachRate:5
SliderMultiplier:1.99999990463257
SliderTickRate:2

[Events]
//Background and Video events
0,0,"background.jpg",0,0
//Break Periods
2,29606,39634
//Storyboard Layer 0 (Background)
//Storyboard Layer 1 (Fail)
//Storyboard Layer 2 (Pass)
//Storyboard Layer 3 (Foreground)
//Storyboard Layer 4 (Overlay)
//Storyboard Sound Samples

[TimingPoints]
835,714.285714285714,4,2,1,40,1,0
835,-100,4,2,1,40,0,0
2263,-100,4,2,2,40,0,0
2620,-100,4,2,1,40,0,0
3692,-100,4,2,2,40,0,0
4049,-100,4,2,1,40,0,0
5120,-100,4,2,2,40,0,0
6549,-100,4,2,1,50,0,1
17799,-100,4,2,1,50,0,0
17977,-100,4,2,1,50,0,1
29406,-100,4,2,1,55,0,0
50834,-100,4,2,1,40,0,0
51906,-100,4,2,1,30,0,0
52263,-100,4,2,1,60,0,1
63513,-100,4,2,1,60,0,0
63692,-100,4,2,1,60,0,1
73692,-100,4,2,1,40,0,0
74049,-100,4,2,1,40,0,0
74406,-100,4,2,1,30,0,0
75120,-100,4,2,1,30,0,0

[Colours]
Combo1 : 0,178,255
Combo2 : 121,255,149
Combo3 : 96,255,237
Combo4 : 172,122,255

[HitObjects]
444,288,835,6,0,P|437:255|434:235,2,49.9999952316285,2|0|2,0:0|0:0|0:0,0:0:0:0:
372,358,1549,2,0,P|339:351|319:348,1,49.9999952316285,2|0,0:0|0:0,0:0:0:0:
287,313,1906,2,0,P|262:317|237:322,1,49.9999952316285,2|0,0:0|0:0,0:0:0:0:
202,357,2263,2,0,B|155:339|176:319|115:302,1,99.999990463257,10|0,0:0|0:0,0:0:0:0:
48,232,2977,2,0,P|56:201|61:161,1,49.9999952316285,2|0,0:0|0:0,0:0:0:0:
94,147,3334,2,0,P|86:116|81:76,1,49.9999952316285,2|0,0:0|0:0,0:0:0:0:
118,62,3692,6,0,P|177:62|198:104,1,99.999990463257,10|0,0:0|0:0,0:0:0:0:
267,163,4406,2,0,P|262:187|256:220,2,49.9999952316285,2|2|0,0:0|0:0|0:0,0:0:0:0:
353,112,5120,2,0,P|411:105|463:96,1,99.999990463257,10|2,0:0|0:0,0:0:0:0:
496,122,5656,2,0,P|468:156|468:222,1,99.999990463257,2|2,0:0|0:0,0:0:0:0:
495,248,6192,1,10,0:0:0:0:
413,306,6549,6,0,P|359:290|304:283,1,99.999990463257,6|2,1:2|0:0,0:0:0:0:
276,252,7084,1,2,1:2:0:0:
276,252,7263,1,8,0:0:0:0:
341,176,7620,1,2,1:2:0:0:
283,94,7977,2,0,P|233:101|185:116,1,99.999990463257,2|2,0:0|1:2,0:0:0:0:
143,88,8513,2,0,P|118:84|94:76,1,49.9999952316285,2|8,0:0|0:0,0:0:0:0:
34,157,9049,1,2,0:0:0:0:
92,238,9406,6,0,P|88:262|80:286,2,49.9999952316285,2|2|2,1:2|0:0|0:0,0:0:0:0:
136,215,9942,1,2,1:2:0:0:
136,215,10120,2,0,P|132:190|124:166,2,49.9999952316285,10|2|2,0:0|0:0|1:2,0:0:0:0:
178,242,10656,1,2,0:0:0:0:
178,242,10834,2,0,B|232:231|204:207|285:191,1,99.999990463257,2|2,0:0|0:0,0:0:0:0:
302,228,11370,2,0,P|297:252|294:277,1,49.9999952316285,2|8,0:0|0:0,0:0:0:0:
376,334,11906,1,2,1:2:0:0:
462,284,12263,6,0,P|498:237|482:192,1,99.999990463257,2|2,1:2|0:0,0:0:0:0:
449,170,12799,1,2,1:2:0:0:
449,170,12977,1,8,0:0:0:0:
371,232,13334,1,2,1:2:0:0:
292,170,13692,2,0,P|242:165|193:156,1,99.999990463257,2|2,0:0|1:2,0:0:0:0:
158,192,14227,2,0,P|133:194|108:198,1,49.9999952316285,2|8,0:0|0:0,0:0:0:0:
57,112,14763,1,2,0:0:0:0:
143,62,15120,6,0,P|133:40|126:-1,2,49.9999952316285,2|2|2,1:2|0:0|0:0,0:0:0:0:
189,93,15656,1,2,1:2:0:0:
189,93,15834,2,0,P|179:115|172:156,2,49.9999952316285,10|2|2,0:0|0:0|1:2,0:0:0:0:
239,79,16370,1,2,0:0:0:0:
239,79,16549,2,0,P|302:69|354:57,1,99.999990463257,2|2,0:0|0:0,0:0:0:0:
419,117,17263,1,10,0:0:0:0:
421,216,17620,1,2,1:2:0:0:
329,256,17977,6,0,P|268:244|225:207,1,99.999990463257,6|0,1:2|0:0,0:0:0:0:
210,180,18513,1,2,1:2:0:0:
210,180,18692,1,8,0:0:0:0:
269,99,19049,1,2,1:2:0:0:
182,48,19406,2,0,P|174:24|171:0,2,49.9999952316285,2|2|2,0:0|0:0|1:2,0:0:0:0:
141,77,19942,2,0,P|117:69|92:66,1,49.9999952316285,2|8,0:0|0:0,0:0:0:0:
42,153,20477,1,2,0:0:0:0:
125,208,20834,6,0,P|148:200|173:197,2,49.9999952316285,2|2|2,1:2|0:0|0:0,0:0:0:0:
105,256,21370,1,2,1:2:0:0:
105,256,21549,2,0,P|81:248|56:245,2,49.9999952316285,10|2|2,0:0|0:0|1:2,0:0:0:0:
121,303,22084,1,2,0:0:0:0:
121,303,22263,2,0,P|159:332|208:318,1,99.999990463257,2|2,0:0|0:0,0:0:0:0:
243,285,22799,2,0,P|266:277|291:274,1,49.9999952316285,2|8,0:0|0:0,0:0:0:0:
330,182,23334,1,2,1:2:0:0:
250,121,23692,6,0,P|246:62|281:27,1,99.999990463257,2|2,1:2|0:0,0:0:0:0:
317,17,24227,1,2,1:2:0:0:
317,17,24406,1,8,0:0:0:0:
398,75,24763,1,2,1:2:0:0:
494,49,25120,2,0,P|502:110|510:162,1,99.999990463257,2|2,0:0|0:0,0:0:0:0:
478,189,25656,2,0,P|474:213|471:238,1,49.9999952316285,2|8,0:0|0:0,0:0:0:0:
389,296,26192,1,2,0:0:0:0:
311,232,26549,6,0,P|313:207|320:183,2,49.9999952316285,2|2|2,1:2|0:0|0:0,0:0:0:0:
276,267,27084,1,2,1:2:0:0:
276,267,27263,2,0,B|223:278|245:303|185:323,1,99.999990463257,10|2,0:0|1:2,0:0:0:0:
102,360,27977,1,2,0:0:0:0:
23,297,28334,2,0,P|46:235|58:175,1,99.999990463257,2|10,0:0|0:0,0:0:0:0:
153,188,29049,2,0,P|146:163|137:140,1,49.9999952316285,2|2,1:2|1:2,0:0:0:0:
104,103,29406,5,6,1:2:0:0:
97,75,40834,6,0,P|69:70|23:57,2,49.9999952316285,6|2|0,1:2|0:0|0:0,0:0:0:0:
134,108,41370,2,0,P|156:150|101:201,1,99.999990463257,2|2,1:2|0:0,0:0:0:0:
86,211,41906,2,0,P|96:258|102:288,1,49.9999976158143,2|2,1:2|0:0,0:0:0:0:
103,309,42263,1,2,0:0:0:0:
194,349,42620,1,2,1:2:0:0:
227,255,42977,2,0,P|258:244|299:241,1,49.9999952316285,10|2,0:0|0:0,0:0:0:0:
320,219,43334,2,0,P|344:223|367:232,1,49.9999952316285,2|2,0:0|0:0,0:0:0:0:
406,265,43692,5,2,1:2:0:0:
480,198,44049,1,2,0:0:0:0:
443,104,44406,2,0,P|448:76|463:44,2,49.9999952316285,10|2|2,0:0|0:0|1:2,0:0:0:0:
345,126,45120,2,0,P|317:121|285:106,1,49.9999952316285,2|2,0:0|1:2,0:0:0:0:
255,85,45477,2,0,P|227:90|195:105,1,49.9999952316285,2|2,0:0|0:0,0:0:0:0:
162,120,45834,2,0,B|109:107|143:82|69:69,1,99.999990463257,10|2,0:0|1:2,0:0:0:0:
47,166,46549,6,0,P|20:171|-18:184,2,49.9999952316285,2|2|2,1:2|0:0|0:0,0:0:0:0:
89,192,47084,1,2,1:2:0:0:
144,108,47442,1,2,0:0:0:0:
229,159,47799,2,0,P|281:144|304:88,1,99.999990463257,2|2,0:0|1:2,0:0:0:0:
382,45,48513,1,2,0:0:0:0:
382,45,48692,2,0,P|440:65|496:71,1,99.999990463257,10|2,0:0|0:0,0:0:0:0:
510,108,49227,1,2,0:0:0:0:
510,108,49406,6,0,P|469:158|473:202,1,99.999990463257,2|2,1:2|0:0,0:0:0:0:
490,236,49942,2,0,P|482:275|478:299,1,49.9999952316285,2|10,1:2|0:0,0:0:0:0:
464,332,50299,1,2,0:0:0:0:
372,291,50656,1,2,0:0:0:0:
284,338,51013,1,2,0:0:0:0:
284,338,51192,2,0,P|286:282|284:222,1,99.999990463257,2|8,1:2|0:0,0:0:0:0:
307,193,51727,1,2,0:0:0:0:
307,193,51906,2,0,P|331:189|354:179,1,49.9999952316285,0|0,1:0|1:0,0:0:0:0:
381,136,52263,6,0,P|336:106|338:38,1,99.999990463257,6|2,1:2|0:0,0:0:0:0:
295,24,52799,1,2,1:2:0:0:
245,19,52977,1,8,0:0:0:0:
145,27,53334,1,2,1:2:0:0:
71,95,53692,2,0,P|80:157|87:218,1,99.999990463257,2|2,0:0|1:2,0:0:0:0:
83,243,54227,1,2,0:0:0:0:
52,282,54406,1,8,0:0:0:0:
122,353,54763,1,2,0:0:0:0:
205,299,55120,6,0,P|231:293|278:292,1,49.9999952316285,2|2,1:2|0:0,0:0:0:0:
298,266,55477,2,0,P|322:268|347:274,1,49.9999952316285,2|2,0:0|1:2,0:0:0:0:
385,307,55834,2,0,P|390:331|393:356,2,49.9999952316285,10|2|2,0:0|0:0|1:2,0:0:0:0:
428,280,56370,1,2,0:0:0:0:
476,295,56549,2,0,B|492:244|464:252|485:187,1,99.999990463257,2|2,0:0|0:0,0:0:0:0:
512,155,57084,1,2,0:0:0:0:
494,108,57263,1,8,0:0:0:0:
400,73,57620,1,2,1:2:0:0:
318,130,57977,6,0,P|258:125|229:87,1,99.999990463257,2|2,1:2|0:0,0:0:0:0:
199,60,58513,1,2,1:2:0:0:
149,70,58692,1,8,0:0:0:0:
105,159,59049,1,2,1:2:0:0:
182,222,59406,2,0,P|169:270|155:318,1,99.999990463257,2|2,0:0|1:2,0:0:0:0:
110,340,59942,1,2,0:0:0:0:
63,321,60120,1,8,0:0:0:0:
31,226,60477,1,2,0:0:0:0:
105,159,60834,6,0,P|118:130|125:84,1,49.9999952316285,2|2,1:2|0:0,0:0:0:0:
158,76,61192,2,0,P|180:65|204:58,1,49.9999952316285,2|2,0:0|1:2,0:0:0:0:
253,48,61549,2,0,P|256:19|260:-21,2,49.9999952316285,10|2|2,0:0|0:0|1:2,0:0:0:0:
295,74,62084,1,2,0:0:0:0:
341,55,62263,1,2,0:0:0:0:
428,103,62620,1,2,0:0:0:0:
470,193,62977,1,10,0:0:0:0:
423,281,63334,1,2,1:2:0:0:
374,295,63513,1,2,1:2:0:0:
339,258,63692,6,0,P|345:205|350:142,1,99.999990463257,6|2,1:2|0:0,0:0:0:0:
316,120,64227,1,2,1:2:0:0:
337,74,64406,1,8,0:0:0:0:
256,14,64763,1,2,1:2:0:0:
183,82,65120,2,0,P|159:74|136:64,1,49.9999952316285,2|0,0:0|0:0,0:0:0:0:
94,92,65477,2,0,P|46:129|56:186,1,99.999990463257,2|8,1:2|0:0,0:0:0:0:
130,216,66192,1,2,0:0:0:0:
91,308,66549,6,0,P|119:315|161:330,1,49.9999952316285,2|2,1:2|0:0,0:0:0:0:
179,291,66906,2,0,P|207:284|249:269,1,49.9999952316285,2|2,0:0|1:2,0:0:0:0:
274,260,67263,2,0,P|290:238|297:199,2,49.9999952316285,10|2|2,0:0|0:0|1:2,0:0:0:0:
307,297,67799,1,2,0:0:0:0:
356,300,67977,2,0,B|415:285|384:270|450:253,1,99.999990463257,2|2,0:0|0:0,0:0:0:0:
471,212,68513,1,2,0:0:0:0:
449,166,68692,1,8,0:0:0:0:
356,128,69049,1,2,1:2:0:0:
263,166,69406,6,0,P|237:219|242:270,1,99.999990463257,2|2,1:2|0:0,0:0:0:0:
269,298,69942,1,2,1:2:0:0:
246,342,70120,1,8,0:0:0:0:
149,369,70477,1,2,1:2:0:0:
62,318,70834,2,0,P|70:252|80:178,1,99.999990463257,2|2,0:0|0:0,0:0:0:0:
108,182,71370,1,2,0:0:0:0:
77,142,71549,1,8,0:0:0:0:
103,45,71906,1,2,0:0:0:0:
197,78,72263,6,0,P|227:69|262:62,1,49.9999952316285,2|2,1:2|0:0,0:0:0:0:
284,34,72620,2,0,P|314:43|349:50,1,49.9999952316285,2|2,0:0|1:2,0:0:0:0:
378,66,72977,2,0,P|402:42|442:37,2,49.9999952316285,10|2|2,0:0|0:0|1:2,0:0:0:0:
370,115,73513,1,2,0:0:0:0:
397,157,73692,2,0,P|412:212|397:265,1,99.999990463257,2|2,0:0|0:0,0:0:0:0:
367,288,74227,2,0,P|346:282|299:276,1,49.9999952316285,2|2,0:0|1:2,0:0:0:0:
218,291,74763,2,0,P|195:318|196:368,1,49.9999976158143,2|2,1:2|1:2,0:0:0:0:
206,379,75120,5,6,0:0:0:0:
256,192,75299,12,0,77977,0:0:0:0:
