osu file format v14

[General]
AudioFilename: audio.mp3
AudioLeadIn: 0
PreviewTime: 6549
Countdown: 0
SampleSet: Soft
StackLeniency: 0.7
Mode: 0
LetterboxInBreaks: 0
WidescreenStoryboard: 1

[Editor]
DistanceSpacing: 1.2
BeatDivisor: 8
GridSize: 8
TimelineZoom: 2.6

[Metadata]
Title:Ai no Sukima (Arrange Ver.)
TitleUnicode:哀の隙間 (Arrange Ver.)
Artist:MIMI
ArtistUnicode:MIMI
Creator:Hivie
Version:Sabishii
Source:
Tags:vocaloid feat. Hatsune Miku 初音ミク pop japanese jpop j-pop sorrow's gap sorrows muya- wanpachi cycopton version
BeatmapID:3405696
BeatmapSetID:1667841

[Difficulty]
HPDrainRate:6
CircleSize:4
OverallDifficulty:8
ApproachRate:8.6
SliderMultiplier:3.59999990463257
SliderTickRate:2

[Events]
//Background and Video events
0,0,"background.jpg",0,0
//Break Periods
//Storyboard Layer 0 (Background)
//Storyboard Layer 1 (Fail)
//Storyboard Layer 2 (Pass)
//Storyboard Layer 3 (Foreground)
//Storyboard Layer 4 (Overlay)
//Storyboard Sound Samples

[TimingPoints]
835,714.285714285714,4,2,1,40,1,0
835,-181.818181818182,4,2,1,40,0,0
2263,-181.818181818182,4,2,2,40,0,0
2620,-181.818181818182,4,2,1,40,0,0
3692,-181.818181818182,4,2,2,40,0,0
4049,-181.818181818182,4,2,1,40,0,0
5120,-181.818181818182,4,2,2,40,0,0
6549,-111.111111111111,4,2,1,50,0,1
6638,-111.111111111111,4,2,1,50,0,0
9317,-111.111111111111,4,2,1,5,0,0
9361,-111.111111111111,4,2,1,50,0,0
11102,-111.111111111111,4,2,1,5,0,0
11146,-111.111111111111,4,2,1,50,0,0
15031,-111.111111111111,4,2,1,5,0,0
15075,-111.111111111111,4,2,1,50,0,0
16817,-111.111111111111,4,2,1,5,0,0
16861,-111.111111111111,4,2,1,50,0,0
17977,-111.111111111111,4,2,1,50,0,1
18067,-111.111111111111,4,2,1,50,0,0
20745,-111.111111111111,4,2,1,5,0,0
20789,-111.111111111111,4,2,1,50,0,0
22531,-111.111111111111,4,2,1,5,0,0
22575,-111.111111111111,4,2,1,50,0,0
26459,-111.111111111111,4,2,1,5,0,0
26503,-111.111111111111,4,2,1,50,0,0
27531,-111.111111111111,4,2,1,5,0,0
27575,-111.111111111111,4,2,1,50,0,0
29406,-111.111111111111,4,2,1,55,0,0
31102,-111.111111111111,4,2,1,5,0,0
31146,-111.111111111111,4,2,1,55,0,0
32531,-111.111111111111,4,2,1,5,0,0
32575,-111.111111111111,4,2,1,55,0,0
33781,-111.111111111111,4,2,1,5,0,0
33825,-111.111111111111,4,2,1,55,0,0
35388,-111.111111111111,4,2,1,5,0,0
35432,-111.111111111111,4,2,1,55,0,0
38245,-111.111111111111,4,2,1,5,0,0
38289,-111.111111111111,4,2,1,55,0,0
42531,-111.111111111111,4,2,1,5,0,0
42575,-111.111111111111,4,2,1,55,0,0
43959,-111.111111111111,4,2,1,5,0,0
44003,-111.111111111111,4,2,1,55,0,0
48067,-111.111111111111,4,2,1,5,0,0
48111,-111.111111111111,4,2,1,55,0,0
49674,-111.111111111111,4,2,1,5,0,0
49718,-111.111111111111,4,2,1,55,0,0
50209,-111.111111111111,4,2,1,5,0,0
50253,-111.111111111111,4,2,1,55,0,0
50834,-111.111111111111,4,2,1,40,0,0
51906,-111.111111111111,4,2,1,40,0,0
52263,-111.111111111111,4,2,1,60,0,1
55031,-111.111111111111,4,2,1,5,0,1
55076,-111.111111111111,4,2,1,60,0,1
60745,-111.111111111111,4,2,1,5,0,1
60790,-111.111111111111,4,2,1,60,0,1
62531,-111.111111111111,4,2,1,5,0,1
62576,-111.111111111111,4,2,1,60,0,1
63602,-111.111111111111,4,2,1,60,0,0
63692,-111.111111111111,4,2,1,60,0,1
66459,-111.111111111111,4,2,1,5,0,1
66504,-111.111111111111,4,2,1,60,0,1
72174,-111.111111111111,4,2,1,5,0,1
72219,-111.111111111111,4,2,1,60,0,1
73692,-111.111111111111,4,2,1,40,0,1
73959,-111.111111111111,4,2,1,5,0,1
74049,-111.111111111111,4,2,1,40,0,1
74406,-153.846153846154,4,2,1,40,0,1
75120,-100,4,2,1,40,0,0

[Colours]
Combo1 : 0,178,255
Combo2 : 121,255,149
Combo3 : 96,255,237
Combo4 : 172,122,255

[HitObjects]
58,197,835,38,1,P|50:171|47:138,2,49.5000015106202,2|0|2,0:0|0:0|0:0,0:0:0:0:
69,283,1370,1,0,0:0:0:0:
182,159,1549,2,1,P|207:164|233:167,1,49.5000015106202,2|0,0:0|0:0,0:0:0:0:
298,242,1906,2,1,P|322:239|346:234,1,49.5000015106202,2|0,0:0|0:0,0:0:0:0:
415,168,2263,5,10,0:0:0:0:
502,320,2620,1,0,0:0:0:0:
339,384,2977,2,1,P|345:353|353:329,1,49.5000015106202,2|0,0:0|0:0,0:0:0:0:
417,265,3334,2,1,P|411:235|400:203,1,49.5000015106202,2|0,0:0|0:0,0:0:0:0:
335,154,3692,5,10,0:0:0:0:
258,307,4049,1,0,0:0:0:0:
126,157,4406,2,1,P|130:184|137:208,2,49.5000015106202,2|2|0,0:0|0:0|0:0,0:0:0:0:
256,192,5120,12,10,6192,0:0:0:0:
445,260,6549,6,0,P|459:200|453:163,1,80.9999975280763,6|0,1:2|0:0,0:0:0:0:
425,42,6906,1,2,0:0:0:0:
313,140,7084,2,1,B|269:154|225:139|225:120|225:103|169:88|126:102,1,161.999995056153,2|0,1:2|0:0,0:0:0:0:
118,265,7620,2,0,P|152:221|160:195,1,80.9999975280763,2|0,1:2|0:0,0:0:0:0:
28,105,7977,6,0,P|49:156|67:176,1,80.9999975280763,2|0,0:0|0:0,0:0:0:0:
217,266,8334,1,2,1:2:0:0:
178,70,8513,2,0,L|167:163,1,80.9999975280763,2|8,0:0|0:0,0:0:0:0:
284,209,8870,1,0,0:0:0:0:
431,92,9049,2,0,B|362:53|362:53|317:59,1,121.499996292114,2|0,0:0|0:0,0:0:0:0:
277,35,9406,6,0,P|297:72|298:116,1,80.9999975280763,2|2,1:2|0:0,0:0:0:0:
384,251,9763,2,0,P|386:210|406:175,1,80.9999975280763,2|2,0:0|1:2,0:0:0:0:
244,258,10120,5,10,0:0:0:0:
155,188,10299,1,2,0:0:0:0:
68,323,10477,2,0,L|163:329,1,80.9999975280763,2|2,1:2|0:0,0:0:0:0:
114,106,10834,6,0,P|81:127|63:209,1,121.499996292114,2|0,0:0|0:0,0:0:0:0:
91,222,11192,1,2,0:0:0:0:
322,212,11370,2,0,B|248:206|248:206|231:193|231:193|157:184,1,161.999995056153,2|0,0:0|0:0,0:0:0:0:
291,75,11906,2,0,P|341:60|389:57,1,80.9999975280763,2|0,1:2|0:0,0:0:0:0:
509,206,12263,6,0,P|459:191|411:188,1,80.9999975280763,2|0,1:2|0:0,0:0:0:0:
344,301,12620,1,2,0:0:0:0:
277,148,12799,2,0,P|315:186|322:226,1,80.9999975280763,2|8,1:2|0:0,0:0:0:0:
212,278,13156,1,0,0:0:0:0:
188,104,13334,2,0,P|232:62|274:47,1,80.9999975280763,2|0,1:2|0:0,0:0:0:0:
66,9,13692,6,0,P|80:68|72:111,1,80.9999975280763,2|0,0:0|0:0,0:0:0:0:
18,233,14049,1,2,1:2:0:0:
177,195,14227,2,0,B|210:180|258:196|258:212|258:228|306:244|354:228,1,161.999995056153,2|0,0:0|0:0,0:0:0:0:
341,40,14763,2,0,B|312:27|312:27|337:85|326:147,1,121.499996292114,2|0,0:0|0:0,0:0:0:0:
314,156,15120,6,0,B|359:142|359:142|404:155,1,80.9999975280763,2|2,1:2|0:0,0:0:0:0:
490,290,15477,2,0,B|455:258|455:258|444:212,1,80.9999975280763,2|2,0:0|1:2,0:0:0:0:
457,50,15834,5,10,0:0:0:0:
383,139,16013,1,2,0:0:0:0:
282,29,16192,2,0,P|224:21|180:30,1,80.9999975280763,2|2,1:2|0:0,0:0:0:0:
103,214,16549,6,0,P|172:160|195:177,1,121.499996292114,2|0,0:0|0:0,0:0:0:0:
222,139,16906,2,0,L|216:231,1,80.9999975280763,2|0,0:0|0:0,0:0:0:0:
352,307,17263,2,0,L|346:226,1,80.9999975280763,10|0,0:0|0:0,0:0:0:0:
324,60,17620,1,2,1:2:0:0:
324,60,17709,1,0,0:0:0:0:
324,60,17799,2,0,L|368:72,1,40.4999987640381,2|0,1:2|0:0,0:0:0:0:
477,132,17977,6,0,P|422:139|376:154,1,80.9999975280763,6|2,1:2|0:0,0:0:0:0:
295,275,18334,1,0,0:0:0:0:
215,117,18513,2,0,P|243:181|333:172,1,161.999995056153,2|0,1:2|0:0,0:0:0:0:
249,39,19049,6,0,P|208:34|152:53,1,80.9999975280763,2|0,1:2|0:0,0:0:0:0:
60,172,19406,1,2,0:0:0:0:
215,117,19584,1,2,0:0:0:0:
67,49,19763,1,2,1:2:0:0:
142,244,19942,2,0,P|144:195|151:148,1,80.999993236542,2|8,0:0|0:0,0:0:0:0:
249,39,20299,1,0,0:0:0:0:
377,220,20477,2,0,B|335:191|335:191|262:208,1,121.499996292114,2|0,0:0|0:0,0:0:0:0:
232,188,20834,6,0,P|249:231|251:280,1,80.999993236542,2|2,1:2|0:0,0:0:0:0:
377,133,21192,2,0,P|381:92|397:55,1,80.999993236542,2|2,0:0|1:2,0:0:0:0:
252,115,21549,5,10,0:0:0:0:
147,43,21727,1,2,0:0:0:0:
105,210,21906,2,0,P|148:186|192:175,1,80.999993236542,2|2,1:2|0:0,0:0:0:0:
411,131,22263,6,0,B|382:118|382:118|407:176|396:238,1,121.499996292114,2|0,0:0|0:0,0:0:0:0:
418,221,22620,1,2,0:0:0:0:
251,132,22799,2,0,B|218:117|170:133|170:149|170:165|122:181|74:165,1,161.999995056153,2|0,0:0|0:0,0:0:0:0:
78,16,23334,2,0,P|102:56|114:100,1,80.9999975280763,2|0,1:2|0:0,0:0:0:0:
251,132,23692,6,0,P|273:91|305:58,1,80.9999975280763,2|0,1:2|0:0,0:0:0:0:
464,53,24049,1,2,0:0:0:0:
383,186,24227,2,0,P|386:119|374:7,1,161.999995056153,2|0,1:2|0:0,0:0:0:0:
465,136,24763,2,0,P|459:191|461:246,1,80.9999975280763,2|0,1:2|0:0,0:0:0:0:
339,272,25120,6,0,P|288:230|256:222,1,80.9999975280763,2|0,0:0|1:2,0:0:0:0:
132,267,25477,1,2,0:0:0:0:
201,120,25656,2,0,P|190:185|199:216,1,80.9999975280763,2|8,0:0|0:0,0:0:0:0:
261,297,26013,1,0,0:0:0:0:
417,191,26192,2,0,B|375:162|375:162|302:179,1,121.499996292114,2|0,0:0|0:0,0:0:0:0:
274,225,26549,6,0,P|279:175|271:134,1,80.9999975280763,2|2,1:2|0:0,0:0:0:0:
99,146,26906,2,0,P|139:175|179:188,1,80.9999975280763,2|2,0:0|1:2,0:0:0:0:
263,36,27263,2,0,P|209:45|139:41,1,121.499996292114,10|0,0:0|0:0,0:0:0:0:
124,63,27620,1,2,1:2:0:0:
222,168,27799,1,2,0:0:0:0:
341,70,27977,6,0,P|356:119|357:153,1,80.9999975280763,2|0,0:0|1:0,0:0:0:0:
206,246,28334,2,0,P|209:205|222:167,1,80.9999975280763,2|0,0:0|0:0,0:0:0:0:
365,276,28692,1,10,0:0:0:0:
317,169,28870,1,2,0:0:0:0:
262,339,29049,2,0,B|221:326|221:326|160:329,1,80.9999975280763,2|2,1:2|1:2,0:0:0:0:
48,139,29406,5,6,1:2:0:0:
206,246,29584,1,2,0:0:0:0:
94,306,29763,2,0,L|103:224,1,80.9999975280763,2|0,0:0|1:2,0:0:0:0:
266,105,30120,5,10,0:0:0:0:
125,148,30299,1,2,0:0:0:0:
263,192,30477,1,2,1:2:0:0:
197,40,30656,1,2,0:0:0:0:
351,160,30834,6,0,P|346:113|355:38,1,121.499996292114,2|0,0:0|0:0,0:0:0:0:
334,13,31192,1,2,1:2:0:0:
439,161,31370,2,0,P|434:118|442:49,1,80.9999975280763,2|10,0:0|0:0,0:0:0:0:
388,236,31727,1,2,0:0:0:0:
248,158,31906,2,0,P|195:132|173:134,1,80.9999975280763,2|2,0:0|0:0,0:0:0:0:
25,318,32263,6,0,P|41:253|37:184,1,121.499996292114,2|0,1:2|0:0,0:0:0:0:
4,169,32620,2,0,B|48:169|48:169|89:160,1,80.9999975280763,2|2,0:0|1:2,0:0:0:0:
148,307,32977,1,10,0:0:0:0:
301,198,33156,1,2,0:0:0:0:
254,356,33334,1,2,1:2:0:0:
187,130,33513,6,0,B|216:117|216:117|191:175|202:237,1,121.499996292114,2|0,0:0|0:0,0:0:0:0:
210,253,33870,2,0,B|168:231|168:231|113:230,1,80.9999975280763,2|2,1:2|0:0,0:0:0:0:
6,83,34227,1,2,0:0:0:0:
48,254,34406,1,10,0:0:0:0:
131,83,34584,1,2,0:0:0:0:
206,236,34763,2,0,P|163:216|123:222,1,80.9999975280763,2|2,1:2|0:0,0:0:0:0:
248,84,35120,6,0,B|275:48|275:48|359:72,1,121.499996292114,2|0,1:2|0:0,0:0:0:0:
379,47,35477,1,2,0:0:0:0:
433,222,35656,2,0,B|400:237|352:221|352:205|352:189|304:173|256:189,1,161.999995056153,2|2,1:2|0:0,0:0:0:0:
198,300,36192,2,0,P|251:302|276:280,2,80.9999975280763,2|2|0,1:2|0:0|0:0,0:0:0:0:
170,226,36638,5,2,0:0:0:0:
170,226,36727,2,0,P|181:131|263:131,1,161.999990764618,2|2,0:0|0:0,0:0:0:0:
72,147,37263,2,0,P|75:198|66:256,1,80.9999953823091,10|2,0:0|0:0,0:0:0:0:
243,124,37620,1,2,0:0:0:0:
274,279,37799,1,2,0:0:0:0:
349,77,37977,6,0,B|320:64|320:64|345:122|334:184,1,121.499996292114,2|0,1:2|0:0,0:0:0:0:
369,192,38334,2,0,B|324:174|324:174|264:190,1,80.9999975280763,2|2,0:0|1:2,0:0:0:0:
394,332,38692,1,10,0:0:0:0:
457,174,38870,1,2,0:0:0:0:
316,275,39049,1,2,1:2:0:0:
265,101,39227,6,0,P|315:81|360:170,1,161.999995056153,2|2,0:0|1:2,0:0:0:0:
152,169,39763,2,0,P|133:132|142:88,1,80.9999975280763,2|2,0:0|0:0,0:0:0:0:
243,14,40120,1,10,0:0:0:0:
287,189,40299,1,2,0:0:0:0:
393,20,40477,1,2,1:2:0:0:
393,20,40566,1,0,0:0:0:0:
393,20,40656,2,0,L|349:32,1,40.4999987640381,2|0,1:2|0:0,0:0:0:0:
240,92,40834,6,0,P|295:99|341:114,1,80.9999975280763,6|2,1:2|0:0,0:0:0:0:
395,222,41192,1,0,0:0:0:0:
277,349,41370,2,0,P|277:232|290:178,1,161.999995056153,2|2,1:2|0:0,0:0:0:0:
157,76,41906,2,0,P|166:130|163:184,1,80.9999975280763,2|2,1:2|0:0,0:0:0:0:
380,99,42263,6,0,P|333:94|258:103,1,121.499996292114,2|0,0:0|0:0,0:0:0:0:
249,130,42621,1,2,1:2:0:0:
384,24,42799,2,0,P|341:19|272:27,1,80.9999975280763,2|10,0:0|0:0,0:0:0:0:
172,54,43156,1,2,0:0:0:0:
242,210,43334,2,0,L|249:127,1,80.9999975280763,2|2,0:0|0:0,0:0:0:0:
57,145,43692,6,0,B|72:206|72:206|69:279,1,121.499996292114,2|0,1:2|0:0,0:0:0:0:
36,294,44049,2,0,B|80:293|121:303,1,80.9999975280763,2|2,0:0|1:2,0:0:0:0:
191,147,44406,1,10,0:0:0:0:
246,326,44585,1,2,0:0:0:0:
346,198,44763,2,0,P|291:176|255:176,1,80.9999975280763,2|2,1:2|0:0,0:0:0:0:
148,213,45120,5,2,0:0:0:0:
245,70,45299,1,2,1:2:0:0:
245,70,45388,1,0,0:0:0:0:
245,70,45477,1,2,0:0:0:0:
83,148,45656,2,0,P|133:126|181:125,1,80.9999975280763,2|10,0:0|0:0,0:0:0:0:
296,260,46013,1,2,0:0:0:0:
148,213,46192,1,2,1:2:0:0:
245,70,46370,1,2,0:0:0:0:
368,209,46549,6,0,P|320:182|281:176,1,80.9999975280763,2|2,1:2|0:0,0:0:0:0:
446,97,46906,1,2,0:0:0:0:
470,277,47084,2,0,P|460:238|462:197,1,80.9999975280763,2|10,1:2|0:0,0:0:0:0:
362,10,47442,2,0,P|362:65|348:101,1,80.9999975280763,2|0,0:0|1:2,0:0:0:0:
246,253,47799,6,0,P|271:208|349:216,1,121.499996292114,2|0,0:0|0:0,0:0:0:0:
363,245,48156,2,0,B|364:197|364:197|374:155,1,80.9999975280763,2|0,1:2|0:0,0:0:0:0:
252,56,48513,5,2,0:0:0:0:
106,204,48692,2,0,L|97:117,1,80.9999953823091,10|2,0:0|0:0,0:0:0:0:
248,38,49049,1,2,0:0:0:0:
318,166,49227,1,2,0:0:0:0:
185,254,49406,6,0,P|127:201|139:167,1,121.499996292114,2|0,1:2|0:0,0:0:0:0:
150,162,49763,1,2,0:0:0:0:
229,68,49942,6,0,B|286:60|286:60|306:48|306:48|378:40,1,121.499996292114,2|0,1:2|0:0,0:0:0:0:
388,17,50299,2,0,P|381:74|386:105,1,80.9999975280763,2|0,0:0|1:2,0:0:0:0:
471,212,50656,1,2,0:0:0:0:
293,307,51013,5,2,0:0:0:0:
331,161,51191,1,2,1:2:0:0:
336,145,51549,5,8,0:0:0:0:
432,272,51727,1,2,0:0:0:0:
454,95,51906,5,0,1:0:0:0:
415,82,51995,1,0,1:0:0:0:
375,75,52084,1,0,1:0:0:0:
335,75,52173,1,0,1:0:0:0:
295,76,52263,6,0,P|341:46|394:35,1,80.9999975280763,6|0,1:2|0:0,0:0:0:0:
463,184,52620,1,2,0:0:0:0:
361,300,52798,2,0,P|361:192|371:137,1,161.999995056153,2|0,1:2|0:0,0:0:0:0:
501,53,53334,2,0,P|453:83|407:80,1,80.9999975280763,2|0,1:2|0:0,0:0:0:0:
222,9,53692,6,0,P|271:35|292:76,1,80.9999975280763,2|0,0:0|0:0,0:0:0:0:
219,178,54048,1,2,1:2:0:0:
59,130,54227,2,0,B|92:145|140:129|140:113|140:97|188:81|236:97,1,161.999995056153,2|0,0:0|0:0,0:0:0:0:
265,319,54763,2,0,P|204:309|185:247,1,121.499996292114,2|0,0:0|0:0,0:0:0:0:
196,230,55120,5,2,1:2:0:0:
379,175,55299,1,2,0:0:0:0:
275,59,55477,2,0,P|288:104|294:158,1,80.9999975280763,2|2,0:0|1:2,0:0:0:0:
479,173,55834,5,10,0:0:0:0:
296,228,56012,1,2,0:0:0:0:
400,344,56191,2,0,P|387:299|381:245,1,80.9999975280763,2|2,1:2|0:0,0:0:0:0:
411,36,56548,6,0,B|420:80|420:80|402:150,1,80.9999975280763,2|0,0:0|1:0,0:0:0:0:
385,131,56816,1,0,0:0:0:0:
385,131,56906,1,2,0:0:0:0:
183,159,57084,2,0,P|207:58|258:76,1,161.999986473084,2|0,0:0|0:0,0:0:0:0:
287,278,57620,2,0,P|244:292|185:292,1,80.9999975280763,2|0,1:2|0:0,0:0:0:0:
59,67,57977,6,0,L|68:154,1,80.9999975280763,2|0,1:2|0:0,0:0:0:0:
250,202,58334,1,2,0:0:0:0:
115,330,58513,2,0,L|123:249,1,80.9999975280763,2|8,1:2|0:0,0:0:0:0:
168,129,58870,1,0,0:0:0:0:
313,260,59048,2,0,P|266:290|216:280,1,80.9999975280763,2|0,1:2|0:0,0:0:0:0:
381,120,59406,6,0,P|430:145|446:194,1,80.9999975280763,2|0,0:0|0:0,0:0:0:0:
377,339,59763,1,2,1:2:0:0:
250,202,59941,2,0,P|262:67|275:29,1,161.999995056153,2|0,0:0|0:0,0:0:0:0:
67,120,60477,2,0,P|92:63|157:61,1,121.499996292114,2|0,0:0|0:0,0:0:0:0:
169,70,60834,5,2,1:2:0:0:
203,266,61013,1,2,0:0:0:0:
28,222,61191,2,0,P|73:204|113:209,1,80.9999975280763,2|2,0:0|1:2,0:0:0:0:
269,351,61549,5,10,0:0:0:0:
68,318,61727,1,2,0:0:0:0:
228,191,61905,2,0,P|221:238|196:271,1,80.9999975280763,2|2,1:2|0:0,0:0:0:0:
323,80,62263,6,0,B|350:56|350:56|447:74,1,121.499996292114,2|0,0:0|0:0,0:0:0:0:
477,58,62620,2,0,P|463:118|463:154,1,80.9999975280763,2|0,0:0|0:0,0:0:0:0:
383,287,62977,2,0,P|379:246|368:207,1,80.9999975280763,10|0,0:0|0:0,0:0:0:0:
153,164,63334,1,2,1:2:0:0:
153,164,63423,1,0,0:0:0:0:
153,164,63513,2,0,L|197:152,1,40.4999987640381,2|0,1:2|0:0,0:0:0:0:
348,100,63691,6,0,P|293:93|247:78,1,80.9999975280763,6|0,1:2|0:0,0:0:0:0:
146,242,64049,1,2,0:0:0:0:
50,72,64227,2,0,P|114:39|191:109,1,161.999986473084,2|0,1:2|0:0,0:0:0:0:
273,234,64763,2,0,P|228:189|179:193,1,80.9999975280763,2|0,1:2|0:0,0:0:0:0:
62,330,65120,6,0,B|116:321|116:321|136:328|136:328|194:320,1,121.499996292114,2|2,0:0|0:0,0:0:0:0:
199,294,65477,1,2,1:2:0:0:
105,95,65656,2,0,L|114:182,1,80.9999975280763,2|8,0:0|0:0,0:0:0:0:
216,218,66013,1,0,0:0:0:0:
344,83,66192,2,0,P|279:16|249:27,1,121.499989854813,2|0,0:0|0:0,0:0:0:0:
237,44,66549,5,2,1:2:0:0:
273,234,66728,1,2,0:0:0:0:
414,131,66906,2,0,P|369:143|315:150,1,80.9999975280763,2|2,0:0|1:2,0:0:0:0:
294,327,67263,5,10,0:0:0:0:
238,143,67441,1,2,0:0:0:0:
123,248,67620,2,0,P|168:237|222:229,1,80.9999975280763,2|2,1:2|0:0,0:0:0:0:
441,291,67977,6,0,B|397:280|397:280|341:234,1,80.9999975280763,2|0,0:0|1:0,0:0:0:0:
375,225,68245,1,0,0:0:0:0:
375,225,68335,1,2,0:0:0:0:
466,34,68513,2,0,P|453:133|459:202,1,161.999995056153,2|0,0:0|0:0,0:0:0:0:
280,312,69049,2,0,P|282:258|274:205,1,80.9999975280763,2|0,1:2|0:0,0:0:0:0:
24,213,69406,6,0,P|55:248|119:261,1,80.9999975280763,2|0,1:2|0:0,0:0:0:0:
232,177,69763,1,2,0:0:0:0:
124,46,69942,2,0,B|95:33|95:33|120:91|106:200,1,161.999995056153,2|0,1:2|0:0,0:0:0:0:
272,55,70477,2,0,P|317:26|371:46,1,80.9999953823091,2|0,1:2|0:0,0:0:0:0:
402,262,70834,6,0,P|349:293|310:276,1,80.9999975280763,2|0,0:0|1:2,0:0:0:0:
158,206,71191,1,2,0:0:0:0:
329,118,71370,2,0,L|336:205,1,80.9999975280763,2|8,0:0|0:0,0:0:0:0:
224,340,71727,1,0,0:0:0:0:
220,71,71906,2,0,P|236:129|244:189,1,121.499996292114,2|0,0:0|0:0,0:0:0:0:
229,216,72263,5,2,1:2:0:0:
6,178,72442,1,2,0:0:0:0:
123,349,72620,2,0,P|153:297|157:255,1,80.9999975280763,2|2,0:0|1:2,0:0:0:0:
146,51,72977,5,10,0:0:0:0:
68,263,73156,1,2,0:0:0:0:
273,121,73334,1,2,1:2:0:0:
48,100,73513,1,2,0:0:0:0:
249,332,73692,6,0,B|251:253|251:253|274:214,1,121.499993073464,2|0,0:0|0:0,0:0:0:0:
240,194,74049,2,0,P|272:200|321:198,1,80.9999975280763,2|2,0:0|0:0,0:0:0:0:
457,70,74406,5,2,1:2:0:0:
383,143,74584,1,2,1:2:0:0:
224,78,74763,1,2,1:2:0:0:
224,78,74852,1,0,1:2:0:0:
224,78,74942,2,0,L|276:60,1,29.2499986610413,2|0,1:2|1:2,0:0:0:0:
359,32,75120,5,6,0:0:0:0:
