osu file format v14

[General]
AudioFilename: audio.mp3
AudioLeadIn: 0
PreviewTime:6549
Countdown: 0
SampleSet: Normal
StackLeniency: 0.7
Mode: 1
LetterboxInBreaks: 0
WidescreenStoryboard: 1

[Editor]
DistanceSpacing: 3
BeatDivisor: 4
GridSize: 32
TimelineZoom: 1.6

[Metadata]
Title:Ai no Sukima (Arrange Ver.)
TitleUnicode:哀の隙間 (Arrange Ver.)
Artist:MIMI
ArtistUnicode:MIMI
Creator:Hivie
Version:Muzukashii
Source:
Tags:vocaloid feat. Hatsune Miku 初音ミク pop japanese jpop j-pop sorrow's gap sorrows muya- wanpachi cycopton version
BeatmapID:3406753
BeatmapSetID:1667841

[Difficulty]
HPDrainRate:7
CircleSize:2
OverallDifficulty:5
ApproachRate:9
SliderMultiplier:2.8
SliderTickRate:2

[Events]
//Background and Video events
0,0,"background.jpg",0,30
//Break Periods
//Storyboard Layer 0 (Background)
//Storyboard Layer 1 (Fail)
//Storyboard Layer 2 (Pass)
//Storyboard Layer 3 (Foreground)
//Storyboard Layer 4 (Overlay)
//Storyboard Sound Samples

[TimingPoints]
835,714.285714285714,4,1,0,35,1,0
835,-117.647058823529,4,1,0,35,0,0
6549,-100,4,1,0,50,0,0
52263,-100,4,1,0,60,0,1
75120,-100,4,1,0,60,0,0

[Colours]
Combo1 : 0,178,255
Combo2 : 121,255,149
Combo3 : 96,255,237
Combo4 : 172,122,255

[HitObjects]
256,192,835,5,0,0:0:0:0:
256,192,1013,1,0,0:0:0:0:
256,192,1192,1,8,0:0:0:0:
256,192,1549,1,8,0:0:0:0:
256,192,1727,1,8,0:0:0:0:
256,192,1906,1,0,0:0:0:0:
256,192,2084,1,0,0:0:0:0:
256,192,2263,1,8,0:0:0:0:
256,192,2620,1,0,0:0:0:0:
256,192,2977,1,0,0:0:0:0:
256,192,3156,1,0,0:0:0:0:
256,192,3334,1,8,0:0:0:0:
256,192,3692,1,8,0:0:0:0:
256,192,4049,1,0,0:0:0:0:
256,192,4406,1,8,0:0:0:0:
256,192,4584,1,0,0:0:0:0:
256,192,4763,1,0,0:0:0:0:
256,192,5120,1,8,0:0:0:0:
256,192,5656,1,0,0:0:0:0:
256,192,6192,1,8,0:0:0:0:
256,96,6549,1,4,0:0:0:0:
256,192,6906,1,8,0:0:0:0:
256,192,7084,1,0,0:0:0:0:
256,192,7442,1,0,0:0:0:0:
256,192,7620,1,8,0:0:0:0:
256,192,7799,1,8,0:0:0:0:
256,192,7977,1,0,0:0:0:0:
256,192,8334,1,8,0:0:0:0:
256,192,8513,1,8,0:0:0:0:
256,192,8692,1,0,0:0:0:0:
256,192,9049,1,8,0:0:0:0:
256,192,9406,1,8,0:0:0:0:
256,192,9584,1,0,0:0:0:0:
256,192,9763,1,8,0:0:0:0:
256,192,9942,1,0,0:0:0:0:
256,192,10120,1,8,0:0:0:0:
256,192,10299,1,8,0:0:0:0:
256,192,10477,1,0,0:0:0:0:
256,192,10834,1,8,0:0:0:0:
256,192,11013,1,0,0:0:0:0:
256,192,11192,1,8,0:0:0:0:
256,192,11281,1,8,0:0:0:0:
256,192,11370,1,8,0:0:0:0:
256,192,11549,1,0,0:0:0:0:
256,192,11727,1,0,0:0:0:0:
256,192,11906,1,8,0:0:0:0:
256,192,12084,1,0,0:0:0:0:
256,192,12263,1,8,0:0:0:0:
256,192,12620,1,0,0:0:0:0:
256,192,12799,1,8,0:0:0:0:
256,192,13334,1,8,0:0:0:0:
256,192,13513,1,0,0:0:0:0:
256,192,13691,1,8,0:0:0:0:
256,192,14048,1,0,0:0:0:0:
256,192,14227,1,8,0:0:0:0:
256,192,14406,1,0,0:0:0:0:
256,192,14584,1,0,0:0:0:0:
256,192,14763,1,8,0:0:0:0:
256,192,15120,1,8,0:0:0:0:
256,192,15298,1,8,0:0:0:0:
256,192,15477,1,0,0:0:0:0:
256,192,15656,1,0,0:0:0:0:
256,192,15834,1,8,0:0:0:0:
256,192,16013,1,0,0:0:0:0:
256,192,16191,1,8,0:0:0:0:
256,192,16548,1,0,0:0:0:0:
256,192,16727,1,0,0:0:0:0:
256,192,16906,1,8,0:0:0:0:
256,192,17084,1,0,0:0:0:0:
256,192,17263,1,8,0:0:0:0:
256,192,17441,1,0,0:0:0:0:
256,192,17620,1,8,0:0:0:0:
256,192,17709,1,8,0:0:0:0:
256,192,17798,1,8,0:0:0:0:
256,192,17977,1,4,0:0:0:0:
256,192,18334,1,0,0:0:0:0:
256,192,18512,1,8,0:0:0:0:
256,192,19048,1,8,0:0:0:0:
256,192,19227,1,8,0:0:0:0:
256,192,19405,1,0,0:0:0:0:
256,192,19584,1,8,0:0:0:0:
256,192,19763,1,0,0:0:0:0:
256,192,19852,1,0,0:0:0:0:
256,192,19941,1,0,0:0:0:0:
256,192,20120,1,8,0:0:0:0:
256,192,20477,1,0,0:0:0:0:
256,192,20834,1,8,0:0:0:0:
256,192,21012,1,0,0:0:0:0:
256,192,21191,1,8,0:0:0:0:
256,192,21370,1,8,0:0:0:0:
256,192,21548,1,0,0:0:0:0:
256,192,21727,1,0,0:0:0:0:
256,192,21905,1,8,0:0:0:0:
256,192,22262,1,8,0:0:0:0:
256,192,22441,1,0,0:0:0:0:
256,192,22620,1,8,0:0:0:0:
256,192,22709,1,8,0:0:0:0:
256,192,22798,1,8,0:0:0:0:
256,192,22977,1,0,0:0:0:0:
256,192,23155,1,8,0:0:0:0:
256,192,23334,1,0,0:0:0:0:
256,192,23512,1,0,0:0:0:0:
256,192,23691,1,8,0:0:0:0:
256,192,24049,1,0,0:0:0:0:
256,192,24227,1,8,0:0:0:0:
256,192,24763,1,8,0:0:0:0:
256,192,24942,1,0,0:0:0:0:
256,192,25120,1,8,0:0:0:0:
256,192,25477,1,0,0:0:0:0:
256,192,25656,1,8,0:0:0:0:
256,192,25835,1,0,0:0:0:0:
256,192,26013,1,0,0:0:0:0:
256,192,26192,1,8,0:0:0:0:
256,192,26549,1,8,0:0:0:0:
256,192,26727,1,0,0:0:0:0:
256,192,26906,1,8,0:0:0:0:
256,192,27085,1,0,0:0:0:0:
256,192,27263,1,8,0:0:0:0:
256,192,27442,1,8,0:0:0:0:
256,192,27620,1,0,0:0:0:0:
256,192,27977,1,8,0:0:0:0:
256,192,28156,1,0,0:0:0:0:
256,192,28335,1,8,0:0:0:0:
256,192,28424,1,8,0:0:0:0:
256,192,28513,1,8,0:0:0:0:
256,192,28692,1,0,0:0:0:0:
256,192,28870,1,8,0:0:0:0:
256,192,29049,1,0,0:0:0:0:
256,192,29138,1,0,0:0:0:0:
256,192,29227,1,0,0:0:0:0:
256,192,29406,1,12,0:0:0:0:
256,192,29584,1,0,0:0:0:0:
256,192,29763,1,8,0:0:0:0:
256,192,30120,1,8,0:0:0:0:
256,192,30299,1,8,0:0:0:0:
256,192,30477,1,0,0:0:0:0:
256,192,30656,1,0,0:0:0:0:
256,192,30834,1,8,0:0:0:0:
256,192,31370,1,8,0:0:0:0:
256,192,31549,1,0,0:0:0:0:
256,192,31727,1,0,0:0:0:0:
256,192,31906,1,8,0:0:0:0:
256,192,32084,1,8,0:0:0:0:
256,192,32263,1,0,0:0:0:0:
256,192,32620,1,8,0:0:0:0:
256,192,32799,1,0,0:0:0:0:
256,192,32977,1,8,0:0:0:0:
256,192,33156,1,0,0:0:0:0:
256,192,33334,1,8,0:0:0:0:
256,192,33424,1,8,0:0:0:0:
256,192,33513,1,8,0:0:0:0:
256,192,33870,1,8,0:0:0:0:
256,192,34049,1,0,0:0:0:0:
256,192,34227,1,8,0:0:0:0:
256,192,34406,1,8,0:0:0:0:
256,192,34584,1,0,0:0:0:0:
256,192,35120,1,8,0:0:0:0:
256,192,35299,1,0,0:0:0:0:
256,192,35477,1,8,0:0:0:0:
256,192,35656,1,8,0:0:0:0:
256,192,36013,1,0,0:0:0:0:
256,192,36192,1,8,0:0:0:0:
256,192,36370,1,0,0:0:0:0:
256,192,36727,1,8,0:0:0:0:
256,192,36906,1,0,0:0:0:0:
256,192,37084,1,8,0:0:0:0:
256,192,37174,1,8,0:0:0:0:
256,192,37263,1,8,0:0:0:0:
256,192,37442,1,0,0:0:0:0:
256,192,37620,1,8,0:0:0:0:
256,192,37799,1,8,0:0:0:0:
256,192,37977,1,0,0:0:0:0:
256,192,38334,1,8,0:0:0:0:
256,192,38513,1,0,0:0:0:0:
256,192,38692,1,8,0:0:0:0:
256,192,38870,1,8,0:0:0:0:
256,192,39049,1,0,0:0:0:0:
256,192,39138,1,0,0:0:0:0:
256,192,39227,1,0,0:0:0:0:
256,192,39406,1,8,0:0:0:0:
256,192,39584,1,0,0:0:0:0:
256,192,39763,1,8,0:0:0:0:
256,192,40120,1,8,0:0:0:0:
256,192,40299,1,8,0:0:0:0:
256,192,40477,1,0,0:0:0:0:
256,192,40567,1,0,0:0:0:0:
256,192,40656,1,0,0:0:0:0:
256,192,40834,1,12,0:0:0:0:
256,192,41013,1,0,0:0:0:0:
256,192,41370,1,8,0:0:0:0:
256,192,41549,1,8,0:0:0:0:
256,192,41727,1,0,0:0:0:0:
256,192,41906,1,8,0:0:0:0:
256,192,42084,1,0,0:0:0:0:
256,192,42263,1,8,0:0:0:0:
256,192,42798,1,8,0:0:0:0:
256,192,42977,1,0,0:0:0:0:
256,192,43155,1,8,0:0:0:0:
256,192,43334,1,8,0:0:0:0:
256,192,43512,1,0,0:0:0:0:
256,192,43691,1,8,0:0:0:0:
256,192,44048,1,0,0:0:0:0:
256,192,44406,1,8,0:0:0:0:
256,192,44584,1,0,0:0:0:0:
256,192,44762,1,8,0:0:0:0:
256,192,45120,1,0,0:0:0:0:
256,192,45299,1,8,0:0:0:0:
256,192,45388,1,8,0:0:0:0:
256,192,45477,1,8,0:0:0:0:
256,192,45655,1,8,0:0:0:0:
256,192,45834,1,0,0:0:0:0:
256,192,46012,1,8,0:0:0:0:
256,192,46192,1,0,0:0:0:0:
256,192,46281,1,0,0:0:0:0:
256,192,46370,1,0,0:0:0:0:
256,192,46548,1,8,0:0:0:0:
256,192,46727,1,0,0:0:0:0:
256,192,46906,1,8,0:0:0:0:
256,192,47084,1,8,0:0:0:0:
256,192,47442,1,0,0:0:0:0:
256,192,47620,1,8,0:0:0:0:
256,192,47799,1,0,0:0:0:0:
256,192,48156,1,8,0:0:0:0:
256,192,48334,1,0,0:0:0:0:
256,192,48513,1,8,0:0:0:0:
256,192,48602,1,8,0:0:0:0:
256,192,48692,1,8,0:0:0:0:
256,192,48870,1,0,0:0:0:0:
256,192,49049,1,8,0:0:0:0:
256,192,49227,1,0,0:0:0:0:
256,192,49406,1,8,0:0:0:0:
256,192,49763,1,0,0:0:0:0:
256,192,49942,1,8,0:0:0:0:
256,192,50120,1,0,0:0:0:0:
256,192,50299,1,8,0:0:0:0:
256,192,50388,1,8,0:0:0:0:
256,192,50477,1,8,0:0:0:0:
256,192,50656,1,8,0:0:0:0:
256,192,51192,1,8,0:0:0:0:
256,192,51549,1,0,0:0:0:0:
256,192,51727,1,8,0:0:0:0:
256,192,51906,5,0,0:0:0:0:
256,192,51995,1,0,0:0:0:0:
256,192,52084,1,0,0:0:0:0:
256,96,52263,5,12,0:0:0:0:
256,192,52620,1,0,0:0:0:0:
256,192,52798,1,8,0:0:0:0:
256,192,53334,1,8,0:0:0:0:
256,192,53513,1,0,0:0:0:0:
256,192,53691,1,8,0:0:0:0:
256,192,53870,1,8,0:0:0:0:
256,192,54048,1,0,0:0:0:0:
256,192,54227,1,8,0:0:0:0:
256,192,54584,1,0,0:0:0:0:
256,192,54763,1,8,0:0:0:0:
256,192,55120,1,8,0:0:0:0:
256,192,55298,1,0,0:0:0:0:
256,192,55477,1,8,0:0:0:0:
256,192,55656,1,0,0:0:0:0:
256,192,55834,1,8,0:0:0:0:
256,192,56013,1,8,0:0:0:0:
256,192,56191,1,0,0:0:0:0:
256,192,56370,1,0,0:0:0:0:
256,192,56548,1,8,0:0:0:0:
256,192,56906,1,8,0:0:0:0:
256,192,56995,1,8,0:0:0:0:
256,192,57084,1,8,0:0:0:0:
256,192,57263,1,0,0:0:0:0:
256,192,57441,1,0,0:0:0:0:
256,192,57620,1,8,0:0:0:0:
256,192,57798,1,0,0:0:0:0:
256,192,57977,1,8,0:0:0:0:
256,192,58334,1,0,0:0:0:0:
256,192,58513,1,8,0:0:0:0:
256,192,59048,1,8,0:0:0:0:
256,192,59227,1,0,0:0:0:0:
256,192,59405,1,8,0:0:0:0:
256,192,59584,1,0,0:0:0:0:
256,192,59762,1,8,0:0:0:0:
256,192,59941,1,8,0:0:0:0:
256,192,60299,1,0,0:0:0:0:
256,192,60477,1,8,0:0:0:0:
256,192,60834,1,0,0:0:0:0:
256,192,61013,1,0,0:0:0:0:
256,192,61191,1,8,0:0:0:0:
256,192,61370,1,0,0:0:0:0:
256,192,61548,1,8,0:0:0:0:
256,192,61727,1,8,0:0:0:0:
256,192,61905,1,8,0:0:0:0:
256,192,62084,1,0,0:0:0:0:
256,192,62262,1,8,0:0:0:0:
256,192,62620,1,8,0:0:0:0:
256,192,62798,1,0,0:0:0:0:
256,192,62977,1,8,0:0:0:0:
256,192,63156,1,8,0:0:0:0:
256,192,63334,1,0,0:0:0:0:
256,192,63423,1,0,0:0:0:0:
256,192,63512,1,0,0:0:0:0:
256,192,63691,1,12,0:0:0:0:
256,192,64048,1,0,0:0:0:0:
256,192,64226,1,8,0:0:0:0:
256,192,64762,1,8,0:0:0:0:
256,192,64941,1,8,0:0:0:0:
256,192,65119,1,0,0:0:0:0:
256,192,65298,1,8,0:0:0:0:
256,192,65477,1,0,0:0:0:0:
256,192,65566,1,0,0:0:0:0:
256,192,65655,1,0,0:0:0:0:
256,192,65834,1,8,0:0:0:0:
256,192,66191,1,0,0:0:0:0:
256,192,66548,1,8,0:0:0:0:
256,192,66726,1,0,0:0:0:0:
256,192,66905,1,8,0:0:0:0:
256,192,67084,1,8,0:0:0:0:
256,192,67262,1,0,0:0:0:0:
256,192,67441,1,0,0:0:0:0:
256,192,67619,1,8,0:0:0:0:
256,192,67799,1,0,0:0:0:0:
256,192,67976,1,8,0:0:0:0:
256,192,68334,1,8,0:0:0:0:
256,192,68423,1,8,0:0:0:0:
256,192,68512,1,8,0:0:0:0:
256,192,68691,1,0,0:0:0:0:
256,192,68869,1,8,0:0:0:0:
256,192,69048,1,0,0:0:0:0:
256,192,69226,1,0,0:0:0:0:
256,192,69405,1,8,0:0:0:0:
256,192,69763,1,0,0:0:0:0:
256,192,69941,1,8,0:0:0:0:
256,192,70477,1,8,0:0:0:0:
256,192,70656,1,0,0:0:0:0:
256,192,70834,1,8,0:0:0:0:
256,192,71013,1,0,0:0:0:0:
256,192,71191,1,8,0:0:0:0:
256,192,71370,1,8,0:0:0:0:
256,192,71727,1,0,0:0:0:0:
256,192,71906,1,8,0:0:0:0:
256,192,72263,1,8,0:0:0:0:
256,192,72441,1,0,0:0:0:0:
256,192,72620,1,8,0:0:0:0:
256,192,72799,1,0,0:0:0:0:
256,192,72977,1,8,0:0:0:0:
256,192,73156,1,8,0:0:0:0:
256,192,73334,1,0,0:0:0:0:
256,192,73513,1,0,0:0:0:0:
256,192,73692,1,8,0:0:0:0:
256,192,73870,1,0,0:0:0:0:
256,192,74406,1,8,0:0:0:0:
256,192,74584,1,0,0:0:0:0:
256,192,74763,1,0,0:0:0:0:
256,192,74852,1,0,0:0:0:0:
256,192,74942,1,0,0:0:0:0:
256,192,75120,1,8,0:0:0:0:
