osu file format v14

[General]
AudioFilename: audio.ogg
AudioLeadIn: 0
PreviewTime: 62776
Countdown: 0
SampleSet: Soft
StackLeniency: 0.7
Mode: 3
LetterboxInBreaks: 0
SpecialStyle: 0
WidescreenStoryboard: 1

[Editor]
Bookmarks: 727,5727,14477,19477,29477,39477,49477,54477,59477,61977,63227,80727,83227,92445
DistanceSpacing: 0.6
BeatDivisor: 4
GridSize: 4
TimelineZoom: 2.699999

[Metadata]
Title:Rat A Tat!!! (TV Size)
TitleUnicode:Rat A Tat!!! (TV Size)
Artist:MILLIONSTARS
ArtistUnicode:MILLIONSTARS
Creator:Sun
Version:Ysg's HARD!!!
Source:アイドルマスター ミリオンライブ!
Tags:Affirmation Nicknem_ ML-ysg THE iDOLM@STER MILLION LIVE! jpop pop j-pop japanese anime imas im@s 765pro 765プロ idolmaster idol ANIMATION the@ter theater アイマス ミリマス ミリシタ LACM-24420
BeatmapID:4351972
BeatmapSetID:2078248

[Difficulty]
HPDrainRate:7.5
CircleSize:4
OverallDifficulty:7.5
ApproachRate:5
SliderMultiplier:1.4
SliderTickRate:1

[Events]
//Background and Video events
0,0,"hd.jpg",0,0
Video,4533,"video.mp4"
//Break Periods
//Storyboard Layer 0 (Background)
//Storyboard Layer 1 (Fail)
//Storyboard Layer 2 (Pass)
//Storyboard Layer 3 (Foreground)
//Storyboard Layer 4 (Overlay)
//Storyboard Sound Samples
Sample,14807,0,"Tom3.wav",40
Sample,15120,0,"Tom3.wav",40
Sample,15432,0,"Tom3.wav",40
Sample,15745,0,"Tom3.wav",40
Sample,41057,0,"soft-hitclap.wav",20
Sample,48714,0,"Tom3.wav",40
Sample,57464,0,"Ride.wav",20
Sample,58870,0,"Ride.wav",20
Sample,63714,0,"Hat Open.wav",30
Sample,69026,0,"Clap.wav",20
Sample,70276,0,"Clap.wav",20
Sample,85276,0,"Clap.wav",20
Sample,87620,0,"Clap.wav",20

[TimingPoints]
589,312.5,4,2,1,50,1,0
63089,-100,4,2,1,50,0,1
92307,-100,4,2,1,50,0,0

[HitObjects]
64,192,589,5,0,0:0:0:0:
192,192,589,128,0,901:0:0:0:0:
448,192,901,1,0,0:0:0:0:
320,192,1057,1,0,0:0:0:0:
64,192,1214,1,0,0:0:0:0:
192,192,1370,1,0,0:0:0:0:
320,192,1526,1,0,0:0:0:0:
64,192,1682,1,0,0:0:0:0:
192,192,1839,1,0,0:0:0:0:
448,192,1995,1,0,0:0:0:0:
320,192,2151,1,0,0:0:0:0:
192,192,2307,1,0,0:0:0:0:
448,192,2464,1,0,0:0:0:0:
64,192,2620,128,0,2932:0:0:0:0:
192,192,2776,128,0,3089:0:0:0:0:
320,192,2932,128,0,3245:0:0:0:0:
448,192,3089,128,0,3557:0:0:0:0:
64,192,3245,128,0,3557:0:0:0:0:
192,192,3401,128,0,3557:0:0:0:0:
320,192,3557,128,0,4026:0:0:0:0:
192,192,3870,128,0,4182:0:0:0:0:
64,192,4026,128,0,4339:0:0:0:0:
448,192,4182,128,0,4339:0:0:0:0:
192,192,4339,1,0,0:0:0:0:
320,192,4339,128,0,5276:0:0:0:0:
64,192,4964,128,0,5589:0:0:0:0:
192,192,4964,1,0,0:0:0:0:
448,192,5276,128,0,5589:0:0:0:0:
192,192,5589,128,0,5901:0:0:0:0:
320,192,5589,1,0,0:0:0:0:
448,192,6057,128,0,6370:0:0:0:0:
64,192,6526,128,0,6839:0:0:0:0:
192,192,6839,1,0,0:0:0:0:
320,192,6839,128,0,6995:0:0:0:0:
64,192,7151,128,0,7307:0:0:0:0:
192,192,7464,128,0,7620:0:0:0:0:
448,192,7776,128,0,7932:0:0:0:0:
64,192,8089,1,0,0:0:0:0:
320,192,8089,128,0,8870:0:0:0:0:
192,192,9026,128,0,9182:0:0:0:0:
448,192,9182,128,0,9339:0:0:0:0:
64,192,9339,128,0,9495:0:0:0:0:
192,192,9339,1,0,0:0:0:0:
320,192,9651,128,0,9807:0:0:0:0:
192,192,9964,128,0,10276:0:0:0:0:
448,192,9964,1,0,0:0:0:0:
64,192,10589,1,0,0:0:0:0:
448,192,10589,128,0,10901:0:0:0:0:
192,192,11057,128,0,11370:0:0:0:0:
320,192,11526,128,0,11839:0:0:0:0:
64,192,11839,128,0,11995:0:0:0:0:
448,192,11839,1,0,0:0:0:0:
320,192,12151,128,0,12307:0:0:0:0:
192,192,12307,128,0,12620:0:0:0:0:
448,192,12307,1,0,0:0:0:0:
320,192,12776,128,0,12932:0:0:0:0:
64,192,12932,128,0,13089:0:0:0:0:
192,192,13089,1,0,0:0:0:0:
448,192,13089,128,0,13245:0:0:0:0:
320,192,13401,128,0,13557:0:0:0:0:
192,192,13714,128,0,13870:0:0:0:0:
448,192,13870,1,8,0:0:0:30:soft-hitclap.wav
320,192,13948,1,8,0:0:0:30:soft-hitclap.wav
64,192,14026,128,8,14182:0:0:0:30:soft-hitclap.wav
192,192,14026,1,0,0:0:0:0:
448,192,14104,1,8,0:0:0:30:soft-hitclap.wav
320,192,14182,1,8,0:0:0:30:soft-hitclap.wav
192,192,14260,1,8,0:0:0:30:soft-hitclap.wav
64,192,14339,1,4,0:0:0:0:
320,192,14339,1,2,0:0:0:0:
448,192,14339,1,0,0:0:0:0:
192,192,14495,1,0,0:0:0:0:
320,192,14651,1,2,0:0:0:0:
448,192,14651,1,0,0:0:0:40:Tom3.wav
320,192,14807,1,8,0:0:0:0:
64,192,14964,1,2,0:0:0:0:
192,192,14964,1,0,0:0:0:40:Tom3.wav
192,192,15120,1,8,0:0:0:0:
64,192,15276,1,2,0:0:0:0:
448,192,15276,1,0,0:0:0:40:Tom3.wav
448,192,15432,1,8,0:0:0:0:
64,192,15589,1,2,0:0:0:0:
192,192,15589,1,4,0:0:0:0:
320,192,15589,1,0,0:0:0:0:
192,192,15745,1,8,0:0:0:0:
320,192,15901,1,10,0:0:0:0:
448,192,15901,1,0,0:0:0:40:Tom3.wav
64,192,16057,1,8,0:0:0:0:
192,192,16057,1,2,0:0:0:0:
448,192,16057,128,4,16370:0:0:0:0:
320,192,16214,128,8,16370:0:0:0:30:soft-hitclap.wav
64,192,16370,1,8,0:0:0:30:soft-hitclap.wav
192,192,16448,1,8,0:0:0:30:soft-hitclap.wav
64,192,16526,128,2,16839:0:0:0:0:
320,192,16526,1,4,0:0:0:0:
448,192,16526,1,0,0:0:0:0:
448,192,16839,1,8,0:0:0:0:
320,192,16917,1,8,0:0:0:0:
192,192,16995,1,8,0:0:0:0:
448,192,17073,1,8,0:0:0:0:
64,192,17151,1,2,0:0:0:0:
320,192,17151,1,4,0:0:0:0:
192,192,17229,1,8,0:0:0:0:
320,192,17307,1,8,0:0:0:0:
448,192,17385,1,8,0:0:0:0:
64,192,17464,1,2,0:0:0:0:
192,192,17464,1,0,0:0:0:30:Hat Open.wav
320,192,17542,1,0,0:0:0:0:
448,192,17620,1,8,0:0:0:0:
64,192,17698,1,8,0:0:0:0:
192,192,17776,1,2,0:0:0:0:
320,192,17776,1,0,0:0:0:30:Hat Open.wav
448,192,17854,1,8,0:0:0:0:
64,192,17932,1,8,0:0:0:0:
192,192,18010,1,8,0:0:0:0:
320,192,18089,1,2,0:0:0:0:
448,192,18089,128,4,18401:0:0:0:0:
64,192,18089,1,0,0:0:0:0:
192,192,18245,1,8,0:0:0:0:
64,192,18401,1,8,0:0:0:0:
320,192,18401,1,2,0:0:0:0:
192,192,18557,128,10,18714:0:0:0:0:
320,192,18557,128,0,18714:0:0:0:30:Hat Open.wav
64,192,18792,128,0,18870:0:0:0:0:
192,192,18870,128,0,18948:0:0:0:0:
320,192,18948,128,0,19026:0:0:0:0:
448,192,19026,128,0,19104:0:0:0:0:
64,192,19104,128,0,19182:0:0:0:0:
192,192,19182,128,0,19260:0:0:0:0:
320,192,19260,128,0,19339:0:0:0:0:
64,192,19339,1,4,0:0:0:0:
192,192,19339,1,2,0:0:0:0:
448,192,19339,1,0,0:0:0:0:
64,192,19651,128,8,19807:0:0:0:0:
192,192,19651,128,2,19807:0:0:0:0:
448,192,19651,1,4,0:0:0:0:
320,192,19964,128,2,20120:0:0:0:0:
448,192,19964,128,0,20120:0:0:0:30:Hat Open.wav
192,192,20276,1,2,0:0:0:0:
320,192,20276,128,8,20432:0:0:0:0:
448,192,20276,128,0,20432:0:0:0:30:Hat Open.wav
320,192,20589,128,2,20745:0:0:0:0:
448,192,20589,128,0,20901:0:0:0:30:Hat Open.wav
64,192,20901,128,10,21057:0:0:0:0:
192,192,20901,1,0,0:0:0:30:Hat Open.wav
320,192,21057,128,0,21214:0:0:0:0:
64,192,21214,128,2,21370:0:0:0:0:
448,192,21214,1,0,0:0:0:30:Hat Open.wav
192,192,21370,1,8,0:0:0:0:
320,192,21370,1,0,0:0:0:20:Clap.wav
192,192,21526,1,10,0:0:0:0:
320,192,21526,128,0,21682:0:0:0:20:Clap.wav
64,192,21682,128,0,21839:0:0:0:0:
192,192,21839,1,4,0:0:0:0:
320,192,21839,128,2,21995:0:0:0:0:
448,192,21839,128,0,21995:0:0:0:0:
64,192,22151,128,8,22307:0:0:0:0:
192,192,22151,128,2,22307:0:0:0:0:
448,192,22151,1,0,0:0:0:30:Hat Open.wav
64,192,22464,1,2,0:0:0:0:
320,192,22464,128,0,22620:0:0:0:30:Hat Open.wav
192,192,22620,128,0,22776:0:0:0:0:
320,192,22776,1,10,0:0:0:0:
448,192,22776,128,0,22932:0:0:0:30:Hat Open.wav
64,192,22932,128,0,23089:0:0:0:0:
192,192,23089,1,2,0:0:0:0:
320,192,23089,1,0,0:0:0:30:Hat Open.wav
64,192,23245,1,8,0:0:0:0:
192,192,23245,1,0,0:0:0:0:
320,192,23401,1,8,0:0:0:0:
448,192,23401,1,2,0:0:0:0:
64,192,23557,1,8,0:0:0:0:
192,192,23557,1,0,0:0:0:0:
320,192,23714,1,8,0:0:0:0:
448,192,23714,1,2,0:0:0:0:
64,192,23870,1,8,0:0:0:0:
192,192,23870,1,0,0:0:0:20:Clap.wav
448,192,24026,1,10,0:0:0:0:
320,192,24026,1,0,0:0:0:20:Clap.wav
64,192,24104,1,8,0:0:0:0:
192,192,24182,1,8,0:0:0:0:
320,192,24260,1,8,0:0:0:0:
448,192,24339,1,4,0:0:0:0:
192,192,24339,1,2,0:0:0:0:
64,192,24339,1,0,0:0:0:0:
64,192,24651,1,8,0:0:0:0:
320,192,24651,128,2,24807:0:0:0:0:
448,192,24651,128,4,24807:0:0:0:0:
64,192,24964,128,2,25120:0:0:0:0:
192,192,24964,128,0,25120:0:0:0:30:Hat Open.wav
64,192,25276,128,2,25432:0:0:0:0:
192,192,25276,128,8,25432:0:0:0:0:
320,192,25276,1,0,0:0:0:30:Hat Open.wav
64,192,25589,128,2,25745:0:0:0:0:
192,192,25589,128,0,25901:0:0:0:30:Hat Open.wav
64,192,25901,1,10,0:0:0:0:
320,192,25901,128,0,26057:0:0:0:30:Hat Open.wav
192,192,26057,128,0,26214:0:0:0:0:
320,192,26214,128,2,26370:0:0:0:0:
448,192,26214,1,0,0:0:0:30:Hat Open.wav
64,192,26370,1,8,0:0:0:0:
192,192,26370,1,0,0:0:0:0:
64,192,26526,128,10,26682:0:0:0:0:
192,192,26526,1,0,0:0:0:30:Hat Open.wav
448,192,26682,128,0,26839:0:0:0:0:
64,192,26839,1,2,0:0:0:0:
192,192,26839,1,4,0:0:0:0:
320,192,26839,1,0,0:0:0:20:Clap.wav
192,192,26995,1,2,0:0:0:0:
320,192,26995,1,0,0:0:0:20:Clap.wav
64,192,27151,1,8,0:0:0:0:
448,192,27151,1,0,0:0:0:0:
192,192,27464,1,2,0:0:0:0:
320,192,27464,1,4,0:0:0:0:
448,192,27464,1,0,0:0:0:20:Clap.wav
320,192,27620,1,2,0:0:0:0:
448,192,27620,1,0,0:0:0:20:Clap.wav
64,192,27776,1,8,0:0:0:0:
192,192,27776,1,0,0:0:0:0:
64,192,28089,1,10,0:0:0:0:
448,192,28089,1,0,0:0:0:40:Tom3.wav
64,192,28245,1,10,0:0:0:0:
448,192,28245,1,0,0:0:0:40:Tom3.wav
192,192,28401,1,10,0:0:0:0:
320,192,28401,1,0,0:0:0:40:Tom3.wav
192,192,28557,1,10,0:0:0:0:
320,192,28557,1,0,0:0:0:40:Tom3.wav
320,192,28870,1,0,0:0:0:30:Hat Close.wav
192,192,28948,1,0,0:0:0:30:Hat Close.wav
64,192,29026,1,0,0:0:0:30:Hat Open.wav
448,192,29026,128,0,29339:0:0:0:0:
64,192,29339,1,2,0:0:0:0:
192,192,29339,1,4,0:0:0:0:
320,192,29339,1,0,0:0:0:0:
192,192,29651,1,2,0:0:0:0:
448,192,29651,1,0,0:0:0:30:Hat Close.wav
64,192,29964,1,2,0:0:0:0:
448,192,29964,1,0,0:0:0:30:Hat Close.wav
192,192,30120,1,0,0:0:0:15:Hat Close.wav
64,192,30276,1,2,0:0:0:0:
320,192,30276,1,0,0:0:0:30:Hat Close.wav
192,192,30432,1,0,0:0:0:15:Hat Close.wav
320,192,30589,1,2,0:0:0:0:
448,192,30589,1,0,0:0:0:30:Hat Close.wav
192,192,30745,1,0,0:0:0:30:Hat Close.wav
64,192,30901,1,2,0:0:0:0:
448,192,30901,1,0,0:0:0:30:Hat Close.wav
448,192,31057,1,0,0:0:0:30:Hat Close.wav
192,192,31214,1,2,0:0:0:0:
320,192,31214,1,0,0:0:0:30:Hat Close.wav
64,192,31370,1,0,0:0:0:30:Hat Close.wav
320,192,31448,1,0,0:0:0:30:Hat Close.wav
64,192,31526,1,2,0:0:0:0:
192,192,31526,1,0,0:0:0:30:Hat Close.wav
448,192,31682,1,0,0:0:0:30:Hat Close.wav
192,192,31760,1,0,0:0:0:30:Hat Close.wav
320,192,31839,1,2,0:0:0:0:
448,192,31839,1,0,0:0:0:0:
64,192,31995,1,0,0:0:0:30:Hat Close.wav
192,192,32151,1,2,0:0:0:0:
320,192,32151,1,0,0:0:0:30:Hat Close.wav
448,192,32307,1,0,0:0:0:30:Hat Close.wav
64,192,32464,1,2,0:0:0:0:
192,192,32464,1,0,0:0:0:30:Hat Close.wav
64,192,32776,1,2,0:0:0:0:
448,192,32776,1,0,0:0:0:30:Hat Close.wav
320,192,33089,1,2,0:0:0:0:
448,192,33089,1,0,0:0:0:30:Hat Close.wav
64,192,33245,1,0,0:0:0:30:Hat Close.wav
192,192,33401,1,2,0:0:0:0:
320,192,33401,1,0,0:0:0:30:Hat Close.wav
64,192,33714,1,2,0:0:0:0:
192,192,33714,1,0,0:0:0:30:Hat Close.wav
320,192,33870,1,0,0:0:0:30:Hat Close.wav
192,192,33948,1,0,0:0:0:30:Hat Close.wav
64,192,34026,1,2,0:0:0:0:
448,192,34026,1,0,0:0:0:30:Hat Close.wav
192,192,34182,1,0,0:0:0:30:Hat Close.wav
320,192,34260,1,0,0:0:0:15:Hat Close.wav
64,192,34339,1,2,0:0:0:0:
192,192,34339,1,0,0:0:0:30:Hat Close.wav
448,192,34495,1,0,0:0:0:30:Hat Close.wav
192,192,34651,1,2,0:0:0:0:
320,192,34651,1,0,0:0:0:30:Hat Close.wav
192,192,34807,1,0,0:0:0:0:
64,192,34964,1,2,0:0:0:0:
448,192,34964,1,0,0:0:0:30:Hat Close.wav
64,192,35276,1,2,0:0:0:0:
320,192,35276,1,0,0:0:0:30:Hat Close.wav
192,192,35432,1,0,0:0:0:30:Hat Open.wav
320,192,35432,1,0,0:0:0:0:
64,192,35589,1,2,0:0:0:0:
448,192,35589,1,0,0:0:0:30:Hat Close.wav
64,192,35745,1,0,0:0:0:0:
192,192,35745,1,0,0:0:0:0:
320,192,35901,1,2,0:0:0:0:
448,192,35901,1,0,0:0:0:30:Hat Close.wav
64,192,36057,1,0,0:0:0:15:Hat Close.wav
448,192,36057,1,0,0:0:0:0:
192,192,36214,1,2,0:0:0:0:
320,192,36214,1,0,0:0:0:30:Hat Close.wav
192,192,36370,1,0,0:0:0:30:Hat Open.wav
448,192,36370,1,0,0:0:0:0:
64,192,36526,1,2,0:0:0:0:
320,192,36526,1,0,0:0:0:30:Hat Close.wav
192,192,36682,1,0,0:0:0:30:Hat Close.wav
320,192,36760,1,0,0:0:0:30:Hat Close.wav
64,192,36839,1,2,0:0:0:0:
448,192,36839,1,0,0:0:0:0:
448,192,36995,1,0,0:0:0:15:Hat Close.wav
64,192,37151,1,2,0:0:0:0:
192,192,37151,1,0,0:0:0:0:
192,192,37307,1,0,0:0:0:30:Hat Close.wav
320,192,37464,1,2,0:0:0:0:
448,192,37464,1,0,0:0:0:30:Hat Close.wav
64,192,37620,1,0,0:0:0:15:Hat Open.wav
192,192,37698,1,0,0:0:0:15:Hat Open.wav
320,192,37776,1,2,0:0:0:0:
448,192,37776,1,0,0:0:0:30:Hat Open.wav
64,192,37932,1,2,0:0:0:0:
192,192,37932,1,0,0:0:0:30:Hat Open.wav
192,192,38714,1,2,0:0:0:0:
448,192,38714,1,0,0:0:0:40:Tom3.wav
192,192,38870,1,8,0:0:0:0:
320,192,38870,1,0,0:0:0:0:
64,192,39026,1,2,0:0:0:0:
448,192,39026,1,0,0:0:0:0:
192,192,39104,1,0,0:0:0:40:Tom2.wav
320,192,39182,1,0,0:0:0:40:Tom3.wav
64,192,39339,1,4,0:0:0:0:
192,192,39339,1,2,0:0:0:0:
448,192,39339,1,0,0:0:0:0:
320,192,39651,128,8,39964:0:0:0:0:
448,192,39651,1,0,0:0:0:0:
64,192,39964,128,2,40120:0:0:0:0:
192,192,39964,1,0,0:0:0:0:
320,192,40120,1,2,0:0:0:0:
448,192,40120,1,0,0:0:0:0:
192,192,40276,128,0,40432:0:0:0:30:Hat Close.wav
64,192,40432,1,8,0:0:0:0:
448,192,40432,1,0,0:0:0:0:
320,192,40589,128,0,40745:0:0:0:30:Hat Close.wav
64,192,40745,1,2,0:0:0:0:
192,192,40745,1,0,0:0:0:0:
320,192,40901,1,8,0:0:0:0:
448,192,40901,1,0,0:0:0:0:
192,192,41057,1,0,0:0:0:30:Hat Close.wav
320,192,41135,1,8,0:0:0:20:soft-hitclap.wav
64,192,41214,1,2,0:0:0:0:
448,192,41214,128,0,41370:0:0:0:30:Hat Close.wav
192,192,41370,1,0,0:0:0:30:Hat Close.wav
320,192,41448,1,0,0:0:0:30:Hat Close.wav
64,192,41526,128,8,41682:0:0:0:0:
192,192,41526,1,0,0:0:0:0:
448,192,41682,1,0,0:0:0:30:Hat Close.wav
320,192,41760,1,0,0:0:0:30:Hat Close.wav
64,192,41839,1,2,0:0:0:0:
192,192,41839,1,4,0:0:0:0:
448,192,41839,1,0,0:0:0:0:
320,192,42151,1,8,0:0:0:0:
448,192,42151,1,0,0:0:0:30:Hat Close.wav
320,192,42307,1,0,0:0:0:0:
64,192,42464,1,2,0:0:0:0:
192,192,42464,128,0,42620:0:0:0:30:Hat Close.wav
320,192,42620,1,2,0:0:0:0:
448,192,42620,1,0,0:0:0:0:
64,192,42776,128,0,42932:0:0:0:30:Hat Close.wav
192,192,42932,1,8,0:0:0:0:
448,192,42932,1,0,0:0:0:0:
320,192,43089,128,0,43245:0:0:0:30:Hat Close.wav
64,192,43245,1,2,0:0:0:0:
192,192,43245,1,0,0:0:0:0:
320,192,43401,1,8,0:0:0:0:
448,192,43401,128,0,43557:0:0:0:0:
64,192,43557,1,0,0:0:0:0:
320,192,43635,1,8,0:0:0:20:soft-hitclap.wav
64,192,43714,1,2,0:0:0:0:
192,192,43714,128,0,43870:0:0:0:30:Hat Close.wav
448,192,43870,1,0,0:0:0:30:Hat Close.wav
64,192,44026,1,8,0:0:0:0:
320,192,44026,128,0,44182:0:0:0:30:Hat Close.wav
192,192,44182,1,0,0:0:0:30:Hat Close.wav
64,192,44339,128,2,44651:0:0:0:0:
320,192,44339,1,4,0:0:0:0:
448,192,44339,1,0,0:0:0:0:
192,192,44651,1,8,0:0:0:0:
448,192,44651,1,0,0:0:0:30:Hat Close.wav
320,192,44807,1,0,0:0:0:0:
64,192,44964,1,2,0:0:0:0:
192,192,44964,128,0,45432:0:0:0:30:Hat Close.wav
448,192,45120,1,2,0:0:0:0:
320,192,45276,1,0,0:0:0:30:Hat Close.wav
64,192,45432,1,8,0:0:0:0:
320,192,45432,1,4,0:0:0:0:
448,192,45432,128,0,45745:0:0:0:0:
64,192,45745,1,2,0:0:0:0:
192,192,45745,1,0,0:0:0:0:
320,192,45901,1,8,0:0:0:0:
448,192,45901,1,0,0:0:0:30:Hat Close.wav
64,192,46057,1,4,0:0:0:0:
192,192,46057,128,2,46370:0:0:0:0:
320,192,46057,1,0,0:0:0:0:
448,192,46370,1,0,0:0:0:0:
64,192,46526,1,8,0:0:0:0:
320,192,46526,1,0,0:0:0:0:
192,192,46682,1,0,0:0:0:30:Hat Close.wav
320,192,46760,1,0,0:0:0:30:Hat Close.wav
64,192,46839,1,2,0:0:0:0:
192,192,46839,1,4,0:0:0:0:
448,192,46839,1,0,0:0:0:0:
320,192,46995,1,8,0:0:0:0:
448,192,46995,1,0,0:0:0:0:
64,192,47151,1,8,0:0:0:0:
192,192,47151,1,2,0:0:0:0:
320,192,47307,1,8,0:0:0:0:
448,192,47307,1,0,0:0:0:0:
64,192,47464,1,8,0:0:0:0:
192,192,47464,1,2,0:0:0:0:
320,192,47620,1,8,0:0:0:0:
448,192,47620,1,0,0:0:0:0:
64,192,47776,1,8,0:0:0:0:
192,192,47776,1,2,0:0:0:0:
64,192,47932,1,2,0:0:0:0:
448,192,47932,1,0,0:0:0:30:Hat Open.wav
192,192,48245,1,2,0:0:0:0:
320,192,48245,1,0,0:0:0:0:
64,192,48401,1,8,0:0:0:0:
192,192,48401,1,4,0:0:0:0:
448,192,48401,1,0,0:0:0:0:
64,192,48557,1,2,0:0:0:0:
320,192,48557,1,0,0:0:0:0:
192,192,48714,1,2,0:0:0:0:
448,192,48714,1,0,0:0:0:30:Hat Close.wav
320,192,48870,1,8,0:0:0:0:
192,192,48948,1,8,0:0:0:0:
64,192,49026,1,2,0:0:0:0:
448,192,49026,1,8,0:0:0:0:
320,192,49104,1,0,0:0:0:40:Tom1.wav
192,192,49182,1,0,0:0:0:40:Tom3.wav
64,192,49339,128,4,49495:0:0:0:0:
320,192,49339,1,2,0:0:0:0:
448,192,49339,128,0,49495:0:0:0:0:
192,192,49651,1,0,0:0:0:30:Hat Open.wav
320,192,49807,128,2,49964:0:0:0:0:
448,192,49807,128,0,49964:0:0:0:0:
64,192,49964,1,8,0:0:0:0:
192,192,49964,1,0,0:0:0:30:Hat Open.wav
192,192,50276,128,2,50432:0:0:0:0:
320,192,50276,128,0,50432:0:0:0:30:Hat Open.wav
64,192,50432,1,2,0:0:0:0:
448,192,50432,1,0,0:0:0:0:
320,192,50589,1,0,0:0:0:30:Hat Open.wav
64,192,50745,128,2,50901:0:0:0:0:
192,192,50745,128,0,50901:0:0:0:0:
448,192,50901,1,0,0:0:0:30:Hat Open.wav
64,192,51057,1,2,0:0:0:0:
320,192,51057,1,0,0:0:0:0:
192,192,51214,128,8,51370:0:0:0:0:
448,192,51214,128,0,51526:0:0:0:30:Hat Open.wav
64,192,51526,1,2,0:0:0:0:
192,192,51526,1,0,0:0:0:30:Hat Open.wav
320,192,51682,1,0,0:0:0:0:
64,192,51839,1,2,0:0:0:0:
192,192,51839,128,4,51995:0:0:0:0:
448,192,51839,128,0,51995:0:0:0:0:
320,192,52151,1,2,0:0:0:0:
448,192,52151,1,0,0:0:0:30:Hat Open.wav
64,192,52307,128,0,52464:0:0:0:0:
192,192,52307,128,0,52464:0:0:0:0:
320,192,52464,1,8,0:0:0:0:
448,192,52464,1,0,0:0:0:30:Hat Open.wav
192,192,52620,1,0,0:0:0:0:
64,192,52776,128,2,52932:0:0:0:0:
320,192,52776,128,0,52932:0:0:0:30:Hat Open.wav
448,192,52932,1,0,0:0:0:0:
192,192,53089,1,0,0:0:0:30:Hat Open.wav
320,192,53245,128,2,53401:0:0:0:0:
448,192,53245,128,0,53401:0:0:0:0:
64,192,53401,1,2,0:0:0:0:
192,192,53401,1,0,0:0:0:30:Hat Open.wav
448,192,53557,1,0,0:0:0:0:
64,192,53714,1,8,0:0:0:0:
320,192,53714,1,0,0:0:0:30:Hat Open.wav
192,192,53870,1,2,0:0:0:0:
448,192,53870,1,0,0:0:0:0:
64,192,54026,1,8,0:0:0:0:
320,192,54026,1,4,0:0:0:0:
448,192,54026,1,0,0:0:0:0:
64,192,54339,1,4,0:0:0:0:
192,192,54339,1,2,0:0:0:0:
448,192,54339,1,0,0:0:0:20:Ride.wav
320,192,54495,1,0,0:0:0:20:Ride.wav
192,192,54651,1,10,0:0:0:0:
448,192,54651,1,0,0:0:0:20:Ride.wav
64,192,54807,1,0,0:0:0:20:Ride.wav
320,192,54964,1,2,0:0:0:0:
448,192,54964,1,0,0:0:0:20:Ride.wav
192,192,55120,1,0,0:0:0:20:Ride.wav
64,192,55276,1,10,0:0:0:0:
448,192,55276,1,0,0:0:0:20:Ride.wav
64,192,55432,128,2,55745:0:0:0:0:
192,192,55432,1,4,0:0:0:0:
320,192,55432,1,0,0:0:0:0:
320,192,55745,1,2,0:0:0:0:
448,192,55745,1,0,0:0:0:20:Ride.wav
64,192,55901,1,10,0:0:0:0:
192,192,55901,128,0,56057:0:0:0:20:Ride.wav
320,192,56057,1,0,0:0:0:20:Ride.wav
64,192,56214,1,2,0:0:0:0:
448,192,56214,128,0,56526:0:0:0:20:Ride.wav
192,192,56370,1,0,0:0:0:20:Ride.wav
64,192,56526,128,10,56682:0:0:0:0:
320,192,56526,1,0,0:0:0:20:Ride.wav
192,192,56682,128,0,56839:0:0:0:20:Ride.wav
64,192,56839,1,2,0:0:0:0:
320,192,56839,128,4,57776:0:0:0:0:
448,192,56839,1,0,0:0:0:0:
192,192,56995,1,0,0:0:0:20:Ride.wav
64,192,57151,1,10,0:0:0:0:
448,192,57151,1,0,0:0:0:20:Ride.wav
192,192,57307,1,0,0:0:0:20:Ride.wav
448,192,57464,1,2,0:0:0:0:
192,192,57620,1,0,0:0:0:20:Ride.wav
64,192,57776,1,10,0:0:0:0:
448,192,57776,1,0,0:0:0:20:Ride.wav
64,192,57932,128,4,58245:0:0:0:0:
192,192,57932,1,2,0:0:0:0:
320,192,57932,1,0,0:0:0:0:
320,192,58245,1,2,0:0:0:0:
448,192,58245,1,0,0:0:0:20:Ride.wav
64,192,58401,1,10,0:0:0:0:
192,192,58401,1,0,0:0:0:20:Ride.wav
320,192,58557,1,0,0:0:0:20:Ride.wav
64,192,58714,1,2,0:0:0:0:
448,192,58714,1,0,0:0:0:20:Ride.wav
192,192,58870,1,2,0:0:0:0:
320,192,58948,1,2,0:0:0:0:
64,192,59026,1,8,0:0:0:0:
192,192,59026,1,4,0:0:0:0:
448,192,59026,128,0,59339:0:0:0:0:
320,192,59339,1,2,0:0:0:0:
192,192,59339,1,4,0:0:0:0:
64,192,59339,1,8,0:0:0:0:
448,192,59495,1,8,0:0:0:0:
320,192,59495,1,0,0:0:0:0:
192,192,59651,1,10,0:0:0:0:
64,192,59651,1,0,0:0:0:40:Tom3.wav
448,192,59807,1,8,0:0:0:0:
320,192,59807,1,0,0:0:0:40:Tom3.wav
192,192,59964,1,10,0:0:0:0:
64,192,59964,1,0,0:0:0:40:Tom3.wav
448,192,60120,1,8,0:0:0:0:
320,192,60120,1,0,0:0:0:40:Tom3.wav
192,192,60276,1,10,0:0:0:0:
64,192,60276,1,0,0:0:0:40:Tom3.wav
64,192,60432,1,8,0:0:0:0:
320,192,60432,1,4,0:0:0:0:
448,192,60432,128,0,60745:0:0:0:40:Tom3.wav
64,192,60745,1,8,0:0:0:0:
192,192,60823,1,8,0:0:0:0:
320,192,60901,1,8,0:0:0:0:
448,192,60901,1,2,0:0:0:0:
192,192,61057,1,8,0:0:0:0:
320,192,61135,1,8,0:0:0:0:
64,192,61214,1,8,0:0:0:0:
448,192,61214,1,2,0:0:0:0:
320,192,61370,1,8,0:0:0:0:
192,192,61448,1,8,0:0:0:0:
320,192,61526,1,8,0:0:0:0:
448,192,61526,1,2,0:0:0:0:
64,192,61604,1,8,0:0:0:0:
192,192,61682,1,8,0:0:0:0:
320,192,61760,1,8,0:0:0:0:
64,192,61839,128,4,62776:0:0:0:0:
192,192,61839,1,2,0:0:0:0:
448,192,61839,128,0,62776:0:0:0:0:
320,192,62464,128,0,62776:0:0:0:0:
192,192,62776,128,0,62932:0:0:0:0:
64,192,63089,1,2,0:0:0:0:
320,192,63089,1,4,0:0:0:0:
448,192,63089,128,0,63401:0:0:0:0:
64,192,63401,1,8,0:0:0:0:
192,192,63401,1,0,0:0:0:30:Hat Open.wav
320,192,63557,128,0,63870:0:0:0:0:
192,192,63714,1,2,0:0:0:0:
64,192,63870,1,2,0:0:0:0:
448,192,63870,1,0,0:0:0:0:
192,192,64026,128,8,64339:0:0:0:0:
320,192,64026,1,0,0:0:0:30:Hat Open.wav
64,192,64339,1,2,0:0:0:0:
448,192,64339,128,0,64651:0:0:0:30:Hat Open.wav
192,192,64651,128,8,64964:0:0:0:0:
320,192,64651,1,0,0:0:0:30:Hat Open.wav
64,192,64807,1,2,0:0:0:0:
320,192,64964,128,0,65276:0:0:0:30:Hat Open.wav
448,192,65120,1,2,0:0:0:0:
64,192,65276,128,8,65432:0:0:0:0:
192,192,65276,1,0,0:0:0:30:Hat Open.wav
320,192,65432,1,2,0:0:0:0:
448,192,65432,1,0,0:0:0:0:
64,192,65589,1,2,0:0:0:0:
192,192,65589,128,0,66214:0:0:0:30:Hat Open.wav
320,192,65901,1,8,0:0:0:0:
448,192,65901,1,0,0:0:0:30:Hat Open.wav
64,192,66214,1,2,0:0:0:0:
448,192,66214,1,0,0:0:0:30:Hat Open.wav
192,192,66370,1,2,0:0:0:0:
320,192,66370,1,0,0:0:0:0:
64,192,66526,1,8,0:0:0:0:
320,192,66526,128,0,66682:0:0:0:30:Hat Open.wav
192,192,66682,128,0,66839:0:0:0:0:
64,192,66839,128,2,67151:0:0:0:0:
448,192,66839,1,0,0:0:0:30:Hat Open.wav
192,192,67151,1,8,0:0:0:0:
320,192,67151,128,0,67464:0:0:0:30:Hat Open.wav
448,192,67307,1,2,0:0:0:0:
192,192,67464,128,0,67776:0:0:0:30:Hat Open.wav
64,192,67620,1,2,0:0:0:0:
320,192,67776,1,8,0:0:0:0:
448,192,67776,1,0,0:0:0:30:Hat Open.wav
64,192,67854,1,0,0:0:0:0:
192,192,67932,1,0,0:0:0:0:
320,192,68010,1,0,0:0:0:0:
64,192,68089,1,4,0:0:0:0:
192,192,68089,1,2,0:0:0:0:
448,192,68089,128,0,68401:0:0:0:0:
64,192,68401,1,8,0:0:0:0:
320,192,68401,1,0,0:0:0:30:Hat Open.wav
64,192,68557,128,2,68870:0:0:0:0:
192,192,68557,1,4,0:0:0:0:
448,192,68557,1,0,0:0:0:0:
320,192,68870,1,2,0:0:0:0:
448,192,68870,1,0,0:0:0:20:Clap.wav
64,192,69026,1,8,0:0:0:0:
448,192,69026,1,0,0:0:0:30:Hat Open.wav
192,192,69182,1,2,0:0:0:0:
320,192,69182,1,0,0:0:0:0:
64,192,69339,1,2,0:0:0:0:
192,192,69339,128,4,69651:0:0:0:0:
448,192,69339,1,0,0:0:0:0:
320,192,69651,1,8,0:0:0:0:
448,192,69651,1,0,0:0:0:30:Hat Open.wav
64,192,69807,1,2,0:0:0:0:
192,192,69807,1,4,0:0:0:0:
320,192,69807,128,0,70120:0:0:0:0:
64,192,70120,1,2,0:0:0:0:
448,192,70120,1,0,0:0:0:20:Clap.wav
192,192,70276,1,8,0:0:0:0:
448,192,70276,1,0,0:0:0:30:Hat Open.wav
64,192,70432,1,2,0:0:0:0:
320,192,70432,1,0,0:0:0:0:
64,192,70589,128,2,70901:0:0:0:0:
192,192,70589,1,4,0:0:0:0:
448,192,70589,1,0,0:0:0:0:
192,192,70901,1,8,0:0:0:0:
320,192,70901,128,0,71214:0:0:0:30:Hat Open.wav
448,192,71057,1,2,0:0:0:0:
64,192,71214,128,0,71526:0:0:0:30:Hat Open.wav
192,192,71370,1,2,0:0:0:0:
320,192,71526,128,8,71839:0:0:0:0:
448,192,71526,1,0,0:0:0:30:Hat Open.wav
192,192,71682,1,2,0:0:0:0:
64,192,71839,1,2,0:0:0:0:
192,192,71839,1,4,0:0:0:0:
448,192,71839,128,0,72151:0:0:0:0:
320,192,71995,1,0,0:0:0:40:Tom2.wav
192,192,72151,1,0,0:0:0:40:Tom3.wav
64,192,72307,128,4,72620:0:0:0:0:
320,192,72307,1,8,0:0:0:0:
448,192,72307,1,0,0:0:0:0:
192,192,72620,1,8,0:0:0:0:
320,192,72698,1,8,0:0:0:0:
64,192,72776,1,8,0:0:0:0:
448,192,72776,1,2,0:0:0:0:
192,192,72854,1,8,0:0:0:0:
320,192,72932,1,8,0:0:0:0:
448,192,73010,1,8,0:0:0:0:
64,192,73089,1,0,0:0:0:40:Tom1.wav
192,192,73167,1,0,0:0:0:0:
448,192,73245,1,2,0:0:0:0:
320,192,73323,1,2,0:0:0:0:
64,192,73401,1,2,0:0:0:0:
192,192,73401,1,4,0:0:0:0:
448,192,73401,1,8,0:0:0:0:
320,192,73557,128,0,73870:0:0:0:0:
64,192,73870,1,2,0:0:0:0:
192,192,73870,1,0,0:0:0:0:
320,192,74026,1,8,0:0:0:0:
448,192,74026,128,0,74339:0:0:0:30:Hat Open.wav
64,192,74339,128,2,74651:0:0:0:0:
192,192,74339,1,0,0:0:0:30:Hat Open.wav
320,192,74651,128,8,74964:0:0:0:0:
448,192,74651,1,0,0:0:0:30:Hat Open.wav
192,192,74807,1,2,0:0:0:0:
64,192,74964,128,0,75276:0:0:0:30:Hat Open.wav
448,192,75120,1,2,0:0:0:0:
192,192,75276,128,8,75589:0:0:0:0:
320,192,75276,1,0,0:0:0:30:Hat Open.wav
64,192,75589,1,2,0:0:0:0:
448,192,75589,128,0,76214:0:0:0:30:Hat Open.wav
192,192,75901,1,8,0:0:0:0:
320,192,75901,1,0,0:0:0:30:Hat Open.wav
64,192,76214,1,2,0:0:0:0:
192,192,76214,1,0,0:0:0:30:Hat Open.wav
320,192,76370,1,2,0:0:0:0:
448,192,76370,1,0,0:0:0:0:
64,192,76526,128,8,76682:0:0:0:0:
320,192,76526,1,0,0:0:0:30:Hat Open.wav
192,192,76682,128,0,76839:0:0:0:0:
320,192,76839,1,2,0:0:0:0:
448,192,76839,128,0,77151:0:0:0:30:Hat Open.wav
64,192,77151,1,8,0:0:0:0:
192,192,77151,128,0,77464:0:0:0:30:Hat Open.wav
320,192,77307,1,2,0:0:0:0:
448,192,77464,128,0,77776:0:0:0:30:Hat Open.wav
320,192,77620,1,2,0:0:0:0:
64,192,77776,1,8,0:0:0:0:
192,192,77776,1,0,0:0:0:30:Hat Open.wav
320,192,77854,1,0,0:0:0:0:
64,192,77932,1,2,0:0:0:0:
448,192,78010,1,8,0:0:0:0:
64,192,78089,128,2,78401:0:0:0:0:
192,192,78089,1,4,0:0:0:0:
320,192,78089,1,0,0:0:0:0:
320,192,78401,1,8,0:0:0:0:
448,192,78401,1,0,0:0:0:30:Hat Open.wav
64,192,78557,1,2,0:0:0:0:
192,192,78557,128,4,78870:0:0:0:0:
448,192,78557,1,0,0:0:0:0:
64,192,78870,1,2,0:0:0:0:
320,192,78870,1,0,0:0:0:0:
192,192,79026,1,8,0:0:0:0:
64,192,79026,1,0,0:0:0:30:Hat Open.wav
448,192,79026,1,0,0:0:0:0:
320,192,79182,1,2,0:0:0:0:
192,192,79182,1,0,0:0:0:0:
64,192,79339,1,4,0:0:0:0:
320,192,79339,1,2,0:0:0:0:
448,192,79339,128,0,79651:0:0:0:0:
64,192,79651,1,8,0:0:0:0:
192,192,79651,1,0,0:0:0:30:Hat Open.wav
192,192,79807,1,2,0:0:0:0:
320,192,79807,128,4,80120:0:0:0:0:
448,192,79807,1,0,0:0:0:0:
64,192,80120,1,2,0:0:0:0:
448,192,80120,1,0,0:0:0:0:
64,192,80276,1,8,0:0:0:0:
192,192,80276,1,0,0:0:0:30:Hat Open.wav
320,192,80354,1,0,0:0:0:0:
192,192,80432,1,2,0:0:0:0:
448,192,80432,1,0,0:0:0:0:
64,192,80589,1,2,0:0:0:0:
320,192,80589,1,4,0:0:0:0:
448,192,80589,1,0,0:0:0:0:
64,192,80745,1,8,0:0:0:0:
192,192,80745,1,0,0:0:0:0:
320,192,80901,1,10,0:0:0:0:
448,192,80901,1,0,0:0:0:40:Tom3.wav
64,192,81057,1,8,0:0:0:0:
192,192,81057,1,0,0:0:0:40:Tom3.wav
320,192,81214,1,10,0:0:0:0:
448,192,81214,1,0,0:0:0:40:Tom3.wav
64,192,81370,1,8,0:0:0:0:
192,192,81370,1,0,0:0:0:40:Tom3.wav
320,192,81526,1,10,0:0:0:0:
448,192,81526,1,0,0:0:0:40:Tom3.wav
64,192,81682,1,8,0:0:0:0:
192,192,81682,1,0,0:0:0:40:Tom3.wav
64,192,81839,128,10,82307:0:0:0:0:
320,192,81839,1,4,0:0:0:50:soft-hitfinish.wav
448,192,81839,128,0,82307:0:0:0:40:Tom3.wav
64,192,82464,1,2,0:0:0:0:
192,192,82464,1,8,0:0:0:0:
448,192,82464,1,0,0:0:0:0:
320,192,82620,1,8,0:0:0:0:
192,192,82698,1,8,0:0:0:0:
320,192,82776,1,8,0:0:0:0:
192,192,82854,1,8,0:0:0:0:
320,192,82932,1,8,0:0:0:0:
192,192,83010,1,8,0:0:0:0:
64,192,83089,1,4,0:0:0:0:
320,192,83089,1,2,0:0:0:0:
448,192,83089,1,0,0:0:0:0:
64,192,83401,128,8,83557:0:0:0:0:
320,192,83401,1,2,0:0:0:0:
448,192,83401,128,4,83557:0:0:0:0:
192,192,83714,128,2,83870:0:0:0:0:
320,192,83714,128,0,83870:0:0:0:30:Hat Open.wav
64,192,84026,1,8,0:0:0:0:
192,192,84026,128,2,84182:0:0:0:0:
320,192,84026,128,0,84182:0:0:0:30:Hat Open.wav
192,192,84339,128,2,84651:0:0:0:0:
320,192,84339,128,0,84495:0:0:0:30:Hat Open.wav
64,192,84651,1,10,0:0:0:0:
448,192,84651,128,0,84807:0:0:0:30:Hat Open.wav
192,192,84807,128,0,84964:0:0:0:0:
320,192,84964,1,2,0:0:0:0:
448,192,84964,128,0,85120:0:0:0:30:Hat Open.wav
64,192,85120,1,8,0:0:0:0:
192,192,85120,1,0,0:0:0:20:Clap.wav
64,192,85276,128,10,85432:0:0:0:0:
192,192,85276,1,0,0:0:0:30:Hat Open.wav
320,192,85432,128,0,85589:0:0:0:0:
64,192,85589,1,4,0:0:0:0:
192,192,85589,128,2,85745:0:0:0:0:
448,192,85589,128,0,85745:0:0:0:0:
64,192,85901,128,2,86057:0:0:0:0:
320,192,85901,128,8,86057:0:0:0:0:
448,192,85901,1,0,0:0:0:30:Hat Open.wav
64,192,86214,1,2,0:0:0:0:
192,192,86214,128,0,86370:0:0:0:30:Hat Open.wav
320,192,86370,128,0,86526:0:0:0:0:
64,192,86526,128,10,86682:0:0:0:0:
448,192,86526,1,0,0:0:0:30:Hat Open.wav
192,192,86682,128,2,86839:0:0:0:0:
320,192,86682,1,0,0:0:0:0:
64,192,86839,1,2,0:0:0:0:
448,192,86839,1,0,0:0:0:0:
320,192,86995,1,8,0:0:0:0:
192,192,86995,1,0,0:0:0:0:
64,192,87151,1,10,0:0:0:0:
448,192,87151,1,0,0:0:0:40:Tom3.wav
320,192,87307,1,8,0:0:0:0:
192,192,87307,1,0,0:0:0:40:Tom3.wav
64,192,87464,1,10,0:0:0:0:
448,192,87464,1,0,0:0:0:40:Tom3.wav
320,192,87620,1,8,0:0:0:0:
192,192,87698,1,8,0:0:0:0:
64,192,87776,1,10,0:0:0:0:
448,192,87776,1,0,0:0:0:20:Clap.wav
320,192,87854,1,8,0:0:0:0:
192,192,87932,1,8,0:0:0:0:
320,192,88010,1,8,0:0:0:0:
64,192,88089,1,4,0:0:0:0:
192,192,88089,1,2,0:0:0:0:
448,192,88089,1,0,0:0:0:0:
192,192,88401,128,8,88557:0:0:0:0:
320,192,88401,128,2,88557:0:0:0:0:
448,192,88401,1,4,0:0:0:0:
64,192,88714,128,2,88870:0:0:0:0:
448,192,88714,128,0,88870:0:0:0:30:Hat Open.wav
64,192,89026,128,2,89182:0:0:0:0:
192,192,89026,1,8,0:0:0:0:
448,192,89026,128,0,89182:0:0:0:30:Hat Open.wav
64,192,89339,128,2,89495:0:0:0:0:
448,192,89339,128,0,89651:0:0:0:30:Hat Open.wav
64,192,89651,1,10,0:0:0:0:
192,192,89651,128,0,89807:0:0:0:30:Hat Open.wav
448,192,89807,128,0,89964:0:0:0:0:
192,192,89964,128,2,90120:0:0:0:0:
320,192,89964,1,0,0:0:0:30:Hat Open.wav
64,192,90120,1,8,0:0:0:0:
448,192,90120,1,0,0:0:0:0:
64,192,90276,128,10,90432:0:0:0:0:
448,192,90276,1,0,0:0:0:30:Hat Open.wav
320,192,90432,128,0,90589:0:0:0:0:
64,192,90589,1,4,0:0:0:0:
192,192,90589,1,2,0:0:0:0:
448,192,90589,1,0,0:0:0:20:Clap.wav
64,192,90745,1,2,0:0:0:0:
192,192,90745,1,0,0:0:0:20:Clap.wav
320,192,90901,1,8,0:0:0:0:
448,192,90901,1,0,0:0:0:0:
64,192,91214,1,2,0:0:0:0:
320,192,91214,1,4,0:0:0:0:
448,192,91214,1,0,0:0:0:20:Clap.wav
320,192,91370,1,2,0:0:0:0:
448,192,91370,1,0,0:0:0:20:Clap.wav
64,192,91526,1,8,0:0:0:0:
192,192,91526,1,0,0:0:0:0:
320,192,91839,1,10,0:0:0:0:
448,192,91839,1,0,0:0:0:40:Tom3.wav
320,192,91995,1,10,0:0:0:0:
448,192,91995,1,0,0:0:0:40:Tom3.wav
64,192,92151,1,10,0:0:0:0:
192,192,92151,1,0,0:0:0:40:Tom3.wav
64,192,92307,128,10,92620:0:0:0:0:
192,192,92307,128,0,92620:0:0:0:40:Tom3.wav
