osu file format v14

[General]
AudioFilename: audio.mp3
AudioLeadIn: 0
PreviewTime: 42491
Countdown: 0
SampleSet: Normal
StackLeniency: 0
Mode: 1
LetterboxInBreaks: 0
WidescreenStoryboard: 0

[Editor]
Bookmarks: 18487,42491,54493,78497,90499
DistanceSpacing: 1.8
BeatDivisor: 4
GridSize: 32
TimelineZoom: 2.48

[Metadata]
Title:XXL (TECHNO BOOTLEG) (CANCERPILLED EDIT)
TitleUnicode:XXL (TECHNO BOOTLEG) (CANCERPILLED EDIT)
Artist:MIKSU/MACLOUD
ArtistUnicode:MIKSU/MACLOUD
Creator:Genjuro
Version:MUZUKASHII
Source:
Tags:electronic german deutsch hip hop hiphop hip-hop rap jamule summer cem luciano ziehdemiker
BeatmapID:3584331
BeatmapSetID:1688862

[Difficulty]
HPDrainRate:6
CircleSize:2
OverallDifficulty:5
ApproachRate:10
SliderMultiplier:1.4
SliderTickRate:1

[Events]
//Background and Video events
0,0,"L9.jpg",0,95
//Break Periods
//Storyboard Layer 0 (Background)
//Storyboard Layer 1 (Fail)
//Storyboard Layer 2 (Pass)
//Storyboard Layer 3 (Foreground)
//Storyboard Layer 4 (Overlay)
//Storyboard Sound Samples

[TimingPoints]
485,375.058602906704,4,1,0,25,1,0
6298,-100,4,1,0,100,0,0
12486,-100,4,1,0,100,0,1
90499,-100,4,1,0,100,0,0

[HitObjects]
256,192,6485,5,0,0:0:0:0:
256,192,6860,1,0,0:0:0:0:
256,192,7236,1,8,0:0:0:0:
256,192,7611,1,0,0:0:0:0:
256,192,7986,1,0,0:0:0:0:
256,192,8361,1,0,0:0:0:0:
256,192,8736,1,8,0:0:0:0:
256,192,8923,1,0,0:0:0:0:
256,192,9111,1,8,0:0:0:0:
256,192,9486,1,0,0:0:0:0:
256,192,9861,1,0,0:0:0:0:
256,192,10236,1,8,0:0:0:0:
256,192,10611,1,0,0:0:0:0:
256,192,10986,1,0,0:0:0:0:
256,192,11361,1,0,0:0:0:0:
256,192,11736,1,8,0:0:0:0:
256,192,12486,1,4,0:0:0:0:
256,192,12861,1,8,0:0:0:0:
256,192,12955,1,8,0:0:0:0:
256,192,13049,1,8,0:0:0:0:
256,192,13236,1,0,0:0:0:0:
256,192,13424,1,0,0:0:0:0:
256,192,13612,1,8,0:0:0:0:
256,192,13987,1,0,0:0:0:0:
256,192,14362,1,8,0:0:0:0:
256,192,14549,1,8,0:0:0:0:
256,192,14737,1,0,0:0:0:0:
256,192,14924,1,8,0:0:0:0:
256,192,15112,1,0,0:0:0:0:
256,192,15487,1,0,0:0:0:0:
256,192,15862,1,8,0:0:0:0:
256,192,15987,1,8,0:0:0:0:
256,192,16112,1,8,0:0:0:0:
256,192,16237,1,8,0:0:0:0:
256,192,16424,1,0,0:0:0:0:
256,192,16612,1,8,0:0:0:0:
256,192,16987,1,0,0:0:0:0:
256,192,17737,1,0,0:0:0:0:
256,192,18112,1,8,0:0:0:0:
256,192,18487,1,4,0:0:0:0:
256,192,18675,1,8,0:0:0:0:
256,192,18769,1,8,0:0:0:0:
256,192,18862,1,8,0:0:0:0:
256,192,19050,1,0,0:0:0:0:
256,192,19237,1,8,0:0:0:0:
256,192,19331,1,8,0:0:0:0:
256,192,19425,1,8,0:0:0:0:
256,192,19612,1,0,0:0:0:0:
256,192,19988,1,8,0:0:0:0:
256,192,20175,1,0,0:0:0:0:
256,192,20269,1,0,0:0:0:0:
256,192,20363,1,0,0:0:0:0:
256,192,20550,1,8,0:0:0:0:
256,192,20738,1,0,0:0:0:0:
256,192,20831,1,0,0:0:0:0:
256,192,20925,1,0,0:0:0:0:
256,192,21113,1,8,0:0:0:0:
256,192,21488,1,0,0:0:0:0:
256,192,21863,1,8,0:0:0:0:
256,192,22050,1,0,0:0:0:0:
256,192,22238,1,8,0:0:0:0:
256,192,22425,1,8,0:0:0:0:
256,192,22613,1,0,0:0:0:0:
256,192,22988,1,8,0:0:0:0:
256,192,23363,1,8,0:0:0:0:
256,192,23738,1,8,0:0:0:0:
256,192,24488,1,4,0:0:0:0:
256,192,24863,1,8,0:0:0:0:
256,192,25051,1,8,0:0:0:0:
256,192,25238,1,0,0:0:0:0:
256,192,25426,1,0,0:0:0:0:
256,192,25613,1,8,0:0:0:0:
256,192,25988,1,0,0:0:0:0:
256,192,26364,1,8,0:0:0:0:
256,192,26551,1,0,0:0:0:0:
256,192,26739,1,8,0:0:0:0:
256,192,26926,1,0,0:0:0:0:
256,192,27114,1,8,0:0:0:0:
256,192,27489,1,0,0:0:0:0:
256,192,27676,1,8,0:0:0:0:
256,192,27770,1,8,0:0:0:0:
256,192,27864,1,8,0:0:0:0:
256,192,28051,1,0,0:0:0:0:
256,192,28239,1,8,0:0:0:0:
256,192,28426,1,8,0:0:0:0:
256,192,28614,1,0,0:0:0:0:
256,192,28989,1,8,0:0:0:0:
256,192,29176,1,0,0:0:0:0:
256,192,29270,1,0,0:0:0:0:
256,192,29364,1,0,0:0:0:0:
256,192,29552,1,8,0:0:0:0:
256,192,29739,1,0,0:0:0:0:
256,192,30489,1,4,0:0:0:0:
256,192,30677,1,8,0:0:0:0:
256,192,30770,1,8,0:0:0:0:
256,192,30958,1,0,0:0:0:0:
256,192,31052,1,0,0:0:0:0:
256,192,31239,1,8,0:0:0:0:
256,192,31427,1,8,0:0:0:0:
256,192,31614,1,0,0:0:0:0:
256,192,31989,1,8,0:0:0:0:
256,192,32177,1,0,0:0:0:0:
256,192,32271,1,0,0:0:0:0:
256,192,32364,1,0,0:0:0:0:
256,192,32552,1,0,0:0:0:0:
256,192,32740,1,8,0:0:0:0:
256,192,33490,1,0,0:0:0:0:
256,192,33677,1,8,0:0:0:0:
256,192,33771,1,8,0:0:0:0:
256,192,33958,1,0,0:0:0:0:
256,192,34052,1,0,0:0:0:0:
256,192,34240,1,8,0:0:0:0:
256,192,34427,1,8,0:0:0:0:
256,192,34615,1,0,0:0:0:0:
256,192,34990,1,0,0:0:0:0:
256,192,35365,1,8,0:0:0:0:
256,192,35552,1,8,0:0:0:0:
256,192,35646,1,8,0:0:0:0:
256,192,35740,1,8,0:0:0:0:
256,192,35928,1,0,0:0:0:0:
256,192,36490,1,4,0:0:0:0:
256,192,36865,1,8,0:0:0:0:
256,192,37053,1,8,0:0:0:0:
256,192,37240,1,0,0:0:0:0:
256,192,37428,1,8,0:0:0:0:
256,192,37522,1,8,0:0:0:0:
256,192,37615,1,8,0:0:0:0:
256,192,37803,1,0,0:0:0:0:
256,192,37990,1,8,0:0:0:0:
256,192,38178,1,0,0:0:0:0:
256,192,38272,1,0,0:0:0:0:
256,192,38365,1,0,0:0:0:0:
256,192,38553,1,8,0:0:0:0:
256,192,38740,1,0,0:0:0:0:
256,192,38928,1,0,0:0:0:0:
256,192,39116,1,8,0:0:0:0:
256,192,39491,1,0,0:0:0:0:
256,192,39866,1,8,0:0:0:0:
256,192,40053,1,0,0:0:0:0:
256,192,40241,1,8,0:0:0:0:
256,192,40428,1,0,0:0:0:0:
256,192,40616,1,8,0:0:0:0:
256,192,40991,1,0,0:0:0:0:
256,192,41178,1,8,0:0:0:0:
256,192,41366,1,0,0:0:0:0:
256,192,41460,1,0,0:0:0:0:
256,192,41553,1,0,0:0:0:0:
256,192,41741,1,8,0:0:0:0:
256,192,42491,1,4,0:0:0:0:
256,192,42866,1,8,0:0:0:0:
256,192,42960,1,8,0:0:0:0:
256,192,43054,1,8,0:0:0:0:
256,192,43241,1,0,0:0:0:0:
256,192,43429,1,0,0:0:0:0:
256,192,43616,1,8,0:0:0:0:
256,192,43991,1,0,0:0:0:0:
256,192,44366,1,8,0:0:0:0:
256,192,44554,1,8,0:0:0:0:
256,192,44741,1,0,0:0:0:0:
256,192,44929,1,8,0:0:0:0:
256,192,45116,1,0,0:0:0:0:
256,192,45492,1,0,0:0:0:0:
256,192,45867,1,0,0:0:0:0:
256,192,45960,1,0,0:0:0:0:
256,192,46054,1,0,0:0:0:0:
256,192,46242,1,8,0:0:0:0:
256,192,46429,1,0,0:0:0:0:
256,192,46617,1,8,0:0:0:0:
256,192,46992,1,0,0:0:0:0:
256,192,47367,1,8,0:0:0:0:
256,192,47554,1,8,0:0:0:0:
256,192,47742,1,0,0:0:0:0:
256,192,48492,1,4,0:0:0:0:
256,192,48867,1,8,0:0:0:0:
256,192,48961,1,8,0:0:0:0:
256,192,49055,1,8,0:0:0:0:
256,192,49242,1,0,0:0:0:0:
256,192,49430,1,0,0:0:0:0:
256,192,49617,1,8,0:0:0:0:
256,192,49992,1,0,0:0:0:0:
256,192,50367,1,8,0:0:0:0:
256,192,50555,1,8,0:0:0:0:
256,192,50742,1,0,0:0:0:0:
256,192,50930,1,8,0:0:0:0:
256,192,51117,1,0,0:0:0:0:
256,192,51492,1,0,0:0:0:0:
256,192,51868,1,8,0:0:0:0:
256,192,51993,1,8,0:0:0:0:
256,192,52118,1,8,0:0:0:0:
256,192,52243,1,8,0:0:0:0:
256,192,52430,1,0,0:0:0:0:
256,192,52618,1,8,0:0:0:0:
256,192,52993,1,0,0:0:0:0:
256,192,53368,1,8,0:0:0:0:
256,192,53555,1,8,0:0:0:0:
256,192,53743,1,0,0:0:0:0:
256,192,54493,1,4,0:0:0:0:
256,192,54868,1,8,0:0:0:0:
256,192,54962,1,8,0:0:0:0:
256,192,55056,1,8,0:0:0:0:
256,192,55243,1,0,0:0:0:0:
256,192,55431,1,8,0:0:0:0:
256,192,55618,1,0,0:0:0:0:
256,192,55993,1,0,0:0:0:0:
256,192,56181,1,0,0:0:0:0:
256,192,56368,1,8,0:0:0:0:
256,192,56556,1,0,0:0:0:0:
256,192,56743,1,8,0:0:0:0:
256,192,56931,1,8,0:0:0:0:
256,192,57118,1,0,0:0:0:0:
256,192,57493,1,0,0:0:0:0:
256,192,57868,1,8,0:0:0:0:
256,192,57962,1,8,0:0:0:0:
256,192,58056,1,8,0:0:0:0:
256,192,58244,1,0,0:0:0:0:
256,192,58431,1,0,0:0:0:0:
256,192,58619,1,8,0:0:0:0:
256,192,58994,1,0,0:0:0:0:
256,192,59744,1,0,0:0:0:0:
256,192,60119,1,8,0:0:0:0:
256,192,60494,1,0,0:0:0:0:
256,192,60681,1,0,0:0:0:0:
256,192,60869,1,8,0:0:0:0:
256,192,61244,1,8,0:0:0:0:
256,192,61432,1,0,0:0:0:0:
256,192,61619,1,8,0:0:0:0:
256,192,61994,1,0,0:0:0:0:
256,192,62369,1,0,0:0:0:0:
256,192,62744,1,8,0:0:0:0:
256,192,63119,1,8,0:0:0:0:
256,192,63494,1,0,0:0:0:0:
256,192,63682,1,0,0:0:0:0:
256,192,63869,1,8,0:0:0:0:
256,192,64244,1,8,0:0:0:0:
256,192,64432,1,0,0:0:0:0:
256,192,64620,1,8,0:0:0:0:
256,192,64995,1,8,0:0:0:0:
256,192,65182,1,8,0:0:0:0:
256,192,65370,1,8,0:0:0:0:
256,192,65745,1,0,0:0:0:0:
256,192,66495,1,4,0:0:0:0:
256,192,66870,1,8,0:0:0:0:
256,192,67057,1,8,0:0:0:0:
256,192,67245,1,0,0:0:0:0:
256,192,67432,1,8,0:0:0:0:
256,192,67526,1,8,0:0:0:0:
256,192,67620,1,8,0:0:0:0:
256,192,67995,1,0,0:0:0:0:
256,192,68183,1,8,0:0:0:0:
256,192,68370,1,0,0:0:0:0:
256,192,68558,1,0,0:0:0:0:
256,192,68745,1,8,0:0:0:0:
256,192,68933,1,0,0:0:0:0:
256,192,69120,1,8,0:0:0:0:
256,192,69495,1,0,0:0:0:0:
256,192,69870,1,8,0:0:0:0:
256,192,70058,1,8,0:0:0:0:
256,192,70245,1,0,0:0:0:0:
256,192,70433,1,8,0:0:0:0:
256,192,70527,1,8,0:0:0:0:
256,192,70620,1,8,0:0:0:0:
256,192,70996,1,0,0:0:0:0:
256,192,71371,1,8,0:0:0:0:
256,192,71746,1,0,0:0:0:0:
256,192,71933,1,8,0:0:0:0:
256,192,72121,1,8,0:0:0:0:
256,192,72308,1,8,0:0:0:0:
256,192,72496,1,4,0:0:0:0:
256,192,72871,1,8,0:0:0:0:
256,192,73058,1,8,0:0:0:0:
256,192,73246,1,0,0:0:0:0:
256,192,73621,1,8,0:0:0:0:
256,192,73996,1,0,0:0:0:0:
256,192,74371,1,8,0:0:0:0:
256,192,74559,1,0,0:0:0:0:
256,192,74746,1,8,0:0:0:0:
256,192,75496,1,0,0:0:0:0:
256,192,75871,1,8,0:0:0:0:
256,192,76059,1,8,0:0:0:0:
256,192,76246,1,8,0:0:0:0:
256,192,76996,1,0,0:0:0:0:
256,192,77372,1,0,0:0:0:0:
256,192,77559,1,0,0:0:0:0:
256,192,77747,1,8,0:0:0:0:
256,192,78497,1,4,0:0:0:0:
256,192,78872,1,8,0:0:0:0:
256,192,78966,1,8,0:0:0:0:
256,192,79059,1,8,0:0:0:0:
256,192,79247,1,0,0:0:0:0:
256,192,79434,1,0,0:0:0:0:
256,192,79622,1,8,0:0:0:0:
256,192,79997,1,0,0:0:0:0:
256,192,80372,1,8,0:0:0:0:
256,192,80560,1,8,0:0:0:0:
256,192,80747,1,0,0:0:0:0:
256,192,80935,1,8,0:0:0:0:
256,192,81122,1,0,0:0:0:0:
256,192,81497,1,0,0:0:0:0:
256,192,81872,1,0,0:0:0:0:
256,192,81966,1,0,0:0:0:0:
256,192,82060,1,0,0:0:0:0:
256,192,82247,1,8,0:0:0:0:
256,192,82435,1,0,0:0:0:0:
256,192,82622,1,8,0:0:0:0:
256,192,82997,1,0,0:0:0:0:
256,192,83372,1,8,0:0:0:0:
256,192,83560,1,8,0:0:0:0:
256,192,83748,1,0,0:0:0:0:
256,192,84498,1,4,0:0:0:0:
256,192,84873,1,8,0:0:0:0:
256,192,84966,1,8,0:0:0:0:
256,192,85060,1,8,0:0:0:0:
256,192,85248,1,0,0:0:0:0:
256,192,85623,1,8,0:0:0:0:
256,192,85998,1,0,0:0:0:0:
256,192,86373,1,8,0:0:0:0:
256,192,86560,1,8,0:0:0:0:
256,192,86748,1,0,0:0:0:0:
256,192,87123,1,8,0:0:0:0:
256,192,87498,1,0,0:0:0:0:
256,192,88248,1,0,0:0:0:0:
256,192,88998,1,0,0:0:0:0:
256,192,89373,1,0,0:0:0:0:
256,192,89748,1,0,0:0:0:0:
256,192,90499,1,4,0:0:0:0:
