osu file format v14

[General]
AudioFilename: audio.mp3
AudioLeadIn: 0
PreviewTime: 42491
Countdown: 0
SampleSet: Normal
StackLeniency: 0
Mode: 1
LetterboxInBreaks: 0
WidescreenStoryboard: 0

[Editor]
Bookmarks: 18487,42491,54493,78497,90499
DistanceSpacing: 1.8
BeatDivisor: 2
GridSize: 32
TimelineZoom: 2.48

[Metadata]
Title:XXL (TECHNO BOOTLEG) (CANCERPILLED EDIT)
TitleUnicode:XXL (TECHNO BOOTLEG) (CANCERPILLED EDIT)
Artist:MIKSU/MACLOUD
ArtistUnicode:MIKSU/MACLOUD
Creator:Genjuro
Version:KANTAN
Source:
Tags:electronic german deutsch hip hop hiphop hip-hop rap jamule summer cem luciano ziehdemiker
BeatmapID:3586360
BeatmapSetID:1688862

[Difficulty]
HPDrainRate:8
CircleSize:2
OverallDifficulty:3
ApproachRate:10
SliderMultiplier:1.4
SliderTickRate:1

[Events]
//Background and Video events
0,0,"L9.jpg",0,95
//Break Periods
//Storyboard Layer 0 (Background)
//Storyboard Layer 1 (Fail)
//Storyboard Layer 2 (Pass)
//Storyboard Layer 3 (Foreground)
//Storyboard Layer 4 (Overlay)
//Storyboard Sound Samples

[TimingPoints]
485,375.058602906704,4,1,0,25,1,0
6298,-100,4,1,0,100,0,0
12486,-100,4,1,0,100,0,1
90499,-100,4,1,0,100,0,0

[HitObjects]
256,192,6485,5,0,0:0:0:0:
256,192,7236,1,8,0:0:0:0:
256,192,7986,1,0,0:0:0:0:
256,192,9486,1,0,0:0:0:0:
256,192,10236,1,8,0:0:0:0:
256,192,10986,1,0,0:0:0:0:
256,192,12486,1,12,0:0:0:0:
256,192,13236,1,0,0:0:0:0:
256,192,13612,1,0,0:0:0:0:
256,192,13987,1,8,0:0:0:0:
256,192,14737,1,8,0:0:0:0:
256,192,15112,1,0,0:0:0:0:
256,192,15487,1,8,0:0:0:0:
256,192,15862,1,8,0:0:0:0:
256,192,16237,1,0,0:0:0:0:
256,192,16987,1,8,0:0:0:0:
256,192,18487,1,4,0:0:0:0:
256,192,19237,1,8,0:0:0:0:
256,192,19612,1,0,0:0:0:0:
256,192,19988,1,8,0:0:0:0:
256,192,20738,1,0,0:0:0:0:
256,192,21488,1,8,0:0:0:0:
256,192,22238,1,0,0:0:0:0:
256,192,22613,1,0,0:0:0:0:
256,192,22988,1,8,0:0:0:0:
256,192,24488,1,0,0:0:0:0:
256,192,25238,1,8,0:0:0:0:
256,192,25613,1,8,0:0:0:0:
256,192,25988,1,8,0:0:0:0:
256,192,26739,1,0,0:0:0:0:
256,192,27489,1,8,0:0:0:0:
256,192,28239,1,0,0:0:0:0:
256,192,28614,1,0,0:0:0:0:
256,192,28989,1,8,0:0:0:0:
256,192,30489,1,4,0:0:0:0:
256,192,31239,1,8,0:0:0:0:
256,192,31614,1,8,0:0:0:0:
256,192,31989,1,0,0:0:0:0:
256,192,32740,1,8,0:0:0:0:
256,192,33490,1,0,0:0:0:0:
256,192,34240,1,8,0:0:0:0:
256,192,34615,1,0,0:0:0:0:
256,192,34990,1,8,0:0:0:0:
256,192,36490,1,0,0:0:0:0:
256,192,37240,1,8,0:0:0:0:
256,192,37990,1,0,0:0:0:0:
256,192,38365,1,0,0:0:0:0:
256,192,38740,1,8,0:0:0:0:
256,192,39116,1,8,0:0:0:0:
256,192,39491,1,0,0:0:0:0:
256,192,40241,1,8,0:0:0:0:
256,192,40991,1,0,0:0:0:0:
256,192,42491,1,4,0:0:0:0:
256,192,43241,1,8,0:0:0:0:
256,192,43616,1,8,0:0:0:0:
256,192,43991,1,0,0:0:0:0:
256,192,44741,1,0,0:0:0:0:
256,192,45116,1,8,0:0:0:0:
256,192,45492,1,0,0:0:0:0:
256,192,45867,1,0,0:0:0:0:
256,192,46242,1,8,0:0:0:0:
256,192,46992,1,0,0:0:0:0:
256,192,48492,1,12,0:0:0:0:
256,192,49242,1,0,0:0:0:0:
256,192,49617,1,0,0:0:0:0:
256,192,49992,1,8,0:0:0:0:
256,192,50742,1,8,0:0:0:0:
256,192,51117,1,0,0:0:0:0:
256,192,51492,1,8,0:0:0:0:
256,192,51868,1,8,0:0:0:0:
256,192,52243,1,0,0:0:0:0:
256,192,52993,1,8,0:0:0:0:
256,192,54493,1,4,0:0:0:0:
256,192,55243,1,8,0:0:0:0:
256,192,55993,1,0,0:0:0:0:
256,192,56368,1,0,0:0:0:0:
256,192,56743,1,0,0:0:0:0:
256,192,57493,1,8,0:0:0:0:
256,192,58244,1,0,0:0:0:0:
256,192,58994,1,8,0:0:0:0:
256,192,60494,1,0,0:0:0:0:
256,192,61244,1,0,0:0:0:0:
256,192,61994,1,0,0:0:0:0:
256,192,63494,1,8,0:0:0:0:
256,192,64244,1,8,0:0:0:0:
256,192,64995,1,8,0:0:0:0:
256,192,66495,1,4,0:0:0:0:
256,192,67245,1,8,0:0:0:0:
256,192,67620,1,8,0:0:0:0:
256,192,67995,1,0,0:0:0:0:
256,192,68370,1,0,0:0:0:0:
256,192,68745,1,8,0:0:0:0:
256,192,69495,1,0,0:0:0:0:
256,192,70245,1,8,0:0:0:0:
256,192,70620,1,0,0:0:0:0:
256,192,70996,1,8,0:0:0:0:
256,192,72496,1,0,0:0:0:0:
256,192,73246,1,8,0:0:0:0:
256,192,73621,1,8,0:0:0:0:
256,192,73996,1,0,0:0:0:0:
256,192,74746,1,8,0:0:0:0:
256,192,75496,1,0,0:0:0:0:
256,192,76246,1,8,0:0:0:0:
256,192,76996,1,0,0:0:0:0:
256,192,78497,1,4,0:0:0:0:
256,192,79247,1,8,0:0:0:0:
256,192,79622,1,8,0:0:0:0:
256,192,79997,1,0,0:0:0:0:
256,192,80747,1,0,0:0:0:0:
256,192,81122,1,8,0:0:0:0:
256,192,81497,1,0,0:0:0:0:
256,192,81872,1,0,0:0:0:0:
256,192,82247,1,8,0:0:0:0:
256,192,82997,1,0,0:0:0:0:
256,192,84498,1,4,0:0:0:0:
256,192,85248,1,8,0:0:0:0:
256,192,85998,1,0,0:0:0:0:
256,192,86748,1,8,0:0:0:0:
256,192,87498,1,0,0:0:0:0:
256,192,88248,1,0,0:0:0:0:
256,192,88998,1,0,0:0:0:0:
256,192,89373,1,0,0:0:0:0:
256,192,89748,1,0,0:0:0:0:
256,192,90499,1,4,0:0:0:0:
