osu file format v14

[General]
AudioFilename: 01 Live Your Life (DailyMusic.ru).mp3
AudioLeadIn: 0
PreviewTime: 38891
Countdown: 0
SampleSet: Soft
StackLeniency: 0.7
Mode: 0
LetterboxInBreaks: 0
WidescreenStoryboard: 0

[Editor]
Bookmarks: 126883
DistanceSpacing: 0.9
BeatDivisor: 16
GridSize: 4
TimelineZoom: 2.6

[Metadata]
Title:Live Your Life
TitleUnicode:Live Your Life
Artist:MIKA
ArtistUnicode:MIKA
Creator:Krisom
Version:Normal
Source:
Tags:San Miguel Los Ciudadanos de un Lugar Llamado Mundo Spanish Pop English Songbook Vol.1
BeatmapID:460488
BeatmapSetID:193841

[Difficulty]
HPDrainRate:4
CircleSize:3.4
OverallDifficulty:5
ApproachRate:5
SliderMultiplier:1.8
SliderTickRate:2

[Events]
//Background and Video events
0,0,"RY6UO7Q.jpg",0,0
//Break Periods
2,57359,60762
2,103700,116146
//Storyboard Layer 0 (Background)
//Storyboard Layer 1 (Fail)
//Storyboard Layer 2 (Pass)
//Storyboard Layer 3 (Foreground)
//Storyboard Layer 4 (Overlay)
//Storyboard Sound Samples

[TimingPoints]
1962,576.923076923077,4,2,1,60,1,0
20135,-100,4,2,1,70,0,0
38885,-100,4,2,1,80,0,1
44618,-104.166666666667,4,2,1,80,0,1
45519,-100,4,2,1,80,0,1
53885,-104.166666666667,4,2,1,80,0,1
54750,-100,4,2,1,80,0,1
57346,-100,4,2,1,60,0,0
71036,-100,4,2,1,70,0,0
85038,-100,4,2,1,80,0,1
103500,-100,4,2,1,80,0,0
121962,-100,4,2,1,80,0,1
140279,-100,4,2,1,80,0,0
140423,-100,4,2,1,80,0,1
158885,-100,4,2,1,70,0,0
159882,-81.3008130081301,4,2,1,70,0,0
161036,-100,4,2,1,70,0,0
177046,-100,4,2,1,50,0,0

[Colours]
Combo1 : 227,2,14
Combo2 : 232,97,0
Combo3 : 250,234,12
Combo4 : 153,231,10
Combo5 : 26,189,58
Combo6 : 38,156,253
Combo7 : 126,38,179
Combo8 : 252,37,209

[HitObjects]
116,40,1962,5,0,1:0:0:0:
64,192,2538,1,2,0:0:0:0:
116,344,3115,1,0,3:0:0:0:
284,344,3692,1,2,0:0:0:0:
364,316,3981,1,8,0:0:0:0:
448,316,4269,2,0,B|484:288|488:240|424:208|440:192|424:176|488:144|484:96|448:68,2,270,2|8|2,0:0|0:0|0:0,0:0:0:0:
364,316,6288,1,8,0:0:0:0:
284,344,6577,5,0,3:0:0:0:
116,344,7154,1,2,0:0:0:0:
64,192,7731,1,0,3:0:0:0:
116,40,8308,1,2,0:0:0:0:
200,40,8596,1,8,0:0:0:0:
284,40,8885,2,0,P|428:86|406:193,2,270,2|8|2,0:0|0:0|0:0,0:0:0:0:
256,120,10904,1,8,0:0:0:0:
296,192,11192,6,0,B|304:244|256:268|208:292|216:344,1,180,0|2,3:0|0:0,0:0:0:0:
296,344,12058,2,0,B|304:292|256:268|208:244|216:192,1,180,8|8,0:0|0:0,0:0:0:0:
144,68,13212,1,8,0:0:0:0:
64,68,13500,2,0,B|28:96|24:144|88:176|72:192|88:208|24:240|28:288|64:316,2,270,2|8|2,0:0|0:0|0:0,0:0:0:0:
144,68,15519,1,8,0:0:0:0:
188,140,15808,5,0,3:0:0:0:
172,224,16096,2,0,P|189:264|172:304,2,90,8|0|8,0:0|3:0|0:0,0:0:0:0:
340,224,17250,2,0,P|323:263|340:304,2,90,8|0|8,0:0|3:0|0:0,0:0:0:0:
344,140,18115,102,0,P|256:124|168:140,1,180,2|2,0:0|0:0,0:0:0:0:
168,272,19161,2,0,P|256:288|344:272,1,180,2|2,0:0|0:0,0:0:0:0:
392,60,20423,21,4,1:2:0:0:
312,68,20712,2,0,B|284:92|248:84|228:72|228:64|208:52|172:44|144:68,1,180,8|8,0:0|0:0,0:1:0:0:
88,128,21577,2,0,P|52:208|88:288,1,180,2|0,0:0|3:0,0:0:0:0:
171,287,22442,1,8,0:0:0:0:
252,288,22731,2,0,B|300:248|356:256|372:300|388:344|444:352|492:312,2,270,2|8|2,0:0|0:0|0:0,0:0:0:0:
88,277,25038,6,0,B|56:192|56:192|88:109,1,180,0|0,1:0|3:0,0:0:0:0:
172,108,25904,1,8,0:0:0:0:
256,108,26192,2,0,B|288:192|288:192|256:276,1,180,2|0,0:0|3:0,0:0:0:0:
340,277,27058,1,8,0:0:0:0:
424,277,27346,2,0,B|456:192|456:192|424:109,1,180,2|8,0:0|3:0,0:0:0:0:
340,108,28212,2,0,B|308:192|308:192|340:276,1,180,8|8,0:0|0:0,0:0:0:0:
300,352,29077,1,0,3:0:0:0:
212,352,29365,1,8,0:0:0:0:
148,292,29654,6,0,P|79:342|12:292,1,180,0|2,1:0|0:0,0:0:0:0:
12,212,30519,2,0,P|80:162|148:212,1,180,8|8,0:0|0:0,0:0:0:0:
216,256,31385,1,0,3:0:0:0:
296,256,31673,1,8,0:0:0:0:
368,292,31962,2,0,B|412:276|444:316|508:292,2,135,2|2|8,0:0|0:0|0:0,0:0:0:0:
168,344,33404,1,2,0:0:0:0:
212,268,33692,1,0,3:0:0:0:
212,180,33981,1,8,0:0:0:0:
168,104,34269,6,0,P|256:19|344:104,1,270,4|2,0:1|0:0,0:0:0:0:
368,176,35423,1,2,0:0:0:0:
328,316,36000,1,2,0:0:0:0:
184,316,36577,1,2,0:0:0:0:
144,176,37154,1,2,0:0:0:0:
256,80,37731,1,2,0:0:0:0:
212,16,38019,2,0,B|256:4|256:4|300:16,2,90,8|8|8,0:1|0:3|0:1,0:0:0:0:
148,68,38885,5,4,0:0:0:0:
84,124,39173,2,0,P|34:193|84:260,1,180,8|8,0:1|0:1,0:0:0:0:
156,308,40038,2,0,B|208:308|208:308|208:360|256:392|304:360|304:308|304:308|356:308,1,270,2|10,0:1|0:1,0:0:0:0:
436,308,41192,1,0,1:0:0:0:
496,156,41769,1,2,0:0:0:0:
356,72,42346,2,0,B|316:132|316:132|256:152|256:152|196:132|196:132|156:72,1,270,2|10,0:1|0:1,0:0:0:0:
76,76,43500,5,0,1:0:0:0:
144,208,44077,1,2,0:0:0:0:
256,296,44654,2,0,P|144:352|32:296,1,259.200006328125,2|10,0:1|0:1,0:0:0:0:
48,216,45808,1,0,1:0:0:0:
76,140,46096,2,0,P|160:112|244:140,1,180,8|8,0:1|0:1,0:0:0:0:
320,168,46962,2,0,B|332:200|332:200|308:272|308:272|320:304,2,135,2|2|2,0:1|0:1|0:1,0:0:0:0:
372,104,48115,5,4,1:2:0:0:
452,104,48404,2,0,B|470:193|470:193|452:280,1,180,8|8,0:1|0:1,0:0:0:0:
372,320,49269,2,0,B|336:372|256:308|256:308|172:244|136:297,1,270,2|10,0:1|0:1,0:0:0:0:
48,308,50423,1,0,1:0:0:0:
120,172,51000,1,2,0:0:0:0:
196,40,51577,2,0,P|256:12|316:40,2,135,2|2|10,0:1|0:1|0:1,0:0:0:0:
176,120,52731,5,0,1:0:0:0:
336,120,53308,1,2,0:0:0:0:
368,264,53885,2,0,P|256:325|144:265,1,259.200006328125,2|10,0:1|0:1,0:0:0:0:
156,188,55038,1,2,0:0:0:0:
164,108,55327,2,0,B|128:108|128:108|100:120|100:120|64:120,2,90,8|0|8,0:1|3:0|0:1,0:0:0:0:
244,108,56192,2,0,B|296:108|296:108|328:100|328:100|388:100,2,135,2|2|2,0:1|0:1|0:1,0:0:0:0:
396,40,61962,5,0,1:0:0:0:
448,192,62538,1,2,0:0:0:0:
396,344,63115,1,0,3:0:0:0:
228,344,63692,1,2,0:0:0:0:
148,316,63981,1,8,0:0:0:0:
64,316,64269,2,0,B|12:264|40:192|40:192|12:120|64:68,2,270,2|8|2,0:0|0:0|0:0,0:0:0:0:
148,316,66288,1,8,0:0:0:0:
228,344,66577,5,0,3:0:0:0:
396,344,67154,1,2,0:0:0:0:
448,192,67731,1,0,3:0:0:0:
396,40,68308,1,2,0:0:0:0:
312,40,68596,1,8,0:0:0:0:
228,40,68885,2,0,P|83:86|105:193,2,270,2|8|2,0:0|0:0|0:0,0:0:0:0:
256,120,70904,1,0,1:0:0:0:
212,196,71192,6,0,L|156:272,1,90,8|0,0:3|1:0,0:0:0:0:
212,340,71769,2,0,L|304:340,1,90,0|0,3:0|1:0,0:0:0:0:
353,268,72346,2,0,L|300:196,1,90,2|0,0:0|1:0,0:0:0:0:
304,116,72923,1,0,3:3:0:0:
368,68,73212,1,0,1:0:0:0:
448,68,73500,2,0,B|500:120|472:192|472:192|500:264|448:316,2,270,2|8|2,0:0|0:0|0:0,0:0:0:0:
368,68,75519,1,0,1:0:0:0:
284,88,75808,5,8,0:3:0:0:
198,110,76096,2,0,L|25:157,1,180,0|0,1:0|1:0,0:0:0:0:
47,242,76962,1,0,3:0:0:0:
132,219,77250,2,0,L|306:173,1,180,0|0,1:0|1:0,0:0:0:0:
392,156,78115,2,0,B|432:182|391:247|438:286,1,135,2|2,0:0|0:0,0:0:0:0:
316,308,78981,1,8,0:0:0:0:
212,184,79558,6,0,P|256:196|304:184,2,90,0|8|0,1:0|0:3|1:0,0:0:0:0:
256,120,80423,1,4,0:0:0:0:
256,192,80712,12,2,83885,0:0:0:0:
216,192,85038,101,4,1:2:0:0:
128,192,85327,2,0,P|100:276|128:360,1,180,8|8,0:1|0:1,0:0:0:0:
216,359,86192,2,0,B|260:360|260:360|296:372|296:372|360:372,2,135,2|2|10,0:1|0:1|0:1,0:0:0:0:
148,312,87346,5,0,1:0:0:0:
256,192,87923,1,2,0:0:0:0:
364,72,88500,2,0,B|320:71|320:71|284:59|284:59|230:59,2,135,2|2|10,0:1|0:1|0:1,0:0:0:0:
428,124,89654,5,0,1:0:0:0:
364,180,89942,2,0,B|354:241|354:241|391:288|391:288|380:348,1,180,8|8,0:1|0:1,0:0:0:0:
296,359,90808,2,0,B|252:360|252:360|216:372|216:372|152:372,2,135,2|2|10,0:1|0:1|0:1,0:0:0:0:
380,345,91962,5,0,1:0:0:0:
432,192,92538,1,2,0:0:0:0:
384,36,93115,2,0,P|256:0|128:36,1,270,2|2,0:1|0:1,0:0:0:0:
124,116,94269,5,4,1:2:0:0:
144,196,94558,2,0,B|144:280|144:280|145:335|209:348,1,180,8|8,0:1|0:1,0:0:0:0:
256,288,95423,2,0,B|256:244|256:244|240:208|240:208|240:156,2,135,2|2|10,0:1|0:1|0:1,0:0:0:0:
312,348,96577,2,0,B|368:337|369:282|369:282|369:198,1,180,0|2,1:0|0:0,0:0:0:0:
256,84,97731,2,0,B|256:128|256:128|244:164|244:164|244:224,2,135,2|2|10,0:1|0:1|0:1,0:0:0:0:
188,40,98885,5,0,1:0:0:0:
128,192,99462,1,2,0:0:0:0:
212,328,100038,2,0,B|212:264|212:264|212:220|256:200|300:220|300:264|300:264|300:328,1,270,2|10,0:1|0:1,0:0:0:0:
376,360,101192,1,0,1:0:0:0:
416,204,101769,1,2,0:0:0:0:
316,96,102346,2,0,P|255:72|194:96,2,135,2|2|2,0:1|0:1|0:1,0:0:0:0:
256,160,103500,1,4,0:0:0:0:
256,192,117346,12,2,120808,0:0:0:0:
472,252,121962,5,4,1:2:0:0:
404,296,122250,1,0,0:0:0:0:
332,332,122538,2,0,B|304:376|255:357|256:307|208:288|180:332,1,180,2|2,0:0|0:2,0:0:0:0:
40,252,123692,1,8,0:1:0:0:
92,192,123981,1,2,0:0:0:0:
40,132,124269,5,0,1:0:0:0:
180,53,124846,2,0,B|208:97|257:78|256:28|304:9|332:53,1,180,2|2,0:0|0:2,0:0:0:0:
472,132,126000,1,8,0:1:0:0:
420,192,126289,1,2,0:0:0:0:
472,252,126577,5,0,1:0:0:0:
476,332,126865,2,0,P|407:385|325:357,1,180,8|8,0:1|0:1,0:1:0:0:
256,316,127731,2,0,B|255:272|255:272|243:236|243:236|243:182,2,135,2|2|10,0:1|0:1|0:1,0:0:0:0:
187,357,128885,1,0,1:0:0:0:
132,204,129462,1,2,0:0:0:0:
160,128,129750,1,8,0:1:0:0:
192,56,130038,2,0,B|256:36|256:36|320:56,2,135,2|2|2,0:1|0:1|0:1,0:0:0:0:
128,104,131192,5,4,1:2:0:0:
92,176,131481,1,8,0:1:0:0:
56,248,131769,1,2,0:0:0:0:
124,296,132058,1,8,0:1:0:0:
192,336,132346,2,0,B|256:356|256:356|320:336,2,135,2|2|2,0:1|0:1|0:1,0:0:0:0:
124,296,133500,1,0,1:0:0:0:
256,192,134077,1,2,0:0:0:0:
293,120,134365,1,8,0:1:0:0:
320,44,134654,2,0,B|256:24|256:24|192:44,2,135,2|2|2,0:1|0:1|0:1,0:0:0:0:
392,84,135808,5,0,1:0:0:0:
396,164,136096,2,0,B|396:224|396:224|436:268|436:268|436:328,1,180,8|8,0:1|0:1,0:0:0:0:
356,332,136962,2,0,P|256:256|156:332,1,270,2|2,0:1|0:1,0:0:0:0:
76,332,138115,1,0,1:0:0:0:
75,250,138404,1,8,0:1:0:0:
76,168,138692,1,2,0:0:0:0:
200,64,139269,2,0,P|256:32|312:64,2,135,2|2|2,0:1|0:1|0:1,0:0:0:0:
172,140,140423,5,4,1:2:0:0:
340,140,141000,1,2,0:0:0:0:
305,213,141288,1,8,0:1:0:0:
256,276,141577,2,0,P|192:296|128:276,2,135,2|2|2,0:1|0:1|0:1,0:0:0:0:
305,213,142731,1,0,1:0:0:0:
256,60,143308,1,2,0:0:0:0:
224,136,143596,1,8,0:1:0:0:
207,213,143885,2,0,P|143:233|79:213,2,135,2|2|2,0:1|0:1|0:1,0:0:0:0:
256,148,145038,5,0,1:0:0:0:
380,72,145615,1,2,0:0:0:0:
444,124,145904,1,8,0:1:0:0:
504,176,146192,2,0,B|504:220|504:220|492:260|492:260|492:312,2,135,2|2|2,0:1|0:1|0:1,0:0:0:0:
428,148,147346,2,0,B|428:208|428:208|416:252|416:252|416:332,1,180,0|2,1:1|0:0,0:0:0:0:
336,344,148212,1,8,0:1:0:0:
256,328,148500,2,0,B|256:284|256:284|244:244|244:244|244:192,2,135,2|2|2,0:1|0:1|0:1,0:0:0:0:
176,344,149654,5,4,1:2:0:0:
100,312,149942,2,0,B|113:229|113:229|122:174|183:172,1,180,8|8,0:1|0:1,0:0:0:0:
256,144,150808,2,0,B|256:100|256:100|244:60|244:60|244:8,2,135,2|2|2,0:1|0:1|0:1,0:0:0:0:
331,172,151962,2,0,B|389:174|398:229|398:229|412:312,1,180,0|2,1:1|2:2,0:0:0:0:
256,360,153115,2,0,B|256:316|256:316|244:276|244:276|244:224,2,135,2|2|2,0:1|0:1|0:1,0:0:0:0:
176,368,154269,5,0,1:0:0:0:
104,328,154558,1,8,0:1:0:0:
88,248,154846,1,2,0:0:0:0:
196,128,155423,2,0,P|256:72|316:128,1,180,2|2,0:1|0:0,0:0:0:0:
424,248,156577,1,0,1:0:0:0:
408,328,156865,1,8,0:1:0:0:
336,368,157154,1,2,2:0:0:0:
320,212,157731,2,0,P|256:232|192:212,2,135,2|2|2,0:1|0:1|0:1,0:0:0:0:
256,152,158885,5,4,0:0:0:0:
184,120,159173,2,0,P|256:74|328:120,1,180,0|0,3:0|3:0,0:0:0:0:
392,80,160038,2,0,P|256:-1|120:80,1,332.100005067444,2|2,0:0|0:0,0:0:0:0:
224,288,161481,6,0,B|204:201|204:201|116:181,1,180,0|0,3:0|3:0,0:0:0:0:
28,195,162346,2,0,B|88:317|88:317|209:376,1,270,2|2,0:0|0:0,0:0:0:0:
380,344,163788,6,0,P|421:268|380:192,1,180,0|0,3:0|3:0,0:0:0:0:
376,112,164654,2,0,B|328:72|272:80|256:124|240:168|184:176|136:136,1,270,2|2,0:0|0:0,0:0:0:0:
180,300,166096,6,0,P|255:342|332:300,1,180,0|0,3:0|3:0,0:0:0:0:
308,216,166962,2,0,P|256:180|204:216,2,135,2|2|2,0:0|0:0|0:0,0:0:0:0:
168,24,168404,6,0,P|256:8|344:24,1,180,0|0,3:0|3:0,0:0:0:0:
388,100,169269,2,0,P|256:124|124:100,1,270,2|2,0:0|0:0,0:0:0:0:
288,288,170712,6,0,B|307:201|307:201|395:181,1,180,0|0,3:0|3:0,0:0:0:0:
483,195,171577,2,0,B|423:317|423:317|302:376,1,270,2|2,0:0|0:0,0:0:0:0:
132,344,173019,6,0,P|91:268|132:192,1,180,0|0,3:0|3:0,0:0:0:0:
136,112,173885,2,0,B|184:72|240:80|256:124|272:168|328:176|376:136,1,270,2|2,0:0|0:0,0:0:0:0:
332,292,175327,6,0,P|257:334|180:292,1,180,0|0,3:0|3:0,0:0:0:0:
204,208,176192,2,0,P|256:172|308:208,2,135,2|2|4,0:0|0:0|0:2,0:0:0:0:
