osu file format v14

[General]
AudioFilename: 01 Live Your Life (DailyMusic.ru).mp3
AudioLeadIn: 0
PreviewTime: 38891
Countdown: 0
SampleSet: Soft
StackLeniency: 0.7
Mode: 0
LetterboxInBreaks: 0
WidescreenStoryboard: 0

[Editor]
DistanceSpacing: 0.8
BeatDivisor: 16
GridSize: 4
TimelineZoom: 3.899999

[Metadata]
Title:Live Your Life
TitleUnicode:Live Your Life
Artist:MIKA
ArtistUnicode:MIKA
Creator:Krisom
Version:Hard
Source:
Tags:San Miguel Los Ciudadanos de un Lugar Llamado Mundo Spanish Pop English Songbook Vol.1
BeatmapID:460486
BeatmapSetID:193841

[Difficulty]
HPDrainRate:5
CircleSize:3.8
OverallDifficulty:6
ApproachRate:7.5
SliderMultiplier:2.4
SliderTickRate:2

[Events]
//Background and Video events
0,0,"RY6UO7Q.jpg",0,0
//Break Periods
2,57354,61137
2,103700,116521
//Storyboard Layer 0 (Background)
//Storyboard Layer 1 (Fail)
//Storyboard Layer 2 (Pass)
//Storyboard Layer 3 (Foreground)
//Storyboard Layer 4 (Overlay)
//Storyboard Sound Samples

[TimingPoints]
1962,576.923076923077,4,2,1,60,1,0
14293,-95.2380952380952,4,2,1,60,0,0
15014,-100,4,2,1,60,0,0
20279,-100,4,2,1,70,0,0
32755,-90.9090909090909,4,2,1,70,0,0
33476,-100,4,2,1,70,0,0
38885,-100,4,2,1,80,0,1
57346,-100,4,2,1,60,0,0
71048,-100,4,2,1,70,0,0
85038,-100,4,2,1,80,0,1
102202,-104.166666666667,4,2,1,80,0,1
103500,-100,4,2,1,80,0,0
121962,-100,4,2,1,80,0,1
131625,-111.111111111111,4,2,1,80,0,1
131913,-100,4,2,1,80,0,1
140279,-100,4,2,1,80,0,0
140423,-100,4,2,1,80,0,1
158885,-100,4,2,1,70,0,0
177058,-100,4,2,1,50,0,0

[Colours]
Combo1 : 227,2,14
Combo2 : 232,97,0
Combo3 : 250,234,12
Combo4 : 153,231,10
Combo5 : 26,189,58
Combo6 : 38,156,253
Combo7 : 126,38,179
Combo8 : 252,37,209

[HitObjects]
16,348,1962,5,0,3:0:0:0:
64,264,2250,1,8,0:0:0:0:
160,264,2538,1,0,3:0:0:0:
208,180,2827,1,8,0:0:0:0:
256,88,3115,2,0,P|316:72|372:88,1,120,2|8,0:0|0:0,0:0:0:0:
432,164,3692,2,0,P|372:180|316:164,1,120,0|8,3:0|0:0,0:0:0:0:
256,88,4269,2,0,P|180:48|88:64,2,180,2|2|8,0:0|0:0|0:0,0:0:0:0:
304,348,6000,5,2,0:0:0:0:
400,348,6288,1,8,0:0:0:0:
496,348,6577,1,0,3:0:0:0:
448,264,6865,1,8,0:0:0:0:
352,264,7154,1,0,3:0:0:0:
304,180,7442,1,8,0:0:0:0:
256,88,7731,2,0,P|196:72|140:88,1,120,2|8,0:0|0:0,0:0:0:0:
80,164,8308,2,0,P|140:180|196:164,1,120,0|8,3:0|0:0,0:0:0:0:
256,88,8885,2,0,P|332:48|424:64,2,180,2|2|8,0:0|0:0|0:0,0:0:0:0:
256,184,10038,1,0,3:0:0:0:
352,184,10327,5,8,0:0:0:0:
448,184,10615,1,2,0:0:0:0:
492,268,10904,1,8,0:0:0:0:
448,352,11192,2,0,B|400:328|360:352|320:376|272:352,2,180,2|2|8,0:0|0:0|0:0,0:0:0:0:
448,352,12635,1,8,0:0:0:0:
396,272,12923,1,0,0:0:0:0:
396,175,13212,1,8,0:0:0:0:
307,110,13500,2,0,P|255:82|203:110,1,120,2|8,0:0|0:0,0:0:0:0:
204,180,13933,2,0,P|256:208|308:180,1,120,0|0,3:0|3:0,0:0:0:0:
364,224,14365,2,0,P|256:280|148:224,1,251.999992309571,8|8,0:0|0:0,0:0:0:0:
128,128,15231,1,0,3:0:0:0:
172,40,15519,5,0,3:0:0:0:
172,40,15663,2,0,B|232:24|256:128|280:24|340:40,1,180,0|8,3:0|0:0,0:0:0:0:
340,40,16240,1,0,3:0:0:0:
398,116,16529,1,0,3:0:0:0:
398,116,16673,1,8,0:0:0:0:
348,300,17250,1,8,0:0:0:0:
256,324,17538,1,0,3:0:0:0:
164,300,17827,1,8,0:0:0:0:
76,292,18115,101,0,3:0:0:0:
76,292,18260,1,0,3:0:0:0:
76,292,18404,1,8,0:0:0:0:
60,196,18692,2,0,P|80:108|172:68,1,195,2|0,0:0|3:0,0:0:0:0:
256,112,19449,1,8,0:0:0:0:
340,68,19738,1,2,0:0:0:0:
48,280,20423,22,0,P|80:324|152:312,1,120,4|8,1:2|0:1,0:0:0:0:
180,232,20999,2,0,P|148:188|76:200,1,120,0|8,3:0|0:1,0:0:0:0:
12,128,21577,1,2,0:0:0:0:
100,92,21865,1,8,0:1:0:0:
188,56,22154,1,0,3:0:0:0:
276,20,22442,1,8,0:1:0:0:
276,20,22731,2,0,B|276:88|276:88|248:116|248:116|248:192,2,180,2|2|8,0:0|0:3|0:3,0:0:0:0:
428,264,24462,5,2,0:0:0:0:
496,196,24750,1,8,0:1:0:0:
464,104,25038,2,0,P|432:60|360:72,1,120,0|8,1:0|0:1,0:0:0:0:
332,152,25615,2,0,P|364:196|436:184,1,120,0|8,3:0|0:1,0:0:0:0:
500,256,26192,1,2,0:0:0:0:
412,292,26481,1,8,0:1:0:0:
324,328,26769,1,0,3:0:0:0:
236,364,27058,1,8,0:1:0:0:
236,364,27346,2,0,B|236:296|236:296|264:268|264:268|264:192,2,180,2|2|8,0:0|0:3|0:3,0:0:0:0:
64,184,29077,5,2,0:0:0:0:
20,268,29365,1,8,0:1:0:0:
64,352,29654,2,0,B|112:328|152:352|192:376|240:352,2,180,2|2|8,0:0|0:3|0:0,0:0:0:0:
64,352,31096,1,8,0:1:0:0:
116,272,31385,1,0,3:0:0:0:
116,175,31673,1,8,0:1:0:0:
109,82,31962,2,0,B|133:62|165:82|165:82|197:102|221:82,1,120,2|8,0:0|0:1,0:0:0:0:
293,82,32394,2,0,B|317:102|349:82|349:82|381:62|405:82,1,120,0|0,3:0|3:0,0:0:0:0:
376,148,32827,2,0,P|256:196|136:148,1,264.000008056641,8|8,0:1|0:1,0:0:0:0:
128,244,33692,1,0,3:0:0:0:
204,320,33981,5,8,0:1:0:0:
204,320,34125,1,0,0:0:0:0:
204,320,34269,2,0,P|256:346|308:320,1,120,4|8,0:1|0:1,0:0:0:0:
384,244,34846,1,0,3:0:0:0:
408,152,35135,1,8,0:0:0:0:
348,80,35423,1,2,0:0:0:0:
256,48,35712,1,8,0:0:0:0:
164,80,36000,1,0,0:0:0:0:
104,152,36288,1,8,0:0:0:0:
128,244,36577,1,2,0:0:0:0:
160,332,36865,2,0,B|212:360|256:285|256:285|300:360|352:332,2,240,2|8|2,3:0|3:0|3:0,0:0:0:0:
68,300,38308,1,2,0:0:0:0:
68,204,38596,1,8,0:0:0:0:
68,107,38885,5,4,1:2:0:0:
144,48,39173,2,0,B|200:96|256:48|312:0|368:48,1,240,8|8,0:1|0:1,0:0:0:0:
440,112,40038,2,0,P|476:192|440:272,2,180,2|8|2,0:1|0:3|0:1,0:0:0:0:
343,112,41192,5,0,1:0:0:0:
304,200,41481,1,8,0:1:0:0:
256,192,41625,1,0,0:0:0:0:
208,184,41769,1,2,0:0:0:0:
168,272,42058,1,8,0:1:0:0:
72,272,42346,2,0,P|36:192|72:112,2,180,2|2|2,0:1|0:1|0:1,0:0:0:0:
168,272,43500,5,0,1:0:0:0:
264,320,43788,1,8,0:1:0:0:
264,320,43933,1,0,0:0:0:0:
264,320,44077,1,2,0:0:0:0:
344,272,44365,1,8,0:1:0:0:
344,176,44654,2,0,B|388:140|428:176|468:212|512:176,2,180,2|8|2,0:1|0:3|0:1,0:0:0:0:
336,80,45808,5,0,1:0:0:0:
256,28,46096,1,8,0:1:0:0:
256,28,46240,1,0,0:0:0:0:
256,28,46385,1,2,3:2:0:0:
176,80,46673,1,8,0:1:0:0:
168,176,46962,2,0,B|124:140|84:176|44:212|0:176,2,180,2|2|2,0:1|0:1|0:1,0:0:0:0:
124,260,48115,5,4,1:2:0:0:
144,348,48404,2,0,B|200:369|200:369|256:348|256:348|312:327|312:327|368:348,1,240,8|8,0:1|0:1,0:0:0:0:
388,260,49269,2,0,B|424:216|388:176|352:136|388:92,2,180,2|8|2,0:1|0:3|0:1,0:0:0:0:
376,356,50423,5,0,1:0:0:0:
280,340,50712,1,8,0:1:0:0:
256,340,50856,1,0,0:0:0:0:
232,340,51000,1,2,0:0:0:0:
136,356,51288,1,8,0:1:0:0:
124,260,51577,2,0,B|88:216|124:176|160:136|124:92,2,180,2|2|2,0:1|0:1|0:1,0:0:0:0:
136,356,52731,5,0,1:0:0:0:
200,284,53019,2,0,P|256:304|312:284,1,120,8|0,0:1|3:0,0:0:0:0:
360,200,53596,1,8,0:1:0:0:
340,104,53885,2,0,P|256:76|172:104,2,180,2|8|2,0:1|0:3|0:1,0:0:0:0:
380,192,55038,5,0,1:0:0:0:
348,284,55327,1,8,0:1:0:0:
256,316,55615,1,2,0:0:0:0:
164,284,55904,1,8,0:1:0:0:
132,192,56192,1,2,0:1:0:0:
256,144,56625,1,2,0:1:0:0:
388,200,57058,1,2,0:1:0:0:
449,28,61962,5,0,3:0:0:0:
353,28,62250,1,8,0:0:0:0:
305,112,62538,1,0,3:0:0:0:
401,112,62827,1,8,0:0:0:0:
496,112,63115,1,2,0:0:0:0:
449,196,63404,1,8,0:0:0:0:
353,196,63692,1,0,3:0:0:0:
332,288,63981,1,8,0:0:0:0:
332,288,64269,2,0,P|256:329|180:288,2,180,2|2|8,0:0|0:0|0:0,0:0:0:0:
208,112,65712,5,8,0:0:0:0:
112,112,66000,1,0,3:0:0:0:
16,112,66288,1,8,0:0:0:0:
63,28,66577,1,0,3:0:0:0:
159,28,66865,1,8,0:0:0:0:
207,112,67154,1,0,3:0:0:0:
111,112,67442,1,8,0:0:0:0:
16,112,67731,1,2,0:0:0:0:
63,196,68019,1,8,0:0:0:0:
159,196,68308,1,0,3:0:0:0:
180,288,68596,1,8,0:0:0:0:
180,288,68885,2,0,P|256:329|332:288,2,180,2|2|8,0:0|0:0|0:0,0:0:0:0:
208,40,70615,5,2,0:0:0:0:
304,40,70904,1,0,1:0:0:0:
400,40,71192,2,0,P|428:92|400:144,1,120,12|0,0:3|1:0,0:0:0:0:
328,244,71769,2,0,P|300:192|328:140,1,120,2|0,0:0|1:0,0:0:0:0:
186,141,72346,2,0,P|211:192|183:243,1,120,0|0,3:0|1:0,0:0:0:0:
112,344,72923,2,0,P|84:292|112:240,1,120,2|0,0:0|1:0,0:0:0:0:
112,144,73500,1,2,0:1:0:0:
256,192,73933,1,2,0:1:0:0:
400,240,74365,1,2,0:1:0:0:
16,240,75231,5,0,3:0:0:0:
16,144,75519,1,0,1:0:0:0:
116,108,75808,2,0,L|244:108,1,120,8|0,3:0|1:0,0:0:0:0:
316,192,76385,2,0,L|184:192,1,120,2|0,0:0|1:0,0:0:0:0:
276,276,76962,2,0,L|396:276,1,120,0|0,3:0|1:0,0:0:0:0:
496,240,77538,1,2,0:0:0:0:
496,144,77827,1,0,1:0:0:0:
400,144,78115,1,2,0:1:0:0:
256,192,78548,1,2,0:1:0:0:
112,240,78981,1,2,0:1:0:0:
112,48,79558,21,0,1:0:0:0:
208,48,79846,1,8,3:0:0:0:
304,48,80135,1,0,1:0:0:0:
400,48,80423,1,4,0:0:0:0:
256,192,80567,12,2,84462,0:0:0:0:
208,112,85038,101,4,1:2:0:0:
112,112,85327,1,8,0:1:0:0:
88,152,85471,1,0,0:0:0:0:
64,192,85615,1,0,3:0:0:0:
160,192,85904,1,8,0:1:0:0:
256,192,86192,2,0,P|215:267|256:345,2,180,2|8|2,0:1|0:3|0:1,0:0:0:0:
304,272,87346,5,0,1:2:0:0:
400,272,87635,1,8,0:1:0:0:
424,232,87779,1,0,0:0:0:0:
448,192,87923,1,2,0:0:0:0:
352,192,88212,1,8,0:1:0:0:
256,192,88500,2,0,P|297:117|256:39,2,180,2|2|2,0:1|0:1|0:1,0:0:0:0:
344,272,89654,5,0,1:0:0:0:
256,312,89942,1,8,0:1:0:0:
256,312,90087,1,0,0:0:0:0:
256,312,90231,1,2,0:0:0:0:
168,272,90519,1,8,0:1:0:0:
168,172,90808,2,0,B|124:136|84:172|44:208|0:172,2,180,2|8|2,0:1|0:3|0:1,0:0:0:0:
168,73,91962,5,0,1:0:0:0:
256,28,92250,1,8,0:1:0:0:
256,28,92394,1,0,0:0:0:0:
256,28,92538,1,2,3:2:0:0:
344,73,92827,1,8,0:1:0:0:
344,172,93115,2,0,B|388:208|428:172|468:136|512:172,2,180,2|2|2,0:1|0:1|0:1,0:0:0:0:
356,268,94269,5,4,1:2:0:0:
308,352,94558,1,8,0:1:0:0:
256,352,94702,1,0,0:0:0:0:
204,352,94846,1,2,3:2:0:0:
156,268,95135,1,8,0:1:0:0:
92,192,95423,2,0,B|68:248|68:248|92:304|92:304|68:364,2,180,2|8|2,0:1|0:3|0:1,0:0:0:0:
156,116,96577,5,0,1:2:0:0:
204,32,96865,1,8,0:1:0:0:
256,32,97010,1,0,0:0:0:0:
308,32,97154,1,2,0:0:0:0:
356,116,97442,1,8,0:1:0:0:
420,192,97731,2,0,B|444:136|444:136|420:80|420:80|444:20,2,180,2|2|2,0:1|0:1|0:1,0:0:0:0:
356,264,98885,5,0,1:0:0:0:
304,344,99173,1,8,0:1:0:0:
256,344,99317,1,0,0:0:0:0:
207,344,99462,1,2,0:0:0:0:
156,264,99750,1,8,0:1:0:0:
120,176,100038,1,2,0:1:0:0:
256,240,100471,1,2,0:1:0:0:
392,176,100904,1,2,0:1:0:0:
348,92,101192,5,0,1:0:0:0:
256,72,101481,1,8,0:1:0:0:
164,92,101769,1,2,0:0:0:0:
120,176,102058,1,8,0:1:0:0:
180,256,102346,2,0,P|255:221|332:256,2,172.80000421875,2|2|2,0:1|0:0|0:1,0:0:0:0:
256,332,103500,1,4,0:0:0:0:
256,192,117346,12,2,121385,0:0:0:0:
444,277,121962,5,4,1:2:0:0:
368,336,122250,1,8,0:1:0:0:
312,294,122394,2,0,P|256:275|200:294,1,120,2|2,0:0|0:0,0:0:0:0:
144,336,122827,1,8,0:1:0:0:
72,272,123115,2,0,P|36:192|72:112,2,180,2|8|2,0:1|0:3|0:1,0:0:0:0:
169,272,124269,5,0,1:0:0:0:
208,184,124558,1,8,0:1:0:0:
256,192,124702,1,0,3:0:0:0:
304,200,124846,1,2,0:0:0:0:
344,112,125135,1,8,0:1:0:0:
440,112,125423,2,0,P|476:192|440:272,2,180,2|2|2,0:1|0:1|0:1,0:0:0:0:
400,24,126577,5,0,1:0:0:0:
304,34,126865,1,8,0:1:0:0:
256,40,127010,1,0,0:0:0:0:
209,44,127154,1,2,0:0:0:0:
113,54,127442,1,8,0:1:0:0:
16,68,127731,2,0,P|8:140|48:168,1,120,2|2,0:1|0:0,0:0:0:0:
108,148,128163,2,0,P|176:180|152:272,1,180,2|2,0:1|0:1,0:0:0:0:
112,360,128885,5,0,1:0:0:0:
208,350,129173,1,8,0:1:0:0:
256,344,129317,1,0,0:0:0:0:
303,340,129462,1,2,0:0:0:0:
399,330,129750,1,8,0:1:0:0:
496,316,130038,2,0,P|504:244|464:216,1,120,2|2,0:1|0:0,0:0:0:0:
404,236,130471,2,0,P|336:204|360:112,1,180,2|2,0:1|0:1,0:0:0:0:
428,52,131192,5,4,1:2:0:0:
340,0,131481,1,8,0:1:0:0:
304,60,131625,2,0,P|256:84|208:60,1,107.999996704102,2|2,0:0|0:0,0:0:0:0:
176,0,132058,1,8,0:1:0:0:
96,52,132346,2,0,P|71:104|96:156,1,120,2|2,0:1|0:0,0:0:0:0:
96,228,132779,2,0,P|71:280|96:332,1,120,8|2,0:3|0:0,0:0:0:0:
144,280,133212,1,2,0:1:0:0:
196,360,133500,5,0,1:2:0:0:
264,292,133788,1,8,0:1:0:0:
264,292,133933,1,0,0:0:0:0:
264,292,134077,1,2,0:0:0:0:
316,360,134365,1,8,0:1:0:0:
416,332,134654,2,0,P|441:280|416:228,1,120,2|2,0:1|0:0,0:0:0:0:
416,156,135087,2,0,P|441:104|416:52,1,120,2|2,0:1|0:0,0:0:0:0:
368,104,135519,1,2,0:1:0:0:
304,32,135808,5,0,1:0:0:0:
208,24,136096,1,8,0:1:0:0:
128,80,136385,1,0,3:0:0:0:
84,164,136673,1,8,0:1:0:0:
128,252,136962,1,2,0:1:0:0:
256,324,137394,1,2,0:1:0:0:
384,252,137827,1,2,0:1:0:0:
400,160,138115,5,0,1:0:0:0:
356,76,138404,1,8,0:1:0:0:
272,28,138692,1,2,0:0:0:0:
176,32,138981,1,8,0:1:0:0:
172,128,139269,2,0,P|256:156|340:128,2,180,2|2|2,0:1|0:1|0:1,0:0:0:0:
100,192,140423,5,4,1:2:0:0:
144,276,140712,1,8,0:1:0:0:
199,322,140856,2,0,B|239:330|239:330|271:314|271:314|313:322,1,120,2|2,0:0|0:0,0:0:0:0:
368,276,141288,1,8,0:1:0:0:
464,296,141577,2,0,B|500:252|464:212|428:172|464:128,2,180,2|8|2,0:1|0:3|0:1,0:0:0:0:
396,356,142731,5,0,1:0:0:0:
304,384,143019,1,8,0:1:0:0:
256,376,143163,1,0,0:0:0:0:
208,384,143308,1,2,0:0:0:0:
116,356,143596,1,8,0:1:0:0:
48,296,143885,2,0,B|12:252|48:212|84:172|48:128,2,180,2|2|2,0:1|0:1|0:1,0:0:0:0:
132,252,145038,5,0,1:0:0:0:
208,312,145327,1,8,0:1:0:0:
256,308,145471,1,0,0:0:0:0:
304,312,145615,1,2,3:2:0:0:
380,252,145904,1,8,0:1:0:0:
372,156,146192,2,0,P|397:104|372:52,1,120,2|2,0:1|0:0,0:0:0:0:
308,20,146625,2,0,P|280:104|308:188,1,180,8|2,0:3|0:1,0:0:0:0:
380,252,147346,5,0,1:0:0:0:
304,312,147635,1,8,0:1:0:0:
256,308,147779,1,0,0:0:0:0:
208,312,147923,1,2,0:0:0:0:
132,252,148212,1,8,0:1:0:0:
140,156,148500,2,0,P|115:104|140:52,1,120,2|2,0:1|0:0,0:0:0:0:
204,20,148933,2,0,P|232:104|204:188,1,180,2|2,0:1|0:1,0:0:0:0:
124,244,149654,6,0,P|60:244|20:292,1,120,4|8,1:2|0:1,0:0:0:0:
51,348,150087,2,0,P|115:348|155:300,1,120,2|2,0:0|0:0,0:0:0:0:
194,254,150519,1,8,0:1:0:0:
176,160,150808,1,2,0:1:0:0:
256,40,151240,1,2,0:1:0:0:
336,160,151673,1,2,0:1:0:0:
388,244,151962,6,0,P|452:244|492:292,1,120,0|8,1:2|0:1,0:0:0:0:
461,348,152395,2,0,P|397:348|357:300,1,120,2|2,0:0|0:0,0:0:0:0:
318,254,152827,1,8,0:1:0:0:
356,164,153115,1,2,0:1:0:0:
256,60,153548,1,2,0:1:0:0:
156,164,153981,1,2,0:1:0:0:
84,100,154269,5,0,1:0:0:0:
52,196,154558,1,8,0:1:0:0:
120,268,154846,1,2,0:0:0:0:
208,220,155135,1,8,0:1:0:0:
304,164,155423,1,0,3:1:0:0:
392,116,155712,1,8,0:1:0:0:
460,196,156000,1,2,0:0:0:0:
428,284,156288,1,8,0:1:0:0:
320,296,156577,2,0,P|292:244|320:192,1,120,8|0,0:3|1:0,0:0:0:0:
192,88,157154,2,0,P|220:140|192:192,1,120,8|0,0:3|1:0,0:0:0:0:
108,256,157731,5,2,0:1:0:0:
256,344,158163,1,2,0:1:0:0:
404,256,158596,1,2,0:1:0:0:
368,172,158885,6,0,B|312:124|256:172|200:220|144:172,1,240,4|0,0:0|0:1,0:0:0:0:
88,92,159750,1,2,0:0:0:0:
160,28,160038,1,0,0:0:0:0:
256,28,160327,1,2,0:0:0:0:
352,28,160615,1,0,0:0:0:0:
424,92,160904,1,2,0:0:0:0:
460,296,161481,5,2,0:0:0:0:
460,196,161769,1,0,0:0:0:0:
368,248,162058,1,2,0:0:0:0:
368,344,162346,1,0,0:0:0:0:
368,344,162635,2,0,P|256:308|144:344,1,240,2|2,0:0|0:0,0:0:0:0:
144,164,163788,5,2,0:0:0:0:
80,236,164077,1,0,0:0:0:0:
16,164,164365,1,2,0:0:0:0:
80,92,164654,1,0,0:0:0:0:
144,20,164942,2,0,B|204:-36|232:48|256:16|280:48|308:-36|368:20,1,240,2|2,0:0|0:0,0:0:0:0:
496,164,166096,5,2,0:0:0:0:
432,92,166385,1,0,0:0:0:0:
368,164,166673,1,2,0:0:0:0:
432,232,166962,2,0,P|256:264|80:232,1,360,0|2,0:0|0:0,0:0:0:0:
164,60,168404,5,2,0:0:0:0:
256,40,168692,1,0,0:0:0:0:
348,60,168981,1,2,0:0:0:0:
392,144,169269,1,2,0:0:0:0:
256,192,169702,1,2,0:0:0:0:
120,240,170135,1,2,0:0:0:0:
348,324,170712,5,2,0:0:0:0:
256,344,171000,1,0,0:0:0:0:
164,324,171288,1,2,0:0:0:0:
120,240,171577,1,2,0:0:0:0:
256,192,172010,1,2,0:0:0:0:
392,144,172442,1,2,0:0:0:0:
256,8,173019,5,2,0:0:0:0:
304,92,173308,1,0,0:0:0:0:
208,92,173596,1,2,0:0:0:0:
172,180,173885,2,0,P|256:208|340:180,2,180,2|2|2,0:0|0:0|0:0,0:0:0:0:
52,296,175327,5,2,0:0:0:0:
52,196,175615,1,0,0:0:0:0:
144,248,175904,1,2,0:0:0:0:
144,344,176192,1,0,0:0:0:0:
144,344,176481,2,0,P|256:308|368:344,1,240,2|4,0:0|0:2,0:0:0:0:
