osu file format v14

[General]
AudioFilename: 01 Live Your Life (DailyMusic.ru).mp3
AudioLeadIn: 0
PreviewTime: 38891
Countdown: 0
SampleSet: Soft
StackLeniency: 0.7
Mode: 0
LetterboxInBreaks: 0
WidescreenStoryboard: 0

[Editor]
DistanceSpacing: 1.2
BeatDivisor: 16
GridSize: 4
TimelineZoom: 2.000001

[Metadata]
Title:Live Your Life
TitleUnicode:Live Your Life
Artist:MIKA
ArtistUnicode:MIKA
Creator:Krisom
Version:Easy
Source:
Tags:San Miguel Los Ciudadanos de un Lugar Llamado Mundo Spanish Pop English Songbook Vol.1
BeatmapID:460485
BeatmapSetID:193841

[Difficulty]
HPDrainRate:3
CircleSize:2.7
OverallDifficulty:3
ApproachRate:3
SliderMultiplier:1.6
SliderTickRate:2

[Events]
//Background and Video events
0,0,"RY6UO7Q.jpg",0,0
//Break Periods
2,57545,60522
2,103700,115906
//Storyboard Layer 0 (Background)
//Storyboard Layer 1 (Fail)
//Storyboard Layer 2 (Pass)
//Storyboard Layer 3 (Foreground)
//Storyboard Layer 4 (Overlay)
//Storyboard Sound Samples

[TimingPoints]
1962,576.923076923077,4,2,1,60,1,0
20279,-100,4,2,1,70,0,0
38885,-100,4,2,1,80,0,1
54462,-100,4,1,1,80,0,1
54498,-100,4,2,1,80,0,1
56769,-100,4,1,1,80,0,1
56805,-100,4,2,1,80,0,1
57346,-100,4,2,1,60,0,0
70615,-100,4,2,1,70,0,0
85038,-100,4,2,1,80,0,1
94269,-106.382978723404,4,2,1,80,0,1
98596,-100,4,2,1,80,0,1
103500,-100,4,2,1,80,0,0
121962,-100,4,2,1,80,0,1
131192,-106.382978723404,4,2,1,80,0,1
135519,-100,4,2,1,80,0,1
140279,-100,4,2,1,80,0,0
140423,-100,4,2,1,80,0,1
158885,-100,4,2,1,70,0,0
163212,-111.111111111111,4,2,1,70,0,0
167827,-125,4,2,1,70,0,0
174750,-111.111111111111,4,2,1,70,0,0
177058,-100,4,2,1,50,0,0

[Colours]
Combo1 : 227,2,14
Combo2 : 232,97,0
Combo3 : 250,234,12
Combo4 : 153,231,10
Combo5 : 26,189,58
Combo6 : 38,156,253
Combo7 : 126,38,179
Combo8 : 252,37,209

[HitObjects]
424,40,1962,5,0,3:0:0:0:
256,40,2538,1,2,3:0:0:0:
88,40,3115,1,2,0:0:0:0:
376,316,4269,2,0,L|136:316,2,240,0|8|0,3:0|0:2|3:0,0:0:0:0:
404,152,6577,5,0,3:0:0:0:
256,72,7154,1,2,3:0:0:0:
108,152,7731,1,2,0:0:0:0:
368,352,8885,2,0,B|312:392|256:352|200:312|136:352,2,240,0|8|0,3:0|0:0|3:0,0:0:0:0:
348,188,11192,6,0,P|256:123|164:188,2,240,2|8|2,0:0|0:0|0:0,0:0:0:0:
313,344,13500,2,0,B|256:361|256:361|199:345,2,120,0|0|8,3:0|3:0|0:0,0:0:0:0:
92,252,15231,1,2,3:0:0:0:
52,112,15808,6,0,L|212:112,1,160,0|2,3:0|3:0,0:0:0:0:
336,200,16962,2,0,L|168:200,1,160,2|2,0:0|3:0,0:0:0:0:
300,112,18115,2,0,L|460:112,2,160,0|2|0,3:0|0:0|0:0,0:0:0:0:
36,192,20423,5,4,1:2:0:0:
88,352,21000,1,2,0:0:0:0:
256,352,21577,1,0,3:0:0:0:
424,352,22154,1,2,0:0:0:0:
360,192,22731,2,0,P|256:140|152:192,1,240,8|2,3:0|0:0,0:0:0:0:
476,192,25038,5,0,1:2:0:0:
424,32,25615,1,2,0:0:0:0:
256,32,26192,1,0,3:0:0:0:
88,32,26769,1,2,0:0:0:0:
156,176,27346,2,0,P|260:228|364:176,1,240,0|2,3:0|0:0,0:0:0:0:
84,32,29654,6,0,B|68:68|68:68|28:88|28:88|12:120,2,120,2|0|8,0:0|3:0|0:0,0:0:0:0:
84,192,31096,1,8,0:0:0:0:
256,360,31962,2,0,L|256:116,2,240,2|8|2,0:0|0:0|0:0,0:0:0:0:
376,252,34269,6,0,B|411:198|411:198|442:188|442:188|485:123,1,160,4|0,0:1|0:0,0:0:0:0:
332,56,35423,1,2,0:0:0:0:
180,56,36000,1,2,0:0:0:0:
120,204,36577,2,0,P|256:276|392:204,1,320,2|2,0:0|0:0,0:0:0:0:
256,88,38308,1,8,0:3:0:0:
88,88,38885,6,0,P|36:192|88:296,1,240,4|8,1:2|0:1,0:0:0:0:
140,360,40038,1,2,0:0:0:0:
256,240,40615,1,2,3:0:0:0:
372,360,41192,2,0,B|428:376|500:348|504:264|452:216|452:216|388:160,1,320,0|2,3:0|3:0,0:0:0:0:
256,64,42923,1,2,3:0:0:0:
172,212,43500,5,0,1:0:0:0:
340,212,44077,1,2,0:0:0:0:
372,376,44654,2,0,B|292:400|280:360|256:340|232:360|220:400|140:376,1,240,2|8,3:0|0:1,0:0:0:0:
172,296,45808,1,0,3:0:0:0:
340,296,46385,1,2,0:0:0:0:
372,132,46962,2,0,B|292:108|280:148|256:168|232:148|220:108|140:132,1,240,2|8,3:0|0:1,0:0:0:0:
56,156,48115,5,4,0:0:0:0:
108,316,48692,2,0,P|256:368|404:316,1,320,2|2,3:0|0:0,0:0:0:0:
488,172,50423,1,0,3:0:0:0:
324,176,51000,2,0,P|257:140|188:176,1,160,2|2,0:0|3:0,0:0:0:0:
172,344,52154,1,2,3:0:0:0:
340,344,52731,5,0,1:0:0:0:
488,260,53308,1,2,0:0:0:0:
492,92,53885,2,0,L|172:92,1,320,2|0,3:0|3:0,0:0:0:0:
24,176,55615,1,2,0:0:0:0:
17,344,56192,2,4,L|340:344,1,320,2|4,3:0|0:2,0:1:0:0:
476,192,61962,5,0,1:2:0:0:
424,352,62538,1,2,0:0:0:0:
256,352,63115,1,0,3:0:0:0:
88,352,63692,1,2,0:0:0:0:
152,192,64269,2,0,P|256:140|360:192,1,240,0|8,3:0|0:0,0:0:0:0:
36,192,66577,5,0,3:2:0:0:
88,32,67154,1,2,0:0:0:0:
256,32,67731,1,0,3:0:0:0:
424,32,68308,1,2,0:0:0:0:
360,192,68885,2,0,P|256:244|152:192,1,240,0|8,3:0|0:0,0:0:0:0:
408,320,71192,6,0,L|408:156,1,160,8|0,3:0|1:0,0:0:0:0:
256,112,72346,2,0,L|256:272,1,160,2|0,0:0|1:0,0:0:0:0:
104,224,73500,2,0,L|104:100,2,120,8|2|8,3:0|0:2|3:0,0:0:0:0:
416,340,75808,6,0,L|256:340,1,160,8|0,0:3|1:0,0:0:0:0:
176,192,76962,2,0,L|336:192,1,160,2|0,0:0|1:0,0:0:0:0:
256,44,78115,2,0,L|104:44,2,120,2|0|8,0:0|1:0|0:3,0:0:0:0:
176,272,79846,1,0,1:0:0:0:
336,272,80423,1,4,2:2:0:0:
256,192,80712,12,2,83885,0:0:0:0:
104,340,85038,6,4,B|176:284|256:340|336:396|408:340,1,320,4|2,1:2|0:2,0:2:0:0:
492,192,86769,1,2,3:0:0:0:
416,40,87346,2,0,L|96:40,1,320,0|2,1:0|3:0,0:0:0:0:
20,192,89077,1,2,3:0:0:0:
184,224,89654,6,0,P|256:255|328:224,1,160,0|2,1:0|0:0,0:0:0:0:
372,64,90808,2,0,B|292:40|280:80|256:100|232:80|220:40|140:64,1,240,2|8,3:0|0:1,0:0:0:0:
136,148,91962,1,0,1:0:0:0:
172,312,92538,1,2,3:0:0:0:
340,312,93115,1,2,0:0:0:0:
376,148,93692,1,2,3:0:0:0:
256,32,94269,6,0,B|176:32|176:32|120:32|76:76|76:136|76:136|76:196,1,300.799995410156,4|2,1:2|3:0,0:0:0:0:
76,356,96000,1,2,3:0:0:0:
256,352,96577,2,0,B|336:352|336:352|392:352|436:308|436:248|436:248|436:184,1,300.799995410156,0|2,1:0|3:0,0:0:0:0:
436,28,98308,1,2,3:0:0:0:
332,168,98885,6,0,B|256:192|256:192|180:168,1,160,0|2,1:0|0:0,0:0:0:0:
136,16,100038,2,0,L|376:16,1,240,2|8,3:0|0:1,0:0:0:0:
460,16,101192,1,0,1:0:0:0:
404,176,101769,2,0,P|256:228|108:176,1,320,0|2,3:0|0:0,0:0:0:0:
52,16,103500,1,4,0:0:0:0:
256,192,117346,12,2,120808,0:0:0:0:
408,340,121962,6,4,B|336:284|256:340|176:396|104:340,1,320,4|2,1:2|0:2,0:2:0:0:
20,192,123692,1,2,3:0:0:0:
96,40,124269,2,0,L|416:40,1,320,0|2,1:0|3:0,0:0:0:0:
492,192,126000,1,2,3:0:0:0:
328,224,126577,6,0,P|256:255|184:224,1,160,0|2,1:0|0:0,0:0:0:0:
140,64,127731,2,0,B|220:40|232:80|256:100|280:80|292:40|372:64,1,240,2|8,3:0|0:1,0:0:0:0:
376,148,128885,1,0,1:0:0:0:
340,312,129462,1,2,3:0:0:0:
172,312,130038,1,2,0:0:0:0:
136,148,130615,1,2,3:0:0:0:
256,32,131192,6,0,B|336:32|336:32|392:32|436:76|436:136|436:136|436:208,1,300.799995410156,4|2,1:2|3:0,0:0:0:0:
436,356,132923,1,2,3:0:0:0:
256,352,133500,2,0,B|176:352|176:352|120:352|76:308|76:248|76:248|76:188,1,300.799995410156,0|2,1:0|3:0,0:0:0:0:
76,28,135231,1,2,3:0:0:0:
180,168,135808,6,0,B|256:192|256:192|332:168,1,160,0|2,1:0|0:0,0:0:0:0:
356,8,136962,2,0,B|304:56|304:56|256:44|256:44|208:56|208:56|156:8,1,240,2|8,3:0|0:1,0:0:0:0:
104,76,138115,1,0,1:0:0:0:
164,228,138692,1,2,3:0:0:0:
256,360,139269,1,2,0:0:0:0:
348,228,139846,1,2,3:0:0:0:
424,88,140423,6,0,P|476:192|424:296,1,240,4|8,1:2|0:1,0:0:0:0:
372,360,141577,1,2,0:0:0:0:
256,240,142154,1,2,3:0:0:0:
140,360,142731,2,0,B|84:376|12:348|8:264|60:216|60:216|124:160,1,320,0|2,3:0|3:0,0:0:0:0:
256,64,144462,1,2,3:0:0:0:
340,212,145038,5,0,1:0:0:0:
172,212,145615,1,2,0:0:0:0:
140,376,146192,2,0,B|220:400|232:360|256:340|280:360|292:400|372:376,1,240,2|8,3:0|0:1,0:0:0:0:
340,296,147346,1,0,3:0:0:0:
172,296,147923,1,2,0:0:0:0:
140,132,148500,2,0,B|220:108|232:148|256:168|280:148|292:108|372:132,1,240,2|8,3:0|0:1,0:0:0:0:
456,156,149654,5,4,0:0:0:0:
404,316,150231,2,0,P|256:368|108:316,1,320,2|2,3:0|0:0,0:0:0:0:
44,160,151962,1,0,3:0:0:0:
188,72,152538,2,0,P|255:36|324:72,1,160,2|2,0:0|3:0,0:0:0:0:
468,160,153692,1,2,3:0:0:0:
384,304,154269,5,0,1:0:0:0:
256,192,154846,1,2,0:0:0:0:
128,304,155423,2,0,B|96:272|96:272|96:152,1,160,2|2,0:3|0:3,0:0:0:0:
172,8,156577,101,0,1:0:0:0:
340,8,157154,1,2,0:0:0:0:
416,157,157731,2,0,B|416:272|416:272|384:304,1,160,2|2,0:3|0:3,0:0:0:0:
212,276,158885,22,0,P|38:192|212:108,1,480,4|2,0:0|0:0,0:0:0:0:
300,276,161192,2,0,P|474:192|300:108,1,480,0|2,3:0|0:0,0:0:0:0:
176,28,163500,6,0,B|92:16|80:88|240:144|232:192|52:168|67:192|52:216|232:192|240:240|80:296|92:368|176:356,1,431.999986816407,0|2,3:0|0:0,0:0:0:0:
336,356,165808,2,0,B|420:368|432:296|272:240|280:192|460:216|445:192|460:168|280:192|272:144|432:88|420:16|336:28,1,431.999986816407,0|2,3:0|0:0,0:0:0:0:
176,52,168115,6,0,B|96:104|96:104|56:192|56:192|96:280|96:280|176:332,1,384,0|2,3:0|0:0,0:0:0:0:
336,332,170423,2,0,B|416:280|416:280|456:192|456:192|416:104|416:104|336:52,1,384,0|2,3:0|0:0,0:0:0:0:
184,52,172731,5,0,3:0:0:0:
256,188,173308,1,2,0:0:0:0:
336,52,173885,1,0,3:0:0:0:
184,52,174462,1,2,0:0:0:0:
96,200,175038,2,0,P|256:361|416:200,1,503.999984619141,0|4,3:0|0:2,0:0:0:0:
