osu file format v14

[General]
AudioFilename: 01 Live Your Life (DailyMusic.ru).mp3
AudioLeadIn: 0
PreviewTime: 38891
Countdown: 0
SampleSet: Soft
StackLeniency: 0.7
Mode: 0
LetterboxInBreaks: 0
WidescreenStoryboard: 1

[Editor]
DistanceSpacing: 0.82
BeatDivisor: 16
GridSize: 4
TimelineZoom: 2.4

[Metadata]
Title:Live Your Life
TitleUnicode:Live Your Life
Artist:MIKA
ArtistUnicode:MIKA
Creator:Krisom
Version:Bright
Source:
Tags:San Miguel Los Ciudadanos de un Lugar Llamado Mundo Spanish Pop English Songbook Vol.1
BeatmapID:460487
BeatmapSetID:193841

[Difficulty]
HPDrainRate:6
CircleSize:4.3
OverallDifficulty:7
ApproachRate:8.5
SliderMultiplier:2.7
SliderTickRate:2

[Events]
//Background and Video events
0,0,"RY6UO7Q.jpg",0,0
//Break Periods
2,57547,61287
2,103700,116672
//Storyboard Layer 0 (Background)
//Storyboard Layer 1 (Fail)
//Storyboard Layer 2 (Pass)
//Storyboard Layer 3 (Foreground)
//Storyboard Layer 4 (Overlay)
//Storyboard Sound Samples

[TimingPoints]
1962,576.923076923077,4,2,1,60,1,0
14293,-96.1538461538461,4,2,1,60,0,0
15014,-100,4,2,1,60,0,0
20375,-100,4,2,1,70,0,0
30447,-87.719298245614,4,2,1,70,0,0
31024,-100,4,2,1,70,0,0
38885,-100,4,2,1,80,0,1
57346,-100,4,2,1,60,0,0
71144,-100,4,2,1,70,0,0
85038,-100,4,2,1,80,0,1
103500,-100,4,2,1,70,0,0
119618,-95.2380952380952,4,2,1,70,0,0
121962,-100,4,2,1,80,0,1
140279,-100,4,2,1,70,0,0
140423,-100,4,2,1,80,0,1
158885,-100,4,2,1,70,0,0
177010,-100,4,2,1,50,0,0

[Colours]
Combo1 : 227,2,14
Combo2 : 232,97,0
Combo3 : 250,234,12
Combo4 : 153,231,10
Combo5 : 26,189,58
Combo6 : 38,156,253
Combo7 : 126,38,179
Combo8 : 252,37,209

[HitObjects]
504,344,1962,5,0,1:0:0:0:
428,268,2250,1,8,0:0:0:0:
504,192,2538,1,0,3:0:0:0:
428,116,2827,1,8,0:0:0:0:
352,40,3115,2,0,P|283:31|257:88,1,135,2|8,0:0|0:0,0:0:0:0:
160,200,3692,2,0,P|228:208|254:151,1,135,0|8,3:0|0:0,3:0:0:0:
96,152,4269,2,0,P|27:143|1:200,1,135,2|8,0:0|0:0,0:0:0:0:
16,260,4702,2,0,B|16:284|24:308|48:316|72:324|80:348|80:372,1,135,0|0,3:0|3:0,0:0:0:0:
12,376,5135,1,8,0:0:0:0:
192,316,5567,1,0,3:0:0:0:
192,316,5712,1,8,0:0:0:0:
296,348,6000,1,0,3:0:0:0:
324,244,6288,1,8,0:0:0:0:
352,140,6577,6,0,P|380:80|352:20,1,135,0|8,3:0|0:0,0:0:0:0:
272,160,7154,2,0,P|309:214|375:220,1,135,0|8,3:0|0:0,0:0:0:0:
296,80,7731,2,0,P|230:85|192:139,1,135,2|8,0:0|0:0,0:0:0:0:
180,244,8308,1,0,3:0:0:0:
256,320,8596,1,8,0:0:0:0:
352,268,8885,2,0,B|377:230|412:259|446:287|472:250,1,135,2|8,0:0|0:0,0:0:0:0:
456,184,9317,2,0,P|424:124|456:64,1,135,0|0,3:0|3:0,0:0:0:0:
496,124,9750,1,8,0:0:0:0:
372,20,10183,1,0,3:0:0:0:
372,20,10327,1,8,0:0:0:0:
312,112,10615,1,0,3:0:0:0:
200,112,10904,1,8,0:0:0:0:
140,20,11192,6,0,P|72:52|60:112,1,135,2|8,3:2|0:0,0:0:0:0:
16,160,11625,2,0,B|33:176|57:186|79:173|101:161|124:171|142:187,1,135,0|0,3:0|3:0,0:0:0:0:
164,252,12058,2,0,P|256:288|348:252,1,202.5,10|0,0:0|3:0,0:0:0:0:
392,192,12635,1,8,0:0:0:0:
492,152,12923,1,0,3:0:0:0:
408,80,13212,1,8,0:0:0:0:
308,36,13500,2,0,P|256:0|204:36,1,135,0|8,3:0|0:0,0:0:0:0:
204,104,13933,2,0,P|256:140|308:104,1,135,2|2,0:0|0:0,0:0:0:0:
368,136,14365,2,0,P|256:208|144:136,1,280.799998286133,8|8,0:0|0:0,0:0:0:0:
92,44,15231,1,0,3:0:0:0:
16,120,15519,5,8,0:0:0:0:
16,120,15663,2,0,B|64:176|16:212|-32:248|16:304,1,202.5,0|8,3:0|0:0,0:0:0:0:
64,356,16240,2,0,P|136:376|184:320,1,135,0|0,3:0|3:0,0:0:0:0:
180,272,16673,2,0,P|256:216|332:272,1,202.5,8|0,0:0|3:0,0:0:0:0:
372,328,17250,1,8,0:0:0:0:
472,284,17538,1,0,3:0:0:0:
500,180,17827,1,8,0:0:0:0:
452,84,18115,5,0,3:0:0:0:
452,84,18260,1,0,3:0:0:0:
452,84,18404,1,8,0:0:0:0:
356,36,18692,2,0,B|304:16|256:36|208:56|132:32,1,219.375,2|0,0:0|3:0,0:0:0:0:
44,52,19449,1,2,0:0:0:0:
0,140,19738,1,2,0:0:0:0:
128,144,20026,5,0,3:0:0:0:
120,164,20135,2,0,B|92:172|92:172|68:196|68:196|37:206,1,84.375,0|8,1:0|0:3,0:0:0:0:
28,232,20423,1,4,1:2:0:0:
84,320,20712,5,8,0:1:0:0:
196,288,21000,2,0,P|256:316|316:288,1,135,0|8,3:0|0:1,0:0:0:0:
448,364,21577,2,0,P|442:298|388:260,1,135,2|8,0:0|0:1,0:0:0:0:
384,108,22154,2,0,P|329:145|324:211,1,135,0|8,3:0|0:1,0:0:0:0:
320,324,22731,2,0,B|256:344|256:344|192:324,1,135,2|8,3:2|0:1,0:0:0:0:
192,252,23164,2,0,B|256:272|256:272|320:252,1,135,0|0,3:2|3:1,0:0:0:0:
348,188,23597,2,0,B|256:146|256:146|164:188,1,202.5,8|0,0:1|3:0,0:0:0:0:
100,216,24174,1,8,0:1:0:0:
64,116,24462,1,0,3:0:0:0:
164,80,24750,1,8,0:1:0:0:
256,24,25039,6,0,P|288:76|256:136,1,135,0|8,1:0|0:1,0:0:0:0:
110,276,25616,2,0,P|139:222|207:220,1,135,0|8,3:0|0:1,0:0:0:0:
401,276,26193,2,0,P|340:277|304:220,1,135,2|8,0:0|0:1,0:0:0:0:
356,124,26770,2,0,P|417:122|452:179,1,135,0|8,3:0|0:1,0:0:0:0:
400,276,27347,2,0,P|316:276|288:320,1,135,2|8,3:2|0:1,0:0:0:0:
240,360,27779,2,0,B|214:397|180:369|145:340|120:378,1,135,0|0,3:0|3:0,0:0:0:0:
56,356,28212,2,0,P|36:276|128:228,1,202.5,8|0,0:1|3:0,0:0:0:0:
192,260,28789,1,8,0:1:0:0:
300,280,29077,1,0,3:0:0:0:
392,224,29366,1,8,0:1:0:0:
408,116,29654,6,0,P|348:84|288:116,1,135,2|8,1:2|0:1,0:0:0:0:
220,110,30087,2,0,P|160:84|103:116,1,135,0|0,3:0|3:0,0:0:0:0:
164,156,30520,2,0,P|256:215|348:156,1,230.849997182007,8|0,0:1|3:0,0:0:0:0:
352,88,31097,1,8,0:1:0:0:
256,52,31385,1,0,3:0:0:0:
160,88,31674,1,8,0:1:0:0:
76,156,31962,2,0,B|22:196|22:196|2:260,1,135,2|8,3:2|0:1,0:0:0:0:
56,304,32395,2,0,B|109:263|109:263|129:199,1,135,0|0,3:2|3:0,0:0:0:0:
140,132,32827,1,8,0:1:0:0:
296,176,33260,1,0,3:0:0:0:
296,176,33404,1,8,0:1:0:0:
396,136,33693,1,2,0:0:0:0:
456,208,33981,5,8,0:1:0:0:
460,224,34125,1,0,0:0:0:0:
464,240,34270,2,0,P|416:296|360:288,1,135,4|2,0:1|0:0,0:0:0:0:
272,216,34847,2,0,P|228:168|160:168,1,135,0|2,0:0|0:0,0:0:0:0:
64,220,35424,1,0,0:0:0:0:
104,320,35712,1,2,0:0:0:0:
204,364,36000,1,0,0:0:0:0:
308,364,36289,1,2,0:0:0:0:
408,320,36577,1,0,0:0:0:0:
448,220,36866,1,2,0:0:0:0:
256,16,37443,21,2,0:0:0:0:
256,100,37731,1,2,0:0:0:0:
256,120,37875,1,8,3:0:0:0:
256,136,38020,1,0,1:0:0:0:
256,152,38164,1,0,1:0:0:0:
256,168,38308,1,8,0:3:0:0:
256,184,38452,1,8,0:3:0:0:
256,200,38597,1,0,1:0:0:0:
256,216,38741,1,8,0:3:0:0:
256,232,38885,1,4,1:2:0:0:
304,328,39174,6,0,P|380:352|416:316,1,135,8|0,0:1|3:0,0:0:0:0:
460,224,39750,1,8,0:1:0:0:
464,216,39895,1,2,0:0:0:0:
468,208,40039,2,0,L|337:173,1,135,2|8,0:1|0:1,0:0:0:0:
314,110,40472,2,0,L|409:14,1,135,2|2,3:1|0:3,0:0:0:0:
476,24,40904,2,0,L|511:154,1,135,10|2,0:1|1:2,0:0:0:0:
484,264,41481,5,8,0:1:0:0:
476,272,41625,1,2,0:0:0:0:
468,280,41770,1,0,3:0:0:0:
360,292,42058,1,8,0:1:0:0:
348,288,42202,1,2,0:0:0:0:
336,284,42347,2,0,B|311:246|276:275|242:303|216:266,1,135,2|8,0:1|0:1,0:0:0:0:
172,212,42779,2,0,P|104:213|67:270,1,135,2|2,3:1|3:0,0:0:0:0:
138,276,43212,1,10,0:1:0:0:
312,356,43500,5,0,1:0:0:0:
400,292,43789,1,8,0:1:0:0:
412,284,43933,1,2,0:0:0:0:
424,276,44077,1,0,3:0:0:0:
440,168,44366,1,8,0:1:0:0:
432,160,44510,1,2,0:0:0:0:
424,152,44654,2,0,P|356:112|308:132,1,135,2|8,0:1|0:1,0:0:0:0:
248,89,45087,2,0,P|241:154|288:200,1,135,2|2,3:1|3:0,0:0:0:0:
283,271,45520,2,0,P|343:246|359:182,1,135,10|0,0:1|1:0,0:0:0:0:
248,88,46097,5,8,0:1:0:0:
232,80,46241,1,2,0:0:0:0:
216,72,46385,1,0,3:0:0:0:
116,108,46674,1,8,0:1:0:0:
100,112,46818,1,2,0:0:0:0:
84,116,46962,1,2,1:0:0:0:
256,240,47430,1,2,1:0:0:0:
432,116,47827,1,2,1:0:0:0:
492,268,48116,5,4,1:2:0:0:
396,316,48404,1,8,0:1:0:0:
384,324,48549,1,2,0:0:0:0:
372,332,48693,1,0,3:0:0:0:
272,292,48981,1,8,0:1:0:0:
284,184,49270,2,0,B|306:119|306:119|265:65,1,135,2|8,0:1|0:1,0:0:0:0:
204,42,49702,2,0,B|137:54|137:54|110:117,1,135,2|2,3:1|3:0,0:0:0:0:
121,182,50135,2,0,B|164:232|164:232|232:224,1,135,10|0,0:1|1:0,0:0:0:0:
324,164,50712,5,8,0:1:0:0:
332,152,50856,1,2,0:0:0:0:
340,140,51000,1,0,3:0:0:0:
432,84,51289,1,8,0:1:0:0:
436,96,51433,1,2,0:0:0:0:
440,108,51577,2,0,B|472:139|439:169|405:198|438:230,1,135,2|8,0:1|0:1,0:0:0:0:
504,252,52010,2,0,L|376:300,1,135,2|2,3:1|3:0,0:0:0:0:
312,320,52443,1,10,0:1:0:0:
96,272,52731,5,0,1:0:0:0:
76,168,53020,1,8,0:1:0:0:
64,164,53164,1,2,0:0:0:0:
52,160,53308,1,0,3:0:0:0:
164,104,53597,1,8,0:1:0:0:
180,108,53741,1,2,0:0:0:0:
196,112,53885,2,0,L|340:136,1,135,2|8,0:1|0:1,0:0:0:0:
396,156,54318,2,0,P|400:232|344:280,1,135,2|2,3:1|3:0,0:0:0:0:
400,332,54750,1,10,0:1:0:0:
256,356,55039,5,0,1:0:0:0:
256,248,55327,1,8,0:1:0:0:
256,236,55472,1,2,0:0:0:0:
256,224,55616,1,2,3:0:0:0:
256,212,55760,1,2,0:0:0:0:
256,200,55904,1,8,0:1:0:0:
256,188,56049,1,2,0:0:0:0:
256,176,56193,1,2,1:0:0:0:
156,32,56481,5,8,0:3:0:0:
164,44,56625,1,2,1:0:0:0:
356,32,56914,1,8,0:3:0:0:
348,44,57058,1,2,1:0:0:0:
256,176,57347,1,4,0:0:0:0:
299,348,61962,21,0,3:0:0:0:
403,310,62250,1,8,0:0:0:0:
336,128,62539,1,0,3:0:0:0:
317,238,62827,1,8,0:0:0:0:
508,272,63116,1,2,0:0:0:0:
422,200,63404,1,8,0:0:0:0:
299,348,63693,2,0,P|239:376|167:360,1,135,0|8,0:0|0:0,0:0:0:0:
87,292,64270,2,0,B|57:265|74:229|92:193|62:166,1,135,2|8,0:0|0:0,0:0:0:0:
20,112,64702,2,0,P|56:48|120:48,1,135,0|0,3:0|3:0,0:0:0:0:
160,92,65135,2,0,B|216:128|256:92|296:56|352:92,1,202.5,8|0,0:0|3:0,0:0:0:0:
408,136,65712,1,8,0:0:0:0:
356,232,66000,1,0,3:0:0:0:
304,328,66289,1,8,0:0:0:0:
196,304,66577,5,0,3:0:0:0:
85,279,66866,1,8,0:0:0:0:
56,171,67154,1,0,3:0:0:0:
140,95,67443,1,8,0:0:0:0:
246,120,67731,1,2,0:0:0:0:
275,228,68020,1,8,0:0:0:0:
312,332,68308,2,0,P|344:364|428:348,1,135,0|8,3:0|0:0,0:0:0:0:
472,248,68885,2,0,B|480:204|480:204|464:164|464:164|476:116,1,135,2|8,0:0|0:0,0:0:0:0:
468,52,69318,2,0,B|404:80|404:80|336:76,1,135,0|0,3:0|3:0,0:0:0:0:
276,48,69750,2,0,P|184:48|136:136,1,202.5,8|0,0:0|3:0,0:0:0:0:
164,200,70327,1,8,0:0:0:0:
156,308,70616,6,0,P|192:352|232:332,1,90,8|8,0:3|0:3,0:0:0:0:
264,332,70904,2,0,B|296:336|296:336|316:356|316:356|356:364,1,90,0|0,1:0|1:0,0:0:0:0:
400,360,71193,6,0,P|432:304|400:248,1,135,12|0,0:3|1:0,0:0:0:0:
328,100,71770,2,0,P|296:156|328:212,1,135,2|0,0:0|1:0,0:0:0:0:
184,284,72347,2,0,P|216:228|184:172,1,135,0|0,3:3|1:0,0:0:0:0:
112,24,72924,2,0,P|80:80|112:136,1,135,2|0,0:0|1:0,0:0:0:0:
184,284,73500,2,0,B|256:308|256:308|324:308,1,135,2|0,0:0|1:0,0:0:0:0:
324,240,73933,2,0,B|252:216|252:216|184:216,1,135,8|8,3:0|3:0,0:0:0:0:
140,172,74366,2,0,P|160:68|256:40,1,202.5,0|0,1:0|3:0,0:0:0:0:
308,60,74943,1,0,1:0:0:0:
388,136,75231,1,0,3:0:0:0:
492,100,75520,1,0,1:0:0:0:
432,260,75808,6,0,L|336:364,1,135,8|0,0:3|1:0,0:0:0:0:
164,195,76385,2,0,L|256:96,1,135,0|0,3:0|1:0,0:0:0:0:
347,188,76962,2,0,L|256:288,1,135,2|0,0:0|1:0,0:0:0:0:
80,124,77539,2,0,L|171:24,1,135,0|0,3:0|1:0,0:0:0:0:
256,96,78116,5,2,0:0:0:0:
312,192,78404,1,0,1:0:0:0:
320,204,78549,1,8,3:0:0:0:
200,192,78873,1,0,3:0:0:0:
192,204,78981,2,0,P|256:277|320:204,1,219.375,0|0,1:0|0:0,0:0:0:0:
372,148,79558,6,0,B|347:116|347:116|306:100,1,84.375,0|0,1:0|1:0,0:0:0:0:
295,60,79846,2,0,B|255:72|255:72|215:60,1,84.375,8|8,0:3|0:3,0:0:0:0:
204,100,80135,2,0,B|163:116|163:116|135:152,1,84.375,0|0,1:0|1:0,0:0:0:0:
112,184,80423,1,4,0:0:0:0:
192,300,80712,6,0,B|236:312|276:272|236:272|276:312|320:300,1,135,2|0,0:0|0:0,0:0:0:0:
408,228,81289,1,2,0:0:0:0:
380,120,81577,1,0,0:0:0:0:
316,32,81865,1,2,0:0:0:0:
196,32,82154,1,0,0:0:0:0:
132,120,82442,1,2,0:0:0:0:
104,228,82731,1,2,0:0:0:0:
256,32,83308,5,2,0:0:0:0:
256,112,83885,1,2,0:0:0:0:
256,128,84029,1,8,3:0:0:0:
256,144,84173,1,0,1:0:0:0:
256,160,84317,1,0,1:0:0:0:
256,176,84462,1,8,0:3:0:0:
256,192,84606,1,8,0:3:0:0:
256,208,84750,1,0,1:0:0:0:
256,224,84894,1,8,0:3:0:0:
256,240,85039,1,4,1:2:0:0:
180,328,85327,6,0,P|112:336|72:288,1,135,8|0,0:1|3:0,0:0:0:0:
64,276,85760,1,2,0:0:0:0:
56,264,85904,1,8,0:1:0:0:
48,252,86049,1,2,0:0:0:0:
40,240,86193,2,0,B|28:196|72:188|116:180|104:136,1,135,2|8,0:1|0:1,0:0:0:0:
68,76,86625,2,0,P|120:112|188:96,1,135,2|2,3:1|3:0,0:0:0:0:
244,56,87058,1,10,0:1:0:0:
356,32,87347,6,0,P|328:92|356:152,2,135,0|8|0,1:0|0:1|3:0,0:0:0:0:
376,32,88068,1,2,0:0:0:0:
396,32,88212,1,8,0:1:0:0:
416,32,88356,1,2,0:0:0:0:
436,32,88500,2,0,P|464:92|436:152,1,135,2|8,0:1|0:1,0:0:0:0:
376,188,88933,2,0,P|350:248|382:305,1,135,2|2,3:1|3:0,0:0:0:0:
424,244,89366,1,10,0:1:0:0:
288,336,89654,5,0,1:0:0:0:
212,256,89943,2,0,B|160:272|160:272|144:300|144:300|96:316,1,135,8|0,0:1|0:0,0:0:0:0:
84,320,90375,1,2,0:0:0:0:
72,324,90520,1,8,0:1:0:0:
60,328,90664,1,2,0:0:0:0:
48,332,90808,2,0,P|4:288|8:220,1,135,2|8,0:1|0:1,0:0:0:0:
56,168,91241,2,0,P|116:151|172:189,1,135,2|2,3:1|3:0,0:0:0:0:
192,256,91674,2,0,P|175:315|115:345,1,135,10|0,0:1|1:0,0:0:0:0:
124,213,92250,5,8,0:1:0:0:
148,201,92395,1,2,0:0:0:0:
172,189,92539,1,0,3:0:0:0:
356,189,92827,1,8,0:1:0:0:
380,201,92972,1,2,0:0:0:0:
404,213,93116,1,2,1:0:0:0:
264,348,93584,1,2,1:0:0:0:
124,213,93981,1,2,1:0:0:0:
104,52,94270,5,4,1:2:0:0:
212,32,94558,2,0,P|296:28|336:72,1,135,8|0,0:1|3:0,0:0:0:0:
332,80,94991,1,2,0:0:0:0:
336,100,95135,1,8,0:1:0:0:
340,120,95279,1,2,0:0:0:0:
344,140,95424,2,0,L|484:176,1,135,2|8,0:1|0:1,0:0:0:0:
464,240,95856,2,0,L|324:204,1,135,2|2,3:1|3:0,0:0:0:0:
316,272,96289,2,0,L|456:308,1,135,10|0,0:1|1:0,0:0:0:0:
348,356,96866,5,8,0:1:0:0:
328,352,97010,1,2,0:0:0:0:
312,348,97154,1,0,3:0:0:0:
208,308,97443,1,8,0:1:0:0:
192,312,97587,1,2,0:0:0:0:
176,316,97731,2,0,L|128:184,1,135,2|8,1:0|0:1,0:0:0:0:
96,128,98164,2,0,P|160:176|216:148,1,135,2|2,3:1|3:0,0:0:0:0:
248,104,98597,1,10,0:1:0:0:
364,60,98885,5,0,1:0:0:0:
456,120,99174,2,0,B|488:151|455:181|421:210|454:242,1,135,8|0,0:1|3:1,0:0:0:0:
464,256,99606,1,2,0:0:0:0:
472,268,99750,1,8,0:1:0:0:
480,280,99895,1,2,0:0:0:0:
488,292,100039,2,0,L|352:324,1,135,2|8,0:1|0:1,0:0:0:0:
304,280,100472,2,0,P|248:248|184:268,1,135,2|2,3:1|3:3,0:0:0:0:
128,308,100904,1,10,0:1:0:0:
256,360,101193,5,0,1:0:0:0:
256,252,101481,1,8,0:1:0:0:
256,240,101625,1,2,0:0:0:0:
256,228,101770,1,2,3:0:0:0:
256,216,101914,1,2,0:0:0:0:
256,204,102058,1,8,0:1:0:0:
256,192,102202,1,2,0:0:0:0:
256,180,102347,1,2,1:0:0:0:
380,32,102635,5,8,0:3:0:0:
372,44,102779,1,2,1:0:0:0:
132,32,103068,1,8,0:3:0:0:
140,44,103212,1,2,1:0:0:0:
256,192,103500,1,4,0:0:0:0:
256,192,117347,12,2,119077,0:0:0:0:
288,68,119654,70,0,B|312:31|312:31|356:22,1,88.5937472963334,8|0,1:3|1:0,0:0:0:0:
426,57,119942,2,0,B|446:96|446:96|429:138,1,88.5937472963334,4|4,0:3|0:3,0:0:0:0:
369,183,120231,2,0,B|324:180|324:180|295:146,1,88.5937472963334,8|4,1:3|0:3,0:0:0:0:
228,123,120519,2,0,B|204:86|204:86|158:78,1,88.5937472963334,8|0,1:3|1:0,0:0:0:0:
90,112,120807,2,0,B|69:151|69:151|86:195,1,88.5937472963334,4|4,0:3|0:3,0:0:0:0:
147,238,121096,2,0,B|191:235|191:235|220:200,1,88.5937472963334,8|4,1:3|0:3,0:0:0:0:
280,159,121385,2,0,B|304:122|304:122|350:114,1,88.5937472963334,8|0,1:3|1:0,0:0:0:0:
418,148,121673,2,0,B|438:187|438:187|422:231,1,88.5937472963334,4|4,0:3|0:3,0:0:0:0:
392,292,121962,5,4,1:2:0:0:
284,312,122250,1,8,0:1:0:0:
264,320,122395,1,2,0:0:0:0:
244,328,122539,1,0,3:0:0:0:
224,336,122683,1,2,0:0:0:0:
204,344,122827,1,8,0:1:0:0:
184,352,122972,1,2,0:0:0:0:
164,360,123116,2,0,B|148:312|148:312|124:288|124:288|108:236,1,135,2|8,0:1|0:1,0:0:0:0:
124,172,123549,2,0,B|162:149|182:188|201:229|241:205,1,135,2|2,3:1|3:3,0:0:0:0:
256,272,123981,2,0,P|304:236|296:164,1,135,10|0,0:1|1:0,0:0:0:0:
212,100,124558,5,8,0:1:0:0:
252,44,124702,2,0,B|286:15|312:51|337:88|373:58,1,135,0|0,1:1|3:1,0:0:0:0:
424,108,125135,1,8,0:1:0:0:
416,128,125279,1,2,0:0:0:0:
408,148,125424,1,2,1:0:0:0:
264,336,125892,1,2,1:0:0:0:
104,108,126289,1,2,1:0:0:0:
240,40,126577,5,0,1:0:0:0:
348,60,126866,1,8,0:1:0:0:
344,80,127010,1,2,0:0:0:0:
340,100,127154,1,0,3:0:0:0:
336,120,127299,1,2,0:0:0:0:
332,140,127443,1,8,0:1:0:0:
328,160,127587,1,2,0:0:0:0:
324,180,127731,2,0,L|453:222,1,135,2|8,0:1|0:1,0:0:0:0:
469,290,128164,2,0,P|432:349|369:363,1,135,2|2,3:1|3:0,0:0:0:0:
305,341,128597,2,0,P|264:291|271:225,1,135,10|0,0:1|1:0,0:0:0:0:
308,120,129174,6,0,L|380:140,2,67.5,8|2|0,0:1|0:0|3:0,0:0:0:0:
200,92,129750,1,8,0:1:0:0:
180,88,129895,1,2,0:0:0:0:
160,84,130039,2,0,B|92:73|92:73|46:123,1,135,2|8,0:1|0:1,0:0:0:0:
120,148,130472,2,0,B|143:211|143:211|210:227,1,135,2|2,3:1|3:0,0:0:0:0:
200,152,130904,2,0,B|241:100|241:100|222:35,1,135,10|4,0:1|1:2,0:0:0:0:
368,16,131481,5,8,0:1:0:0:
376,36,131625,1,2,0:0:0:0:
384,56,131770,1,0,3:0:0:0:
392,76,131914,1,2,0:0:0:0:
400,96,132058,1,8,0:1:0:0:
408,116,132202,1,2,0:0:0:0:
416,136,132347,2,0,B|433:186|433:186|411:204|411:204|428:255,1,135,2|8,0:1|0:1,0:0:0:0:
448,320,132779,2,0,P|388:272|332:296,1,135,2|2,3:1|3:0,0:0:0:0:
272,312,133212,2,0,P|332:360|388:336,1,135,10|0,0:1|1:0,0:0:0:0:
488,244,133789,5,8,0:1:0:0:
504,176,133933,2,0,P|444:128|388:152,1,135,0|0,1:0|1:0,0:0:0:0:
332,120,134366,1,8,0:1:0:0:
316,112,134510,1,2,0:0:0:0:
300,104,134654,1,2,1:0:0:0:
64,180,135123,1,2,1:0:0:0:
276,344,135520,1,2,1:0:0:0:
396,216,135808,6,0,P|456:168|448:116,1,135,0|8,1:0|0:1,0:0:0:0:
496,68,136241,2,0,B|479:50|457:37|434:47|411:57|389:45|373:27,1,135,0|0,3:0|3:0,0:0:0:0:
304,20,136674,1,8,0:1:0:0:
284,24,136818,1,2,0:0:0:0:
264,28,136962,2,0,L|232:160,1,135,2|8,0:1|0:1,0:0:0:0:
200,224,137395,2,0,L|101:130,1,135,2|2,3:1|3:0,0:0:0:0:
64,72,137827,2,0,L|194:33,1,135,10|0,0:1|1:1,0:0:0:0:
404,80,138404,1,0,1:0:0:0:
332,284,138693,1,0,1:0:0:0:
124,228,138981,1,0,1:0:0:0:
200,88,139270,102,0,P|234:56|284:56,1,84.375,0|0,1:0|1:0,0:0:0:0:
296,59,139558,2,0,P|328:94|332:136,1,84.375,8|8,1:3|1:3,0:0:0:0:
324,156,139847,2,0,P|290:188|248:192,1,84.375,8|8,0:3|0:3,0:0:0:0:
228,184,140135,2,0,P|196:150|192:108,1,84.375,12|12,0:3|0:3,0:0:0:0:
262,122,140424,5,4,1:2:0:0:
388,60,140712,1,8,0:1:0:0:
408,68,140856,1,2,0:0:0:0:
428,76,141000,1,0,3:0:0:0:
448,84,141145,1,2,0:0:0:0:
468,92,141289,1,8,0:1:0:0:
488,100,141433,1,2,0:0:0:0:
508,108,141577,2,0,L|468:240,1,135,2|8,0:1|0:1,0:0:0:0:
484,304,142010,2,0,B|461:311|435:310|421:289|406:269|381:268|358:275,1,135,2|2,3:1|3:0,0:0:0:0:
300,312,142443,1,10,0:1:0:0:
196,344,142731,6,0,P|140:308|148:248,1,135,0|8,1:0|0:1,0:0:0:0:
184,188,143164,2,0,B|144:166|144:166|100:161|100:161|61:135,1,135,0|0,1:0|1:0,0:0:0:0:
104,80,143597,1,8,0:1:0:0:
120,66,143741,1,2,0:0:0:0:
137,52,143885,2,0,P|184:3|251:15,1,135,2|8,1:1|0:1,0:0:0:0:
275,86,144318,2,0,P|227:134|160:123,1,135,2|2,1:1|3:0,0:0:0:0:
206,69,144750,1,2,1:0:0:0:
108,224,145039,5,0,1:0:0:0:
172,312,145327,1,8,0:1:0:0:
196,304,145472,1,2,0:0:0:0:
220,296,145616,1,0,3:0:0:0:
244,288,145760,1,2,0:0:0:0:
268,280,145904,1,8,0:1:0:0:
292,272,146049,1,2,0:0:0:0:
312,268,146193,2,0,B|332:256|357:250|376:267|395:284|420:279|440:267,1,135,2|8,3:1|3:1,0:0:0:0:
408,208,146625,2,0,P|388:140|432:88,1,135,2|2,3:1|3:0,0:0:0:0:
464,36,147058,2,0,L|328:68,1,135,2|0,0:1|1:0,0:0:0:0:
488,96,147635,5,8,0:1:0:0:
476,100,147779,2,0,L|340:132,1,135,0|0,1:0|1:0,0:0:0:0:
276,144,148212,1,8,0:1:0:0:
252,148,148356,1,2,0:0:0:0:
228,152,148500,1,2,1:0:0:0:
8,276,148969,1,2,1:0:0:0:
228,384,149366,1,2,1:0:0:0:
404,288,149654,5,4,1:2:0:0:
444,188,149943,1,8,0:1:0:0:
424,180,150087,1,2,0:0:0:0:
404,172,150231,1,0,3:0:0:0:
384,164,150375,1,2,0:0:0:0:
364,156,150520,1,8,0:1:0:0:
344,148,150664,1,2,0:0:0:0:
324,140,150808,2,0,B|259:117|259:117|219:62,1,135,2|8,0:1|0:1,0:0:0:0:
155,95,151241,2,0,B|173:159|173:159|151:224,1,135,2|2,3:1|3:0,0:0:0:0:
210,262,151674,2,0,P|276:261|317:209,1,135,10|0,0:1|1:0,0:0:0:0:
148,232,152250,5,8,0:1:0:0:
152,224,152395,2,0,P|85:225|44:276,1,135,0|0,1:1|1:0,0:0:0:0:
60,344,152827,1,8,0:1:0:0:
80,352,152972,1,2,0:0:0:0:
100,360,153116,1,2,1:0:0:0:
264,224,153404,1,0,1:0:0:0:
264,244,153549,1,2,1:0:0:0:
448,352,153837,1,0,1:0:0:0:
428,360,153981,1,2,1:0:0:0:
264,376,154270,5,0,1:0:0:0:
192,292,154558,1,8,0:1:0:0:
180,273,154702,1,2,0:0:0:0:
169,255,154847,1,0,3:0:0:0:
157,237,154991,1,2,0:0:0:0:
146,218,155135,1,8,0:1:0:0:
135,200,155279,1,2,0:0:0:0:
123,182,155424,2,0,B|168:158|168:158|187:130|187:130|236:105,1,135,2|8,0:1|0:1,0:0:0:0:
296,80,155856,2,0,P|360:112|364:172,1,135,2|2,3:1|3:0,0:0:0:0:
300,148,156289,1,2,0:1:0:0:
256,360,156577,101,0,1:0:0:0:
256,252,156866,1,8,0:1:0:0:
256,240,157010,1,2,0:0:0:0:
256,228,157154,1,2,3:0:0:0:
256,216,157299,1,2,0:0:0:0:
256,204,157443,1,8,0:1:0:0:
256,192,157587,1,2,0:0:0:0:
256,180,157731,1,2,1:0:0:0:
408,12,158020,5,8,0:3:0:0:
400,24,158164,1,2,1:0:0:0:
100,12,158452,1,8,0:3:0:0:
108,24,158597,1,2,1:0:0:0:
256,252,158885,5,4,0:0:0:0:
196,344,159174,1,2,0:0:0:0:
84,344,159462,1,0,0:0:0:0:
32,248,159750,1,2,0:0:0:0:
32,136,160039,2,0,P|92:64|192:80,2,202.5,2|0|2,0:0|0:0|0:0,0:0:0:0:
128,192,161193,5,0,0:0:0:0:
228,236,161481,1,2,0:0:0:0:
300,148,161770,1,0,0:0:0:0:
400,192,162058,1,2,0:0:0:0:
496,248,162347,2,0,P|436:320|336:304,2,202.5,2|2|2,0:0|0:0|0:0,0:0:0:0:
496,136,163500,5,0,0:0:0:0:
436,44,163789,1,2,0:0:0:0:
324,44,164077,1,0,0:0:0:0:
264,136,164366,1,2,0:0:0:0:
264,248,164654,1,2,0:0:0:0:
264,264,165087,1,0,0:0:0:0:
264,280,165520,1,2,0:0:0:0:
148,140,166097,5,2,0:0:0:0:
204,44,166385,1,0,0:0:0:0:
92,44,166674,1,2,0:0:0:0:
36,140,166962,1,2,0:0:0:0:
264,192,167395,1,2,0:0:0:0:
492,244,167827,1,2,0:0:0:0:
420,328,168116,5,0,0:0:0:0:
320,276,168404,1,2,0:0:0:0:
208,276,168693,1,0,0:0:0:0:
108,328,168981,1,2,0:0:0:0:
120,220,169270,1,2,0:0:0:0:
264,140,169702,1,0,0:0:0:0:
408,220,170135,1,2,0:0:0:0:
264,52,170712,5,2,0:0:0:0:
208,148,171000,1,0,0:0:0:0:
320,148,171289,1,2,0:0:0:0:
380,240,171577,1,2,0:0:0:0:
264,360,172046,1,2,0:0:0:0:
148,240,172443,1,2,0:0:0:0:
92,144,172731,5,0,0:0:0:0:
152,52,173020,1,2,0:0:0:0:
260,24,173308,1,0,0:0:0:0:
376,52,173597,1,2,0:0:0:0:
436,144,173885,2,0,P|456:216|436:272,1,135,2|0,0:0|0:0,0:0:0:0:
404,332,174318,2,0,B|336:332|336:332|284:308|284:308|204:308,1,202.5,0|2,0:0|0:0,0:0:0:0:
156,208,175039,5,0,0:0:0:0:
208,112,175327,1,2,0:0:0:0:
320,112,175616,1,0,0:0:0:0:
372,208,175904,1,2,0:0:0:0:
352,316,176192,2,0,B|300:332|240:272|272:272|216:332|160:316,2,202.5,2|0|4,0:0|0:0|0:0,0:0:0:0:
