osu file format v14

[General]
AudioFilename: audio.mp3
AudioLeadIn: 0
PreviewTime: -1
Countdown: 0
SampleSet: None
StackLeniency: 0.7
Mode: 3
LetterboxInBreaks: 0
SpecialStyle: 0
WidescreenStoryboard: 0

[Editor]
DistanceSpacing: 1.2
BeatDivisor: 4
GridSize: 4
TimelineZoom: 1

[Metadata]
Title:Speed_of_Link_Piano_Arrangement
TitleUnicode:Speed_of_Link_Piano_Arrangement
Artist:MIDI Stuff
ArtistUnicode:MIDI Stuff
Creator:[ Reversal ] la
Version:KS4-10K
Source:
Tags:
BeatmapID:1424541
BeatmapSetID:672965

[Difficulty]
HPDrainRate:8
CircleSize:10
OverallDifficulty:7
ApproachRate:5
SliderMultiplier:1.4
SliderTickRate:1

[Events]
//Background and Video events
0,0,"Piano.jpg",0,0
//Break Periods
//Storyboard Layer 0 (Background)
//Storyboard Layer 1 (Fail)
//Storyboard Layer 2 (Pass)
//Storyboard Layer 3 (Foreground)
//Storyboard Sound Samples
Sample,111520,0,"F#3S_Gb3S_s.wav",99
Sample,111520,0,"A5S_s.wav",99
Sample,114575,0,"C#3S_Db3S_s.wav",99
Sample,114575,0,"A5S_s.wav",99
Sample,114687,0,"C#3S_Db3S_s.wav",99
Sample,114687,0,"C#6S_Db6S_s.wav",99
Sample,114799,0,"C#3S_Db3S_s.wav",99
Sample,114799,0,"A5S_s.wav",99
Sample,115023,0,"C#3S_Db3S_s.wav",99
Sample,115135,0,"C#3S_Db3S_s.wav",99
Sample,115247,0,"C#3S_Db3S_s.wav",99
Sample,115471,0,"C#3S_Db3S_s.wav",99
Sample,115471,0,"F#5S_Gb5S_s.wav",99
Sample,115585,0,"C#3S_Db3S_s.wav",99
Sample,115585,0,"C#6S_Db6S_s.wav",99
Sample,115698,0,"C#3S_Db3S_s.wav",99
Sample,115698,0,"F#5S_Gb5S_s.wav",99
Sample,115926,0,"C#3S_Db3S_s.wav",99
Sample,115926,0,"F#5S_Gb5S_s.wav",99
Sample,116039,0,"C#3S_Db3S_s.wav",99
Sample,116039,0,"C#6S_Db6S_s.wav",99
Sample,116153,0,"C#3S_Db3S_s.wav",99
Sample,116153,0,"F#5S_Gb5S_s.wav",99
Sample,116380,0,"A2S_s.wav",99
Sample,116380,0,"A5S_s.wav",99
Sample,116495,0,"A2S_s.wav",99
Sample,116495,0,"C#6S_Db6S_s.wav",99
Sample,116611,0,"A2S_s.wav",99
Sample,116611,0,"A5S_s.wav",99
Sample,116842,0,"A2S_s.wav",99
Sample,116957,0,"A2S_s.wav",99
Sample,117072,0,"A2S_s.wav",99
Sample,117303,0,"A2S_s.wav",99
Sample,117303,0,"F#5S_Gb5S_s.wav",99
Sample,117420,0,"A2S_s.wav",99
Sample,117420,0,"C#6S_Db6S_s.wav",99
Sample,117537,0,"A2S_s.wav",99
Sample,117537,0,"F#5S_Gb5S_s.wav",99
Sample,117772,0,"A2S_s.wav",99
Sample,117772,0,"F#5S_Gb5S_s.wav",99
Sample,117889,0,"A2S_s.wav",99
Sample,117889,0,"C#6S_Db6S_s.wav",99
Sample,118006,0,"A2S_s.wav",99
Sample,118006,0,"F#5S_Gb5S_s.wav",99
Sample,118717,0,"F#3S_Gb3S_s.wav",99
Sample,118717,0,"A5S_s.wav",99
Sample,122192,0,"F#3S_Gb3S_s.wav",99
Sample,122192,0,"A5S_s.wav",99
Sample,122320,0,"F#3S_Gb3S_s.wav",99
Sample,122320,0,"C#6S_Db6S_s.wav",99
Sample,122447,0,"F#3S_Gb3S_s.wav",99
Sample,122447,0,"A5S_s.wav",99
Sample,122703,0,"F#3S_Gb3S_s.wav",99
Sample,122830,0,"F#3S_Gb3S_s.wav",99
Sample,122958,0,"F#3S_Gb3S_s.wav",99
Sample,123213,0,"F#3S_Gb3S_s.wav",99
Sample,123213,0,"F#5S_Gb5S_s.wav",99
Sample,123342,0,"F#3S_Gb3S_s.wav",99
Sample,123342,0,"C#6S_Db6S_s.wav",99
Sample,123472,0,"F#3S_Gb3S_s.wav",99
Sample,123472,0,"F#5S_Gb5S_s.wav",99
Sample,123730,0,"F#3S_Gb3S_s.wav",99
Sample,123730,0,"F#5S_Gb5S_s.wav",99
Sample,123860,0,"F#3S_Gb3S_s.wav",99
Sample,123860,0,"C#6S_Db6S_s.wav",99
Sample,123989,0,"F#3S_Gb3S_s.wav",99
Sample,123989,0,"F#5S_Gb5S_s.wav",99
Sample,124247,0,"F#3S_Gb3S_s.wav",99
Sample,124247,0,"A5S_s.wav",99
Sample,124379,0,"F#3S_Gb3S_s.wav",99
Sample,124379,0,"C#6S_Db6S_s.wav",99
Sample,124510,0,"F#3S_Gb3S_s.wav",99
Sample,124510,0,"A5S_s.wav",99
Sample,124773,0,"F#3S_Gb3S_s.wav",99
Sample,124773,0,"A5S_s.wav",99
Sample,124905,0,"F#3S_Gb3S_s.wav",99
Sample,124905,0,"C#6S_Db6S_s.wav",99
Sample,125036,0,"F#3S_Gb3S_s.wav",99
Sample,125036,0,"A5S_s.wav",99
Sample,125300,0,"F#3S_Gb3S_s.wav",99
Sample,125300,0,"F#5S_Gb5S_s.wav",99
Sample,125434,0,"F#3S_Gb3S_s.wav",99
Sample,125434,0,"C#6S_Db6S_s.wav",99
Sample,125568,0,"F#3S_Gb3S_s.wav",99
Sample,125568,0,"F#5S_Gb5S_s.wav",99
Sample,125836,0,"F#3S_Gb3S_s.wav",99
Sample,125836,0,"F#5S_Gb5S_s.wav",99
Sample,125970,0,"F#3S_Gb3S_s.wav",99
Sample,125970,0,"C#6S_Db6S_s.wav",99
Sample,126104,0,"F#3S_Gb3S_s.wav",99
Sample,126104,0,"F#5S_Gb5S_s.wav",99

[TimingPoints]
0,229.007,4,1,1,100,1,0
81526,227.273,4,1,1,100,1,0
81981,222.222,4,1,1,100,1,0
82425,217.391,4,1,1,100,1,0
82860,214.286,4,1,1,100,1,0
84146,210.526,4,1,1,100,1,0
90883,210.526,4,1,1,100,1,0
111093,213.523,4,1,1,100,1,0
111947,216.606,4,1,1,100,1,0
112813,218.978,4,1,1,100,1,0
113689,221.402,4,1,1,100,1,0
114575,223.88,4,1,1,100,1,0
115471,227.273,4,1,1,100,1,0
116380,230.769,4,1,1,100,1,0
117303,234.375,4,1,1,100,1,0
118241,238.095,4,1,1,100,1,0
119193,242.915,4,1,1,100,1,0
120165,246.914,4,1,1,100,1,0
121153,259.74,4,1,1,100,1,0
122192,255.319,4,1,1,100,1,0
123213,258.62,4,1,1,100,1,0
124247,263.158,4,1,1,100,1,0
125300,267.857,4,1,1,100,1,0
126371,272.727,4,1,1,100,1,0

[HitObjects]
112,192,0,5,0,0:0:0:62:E3S_s.wav
469,192,0,1,0,0:0:0:62:E5S.wav
316,192,115,1,0,0:0:0:62:E4S_s.wav
61,192,229,1,0,0:0:0:62:E3S_s.wav
265,192,344,1,0,0:0:0:62:E4S_s.wav
163,192,458,1,0,0:0:0:62:E3S_s.wav
367,192,573,1,0,0:0:0:62:E4S_s.wav
214,192,687,1,0,0:0:0:62:E3S_s.wav
418,192,687,1,0,0:0:0:62:F#5S_Gb5S_s.wav
10,192,802,1,0,0:0:0:62:E4S_s.wav
469,192,802,1,0,0:0:0:62:G5S_s.wav
112,192,916,1,0,0:0:0:62:E3S_s.wav
316,192,916,1,0,0:0:0:62:A5S_s.wav
61,192,1031,1,0,0:0:0:62:E4S_s.wav
163,192,1145,1,0,0:0:0:62:E3S_s.wav
265,192,1145,1,0,0:0:0:62:G5S_s.wav
214,192,1260,1,0,0:0:0:62:E4S_s.wav
367,192,1260,1,0,0:0:0:62:F#5S_Gb5S_s.wav
418,192,1374,1,0,0:0:0:62:E3S_s.wav
10,192,1489,1,0,0:0:0:62:E4S_s.wav
469,192,1489,1,0,0:0:0:62:G5S_s.wav
112,192,1603,1,0,0:0:0:62:E3S_s.wav
316,192,1603,1,0,0:0:0:62:E5S_s.wav
61,192,1718,1,0,0:0:0:62:E4S_s.wav
163,192,1832,1,0,0:0:0:62:D3S_s.wav
265,192,1832,1,0,0:0:0:62:D5S.wav
367,192,1947,1,0,0:0:0:62:D4S_s.wav
214,192,2061,1,0,0:0:0:62:D3S_s.wav
418,192,2176,1,0,0:0:0:62:D4S_s.wav
10,192,2290,1,0,0:0:0:62:D3S_s.wav
469,192,2405,1,0,0:0:0:62:D4S_s.wav
112,192,2519,1,0,0:0:0:62:D3S_s.wav
316,192,2519,1,0,0:0:0:62:E5S_s.wav
61,192,2634,1,0,0:0:0:62:D4S_s.wav
265,192,2634,1,0,0:0:0:62:F#5S_Gb5S_s.wav
163,192,2748,1,0,0:0:0:62:D3S_s.wav
367,192,2748,1,0,0:0:0:62:C5S.wav
214,192,2863,1,0,0:0:0:62:D4S_s.wav
418,192,2977,1,0,0:0:0:62:D3S_s.wav
10,192,3092,1,0,0:0:0:62:D4S_s.wav
469,192,3206,1,0,0:0:0:62:D3S_s.wav
112,192,3321,1,0,0:0:0:62:D4S_s.wav
61,192,3435,1,0,0:0:0:62:D3S_s.wav
316,192,3435,1,0,0:0:0:62:D5S_s.wav
163,192,3550,1,0,0:0:0:62:D4S_s.wav
265,192,3550,1,0,0:0:0:62:E5S_s.wav
214,192,3664,1,0,0:0:0:62:A2S_s.wav
367,192,3664,1,0,0:0:0:62:A4S.wav
418,192,3779,1,0,0:0:0:62:A3S_s.wav
10,192,3893,1,0,0:0:0:62:A2S_s.wav
469,192,4008,1,0,0:0:0:62:A3S_s.wav
112,192,4122,1,0,0:0:0:62:A2S_s.wav
61,192,4237,1,0,0:0:0:62:A3S_s.wav
316,192,4237,1,0,0:0:0:62:E5S_s.wav
265,192,4351,1,0,0:0:0:62:A2S_s.wav
163,192,4466,1,0,0:0:0:62:A3S_s.wav
367,192,4466,1,0,0:0:0:62:F#5S_Gb5S_s.wav
214,192,4580,1,0,0:0:0:62:A2S_s.wav
418,192,4580,1,0,0:0:0:62:G5S_s.wav
10,192,4695,1,0,0:0:0:62:A3S_s.wav
469,192,4695,1,0,0:0:0:62:F#5S_Gb5S_s.wav
112,192,4809,1,0,0:0:0:62:A2S_s.wav
316,192,4809,1,0,0:0:0:62:E5S_s.wav
61,192,4924,1,0,0:0:0:62:A3S_s.wav
265,192,4924,1,0,0:0:0:62:C6S_s.wav
163,192,5038,1,0,0:0:0:62:A2S_s.wav
214,192,5153,1,0,0:0:0:62:A3S_s.wav
367,192,5153,1,0,0:0:0:62:B5S_s.wav
10,192,5267,1,0,0:0:0:62:A2S_s.wav
418,192,5267,1,0,0:0:0:62:A5S_s.wav
469,192,5382,1,0,0:0:0:62:A3S_s.wav
112,192,5496,1,0,0:0:0:62:C3S_s.wav
316,192,5496,1,0,0:0:0:62:C5S_s.wav
61,192,5611,1,0,0:0:0:62:C4S_s.wav
163,192,5725,1,0,0:0:0:62:C3S_s.wav
265,192,5725,1,0,0:0:0:62:D5S_s.wav
214,192,5840,1,0,0:0:0:62:C4S_s.wav
367,192,5840,1,0,0:0:0:62:E5S_s.wav
418,192,5954,1,0,0:0:0:62:C3S_s.wav
10,192,6069,1,0,0:0:0:62:C4S_s.wav
469,192,6069,1,0,0:0:0:62:F#5S_Gb5S_s.wav
112,192,6183,1,0,0:0:0:62:C3S_s.wav
316,192,6183,1,0,0:0:0:62:G5S_s.wav
61,192,6298,1,0,0:0:0:62:C4S_s.wav
265,192,6298,1,0,0:0:0:62:E5S_s.wav
163,192,6412,1,0,0:0:0:62:D3S_s.wav
367,192,6412,1,0,0:0:0:62:C6S_s.wav
214,192,6527,1,0,0:0:0:62:D4S_s.wav
418,192,6527,1,0,0:0:0:62:B5S_s.wav
10,192,6641,1,0,0:0:0:62:D3S_s.wav
469,192,6641,1,0,0:0:0:62:A5S_s.wav
112,192,6756,1,0,0:0:0:62:D4S_s.wav
316,192,6756,1,0,0:0:0:62:G5S_s.wav
61,192,6870,1,0,0:0:0:62:D3S_s.wav
265,192,6870,1,0,0:0:0:62:D5S_s.wav
163,192,6985,1,0,0:0:0:62:D4S_s.wav
367,192,6985,1,0,0:0:0:62:E5S_s.wav
214,192,7099,1,0,0:0:0:62:D3S_s.wav
418,192,7099,1,0,0:0:0:62:F#5S_Gb5S_s.wav
10,192,7214,1,0,0:0:0:62:D4S_s.wav
469,192,7214,1,0,0:0:0:62:D6S_s.wav
61,192,7328,1,0,0:0:0:62:E3S_s.wav
112,192,7328,1,0,0:0:0:62:E5S.wav
316,192,7328,1,0,0:0:0:75:B5S_s.wav
163,192,7443,1,0,0:0:0:62:E4S_s.wav
265,192,7443,1,0,0:0:0:75:E6S_s.wav
214,192,7557,1,0,0:0:0:62:E3S_s.wav
367,192,7557,1,0,0:0:0:75:G6S_s.wav
10,192,7672,1,0,0:0:0:62:E4S_s.wav
418,192,7672,1,0,0:0:0:75:E6S_s.wav
61,192,7786,1,0,0:0:0:62:E3S_s.wav
469,192,7786,1,0,0:0:0:75:G6S_s.wav
112,192,7901,1,0,0:0:0:62:E4S_s.wav
316,192,7901,1,0,0:0:0:75:E7S_s.wav
163,192,8015,1,0,0:0:0:62:E3S_s.wav
265,192,8015,1,0,0:0:0:62:F#5S_Gb5S_s.wav
367,192,8015,1,0,0:0:0:75:G7S_s.wav
10,192,8130,1,0,0:0:0:62:E4S_s.wav
214,192,8130,1,0,0:0:0:62:G5S_s.wav
418,192,8130,1,0,0:0:0:75:E7S_s.wav
61,192,8244,1,0,0:0:0:62:E3S_s.wav
316,192,8244,1,0,0:0:0:62:A5S_s.wav
469,192,8244,1,0,0:0:0:75:B5S_s.wav
112,192,8359,1,0,0:0:0:62:E4S_s.wav
265,192,8359,1,0,0:0:0:75:E6S_s.wav
10,192,8473,1,0,0:0:0:62:E3S_s.wav
163,192,8473,1,0,0:0:0:62:G5S_s.wav
367,192,8473,1,0,0:0:0:75:F#6S_Gb6S_s.wav
214,192,8588,1,0,0:0:0:62:E4S_s.wav
316,192,8588,1,0,0:0:0:62:F#5S_Gb5S_s.wav
418,192,8588,1,0,0:0:0:75:E6S_s.wav
61,192,8702,1,0,0:0:0:62:E3S_s.wav
469,192,8702,1,0,0:0:0:75:B6S_s.wav
112,192,8817,1,0,0:0:0:62:E4S_s.wav
163,192,8817,1,0,0:0:0:62:G5S_s.wav
265,192,8817,1,0,0:0:0:75:E7S_s.wav
10,192,8931,1,0,0:0:0:62:E3S_s.wav
316,192,8931,1,0,0:0:0:62:E5S_s.wav
367,192,8931,1,0,0:0:0:75:F#7S_Gb7S_s.wav
214,192,9046,1,0,0:0:0:62:E4S_s.wav
418,192,9046,1,0,0:0:0:75:E7S_s.wav
61,192,9160,1,0,0:0:0:62:D3S_s.wav
163,192,9160,1,0,0:0:0:62:D5S.wav
469,192,9160,1,0,0:0:0:75:A5S_s.wav
112,192,9275,1,0,0:0:0:62:D4S_s.wav
265,192,9275,1,0,0:0:0:75:E6S_s.wav
10,192,9389,1,0,0:0:0:62:D3S_s.wav
316,192,9389,1,0,0:0:0:75:F#6S_Gb6S_s.wav
214,192,9504,1,0,0:0:0:62:D4S_s.wav
367,192,9504,1,0,0:0:0:75:E6S_s.wav
163,192,9618,1,0,0:0:0:62:D3S_s.wav
418,192,9618,1,0,0:0:0:75:B6S_s.wav
61,192,9733,1,0,0:0:0:62:D4S_s.wav
469,192,9733,1,0,0:0:0:75:E7S_s.wav
112,192,9847,1,0,0:0:0:62:D3S_s.wav
265,192,9847,1,0,0:0:0:62:E5S_s.wav
316,192,9847,1,0,0:0:0:75:F#7S_Gb7S_s.wav
10,192,9962,1,0,0:0:0:62:D4S_s.wav
214,192,9962,1,0,0:0:0:62:F#5S_Gb5S_s.wav
367,192,9962,1,0,0:0:0:75:E7S_s.wav
163,192,10076,1,0,0:0:0:62:D3S_s.wav
418,192,10076,1,0,0:0:0:62:C5S.wav
469,192,10076,1,0,0:0:0:75:G5S_s.wav
61,192,10191,1,0,0:0:0:62:D4S_s.wav
265,192,10191,1,0,0:0:0:75:D6S_s.wav
112,192,10305,1,0,0:0:0:62:D3S_s.wav
316,192,10305,1,0,0:0:0:75:F#6S_Gb6S_s.wav
214,192,10420,1,0,0:0:0:62:D4S_s.wav
367,192,10420,1,0,0:0:0:75:D6S_s.wav
10,192,10534,1,0,0:0:0:62:D3S_s.wav
418,192,10534,1,0,0:0:0:75:B6S_s.wav
163,192,10649,1,0,0:0:0:62:D4S_s.wav
469,192,10649,1,0,0:0:0:75:E7S_s.wav
61,192,10763,1,0,0:0:0:62:D3S_s.wav
112,192,10763,1,0,0:0:0:62:D5S_s.wav
265,192,10763,1,0,0:0:0:75:F#7S_Gb7S_s.wav
214,192,10878,1,0,0:0:0:62:D4S_s.wav
316,192,10878,1,0,0:0:0:62:E5S_s.wav
367,192,10878,1,0,0:0:0:75:E7S_s.wav
10,192,10992,1,0,0:0:0:62:A2S_s.wav
163,192,10992,1,0,0:0:0:62:A4S.wav
418,192,10992,1,0,0:0:0:75:C6S_s.wav
112,192,11107,1,0,0:0:0:62:A3S_s.wav
469,192,11107,1,0,0:0:0:75:E6S_s.wav
61,192,11221,1,0,0:0:0:62:A2S_s.wav
265,192,11221,1,0,0:0:0:75:G6S_s.wav
214,192,11336,1,0,0:0:0:62:A3S_s.wav
367,192,11336,1,0,0:0:0:75:E6S_s.wav
163,192,11450,1,0,0:0:0:62:A2S_s.wav
316,192,11450,1,0,0:0:0:75:G6S_s.wav
10,192,11565,1,0,0:0:0:62:A3S_s.wav
418,192,11565,1,0,0:0:0:75:E7S_s.wav
112,192,11679,1,0,0:0:0:62:A2S_s.wav
265,192,11679,1,0,0:0:0:62:E5S_s.wav
469,192,11679,1,0,0:0:0:75:G7S_s.wav
61,192,11794,1,0,0:0:0:62:A3S_s.wav
214,192,11794,1,0,0:0:0:62:F#5S_Gb5S_s.wav
367,192,11794,1,0,0:0:0:75:E7S_s.wav
163,192,11908,1,0,0:0:0:62:A2S_s.wav
316,192,11908,1,0,0:0:0:75:G5S_s.wav
418,192,11908,1,0,0:0:0:62:G5S_s.wav
10,192,12023,1,0,0:0:0:62:A3S_s.wav
112,192,12023,1,0,0:0:0:62:F#5S_Gb5S_s.wav
265,192,12023,1,0,0:0:0:75:E6S_s.wav
61,192,12137,1,0,0:0:0:62:A2S_s.wav
367,192,12137,1,0,0:0:0:62:E5S_s.wav
469,192,12137,1,0,0:0:0:75:F#6S_Gb6S_s.wav
163,192,12252,1,0,0:0:0:62:A3S_s.wav
214,192,12252,1,0,0:0:0:62:C6S_s.wav
316,192,12252,1,0,0:0:0:75:E6S_s.wav
112,192,12366,1,0,0:0:0:62:A2S_s.wav
418,192,12366,1,0,0:0:0:75:B6S_s.wav
10,192,12481,1,0,0:0:0:62:A3S_s.wav
265,192,12481,1,0,0:0:0:62:B5S_s.wav
469,192,12481,1,0,0:0:0:75:E7S_s.wav
61,192,12595,1,0,0:0:0:62:A2S_s.wav
163,192,12595,1,0,0:0:0:62:A5S_s.wav
367,192,12595,1,0,0:0:0:75:F#7S_Gb7S_s.wav
214,192,12710,1,0,0:0:0:62:A3S_s.wav
316,192,12710,1,0,0:0:0:75:E7S_s.wav
112,192,12824,1,0,0:0:0:62:C3S_s.wav
418,192,12824,1,0,0:0:0:62:C5S_s.wav
469,192,12824,1,0,0:0:0:75:C6S_s.wav
10,192,12939,1,0,0:0:0:62:C4S_s.wav
265,192,12939,1,0,0:0:0:75:E6S_s.wav
61,192,13053,1,0,0:0:0:62:C3S_s.wav
163,192,13053,1,0,0:0:0:62:D5S_s.wav
367,192,13053,1,0,0:0:0:75:G6S_s.wav
214,192,13168,1,0,0:0:0:62:C4S_s.wav
316,192,13168,1,0,0:0:0:62:E5S_s.wav
469,192,13168,1,0,0:0:0:75:E6S_s.wav
112,192,13282,1,0,0:0:0:62:C3S_s.wav
418,192,13282,1,0,0:0:0:75:G6S_s.wav
10,192,13397,1,0,0:0:0:62:C4S_s.wav
61,192,13397,1,0,0:0:0:62:F#5S_Gb5S_s.wav
265,192,13397,1,0,0:0:0:75:E7S_s.wav
163,192,13511,1,0,0:0:0:62:C3S_s.wav
367,192,13511,1,0,0:0:0:62:G5S_s.wav
469,192,13511,1,0,0:0:0:75:G7S_s.wav
112,192,13626,1,0,0:0:0:62:C4S_s.wav
214,192,13626,1,0,0:0:0:62:E5S_s.wav
316,192,13626,1,0,0:0:0:75:E7S_s.wav
10,192,13740,1,0,0:0:0:62:D3S_s.wav
265,192,13740,1,0,0:0:0:75:A5S_s.wav
418,192,13740,1,0,0:0:0:62:C6S_s.wav
61,192,13855,1,0,0:0:0:66:D4S_s.wav
163,192,13855,1,0,0:0:0:66:B5S_s.wav
469,192,13855,1,0,0:0:0:77:E6S_s.wav
214,192,13969,1,0,0:0:0:71:D3S_s.wav
316,192,13969,1,0,0:0:0:71:A5S_s.wav
367,192,13969,1,0,0:0:0:78:F#6S_Gb6S_s.wav
10,192,14084,1,0,0:0:0:76:D4S_s.wav
112,192,14084,1,0,0:0:0:76:G5S_s.wav
418,192,14084,1,0,0:0:0:80:E6S_s.wav
163,192,14198,1,0,0:0:0:81:D3S_s.wav
265,192,14198,1,0,0:0:0:81:D5S_s.wav
469,192,14198,1,0,0:0:0:81:B6S_s.wav
61,192,14313,1,0,0:0:0:85:D4S_s.wav
214,192,14313,1,0,0:0:0:85:E5S_s.wav
367,192,14313,1,0,0:0:0:83:E7S_s.wav
10,192,14427,1,0,0:0:0:89:D3S_s.wav
316,192,14427,1,0,0:0:0:89:F#5S_Gb5S_s.wav
418,192,14427,1,0,0:0:0:85:F#7S_Gb7S_s.wav
112,192,14542,1,0,0:0:0:94:D4S_s.wav
163,192,14542,1,0,0:0:0:94:D6S_s.wav
469,192,14542,1,0,0:0:0:86:E7S_s.wav
61,192,14656,1,0,0:0:0:99:E3S_s.wav
265,192,14656,1,0,0:0:0:99:E5S.wav
367,192,14656,1,0,0:0:0:88:B5S_s.wav
214,192,14714,1,0,0:0:0:88:E6S_s.wav
10,192,14771,1,0,0:0:0:99:E4S_s.wav
418,192,14771,1,0,0:0:0:88:G6S_s.wav
316,192,14828,1,0,0:0:0:88:E6S_s.wav
112,192,14885,1,0,0:0:0:99:E3S_s.wav
469,192,14885,1,0,0:0:0:88:G6S_s.wav
163,192,14943,1,0,0:0:0:88:E7S_s.wav
61,192,15000,1,0,0:0:0:99:E4S_s.wav
367,192,15000,1,0,0:0:0:88:G7S_s.wav
265,192,15057,1,0,0:0:0:88:E7S_s.wav
214,192,15114,1,0,0:0:0:99:E3S_s.wav
418,192,15114,1,0,0:0:0:88:B5S_s.wav
10,192,15172,1,0,0:0:0:88:E6S_s.wav
112,192,15229,1,0,0:0:0:99:E4S_s.wav
316,192,15229,1,0,0:0:0:88:G6S_s.wav
469,192,15286,1,0,0:0:0:88:E6S_s.wav
61,192,15343,1,0,0:0:0:99:E3S_s.wav
163,192,15343,1,0,0:0:0:99:F#5S_Gb5S_s.wav
367,192,15343,1,0,0:0:0:88:G6S_s.wav
265,192,15401,1,0,0:0:0:88:E7S_s.wav
10,192,15458,1,0,0:0:0:99:E4S_s.wav
214,192,15458,1,0,0:0:0:99:G5S_s.wav
418,192,15458,1,0,0:0:0:88:G7S_s.wav
316,192,15515,1,0,0:0:0:88:E7S_s.wav
112,192,15572,1,0,0:0:0:99:E3S_s.wav
163,192,15572,1,0,0:0:0:99:A5S_s.wav
469,192,15572,1,0,0:0:0:88:B5S_s.wav
367,192,15630,1,0,0:0:0:88:E6S_s.wav
61,192,15687,1,0,0:0:0:99:E4S_s.wav
265,192,15687,1,0,0:0:0:88:F#6S_Gb6S_s.wav
10,192,15744,1,0,0:0:0:88:E6S_s.wav
214,192,15801,1,0,0:0:0:99:E3S_s.wav
316,192,15801,1,0,0:0:0:99:G5S_s.wav
418,192,15801,1,0,0:0:0:88:B6S_s.wav
163,192,15859,1,0,0:0:0:88:E7S_s.wav
112,192,15916,1,0,0:0:0:99:E4S_s.wav
367,192,15916,1,0,0:0:0:99:F#5S_Gb5S_s.wav
469,192,15916,1,0,0:0:0:88:F#7S_Gb7S_s.wav
61,192,15973,1,0,0:0:0:88:E7S_s.wav
10,192,16030,1,0,0:0:0:99:E3S_s.wav
265,192,16030,1,0,0:0:0:88:B5S_s.wav
418,192,16088,1,0,0:0:0:88:E6S_s.wav
163,192,16145,1,0,0:0:0:99:E4S_s.wav
214,192,16145,1,0,0:0:0:99:G5S_s.wav
316,192,16145,1,0,0:0:0:88:F#6S_Gb6S_s.wav
367,192,16202,1,0,0:0:0:88:E6S_s.wav
61,192,16259,1,0,0:0:0:99:E3S_s.wav
112,192,16259,1,0,0:0:0:99:E5S_s.wav
469,192,16259,1,0,0:0:0:88:B6S_s.wav
265,192,16317,1,0,0:0:0:88:E7S_s.wav
10,192,16374,1,0,0:0:0:99:E4S_s.wav
418,192,16374,1,0,0:0:0:88:F#7S_Gb7S_s.wav
163,192,16431,1,0,0:0:0:88:E7S_s.wav
214,192,16489,1,0,0:0:0:99:D3S_s.wav
316,192,16489,1,0,0:0:0:99:D5S.wav
367,192,16489,1,0,0:0:0:88:A5S_s.wav
112,192,16546,1,0,0:0:0:88:E6S_s.wav
61,192,16603,1,0,0:0:0:99:D4S_s.wav
469,192,16603,1,0,0:0:0:88:F#6S_Gb6S_s.wav
265,192,16660,1,0,0:0:0:88:E6S_s.wav
10,192,16718,1,0,0:0:0:99:D3S_s.wav
418,192,16718,1,0,0:0:0:88:B6S_s.wav
163,192,16775,1,0,0:0:0:88:E7S_s.wav
214,192,16832,1,0,0:0:0:99:D4S_s.wav
367,192,16832,1,0,0:0:0:88:F#7S_Gb7S_s.wav
316,192,16889,1,0,0:0:0:88:E7S_s.wav
112,192,16947,1,0,0:0:0:99:D3S_s.wav
469,192,16947,1,0,0:0:0:88:A5S_s.wav
61,192,17004,1,0,0:0:0:88:E6S_s.wav
10,192,17061,1,0,0:0:0:99:D4S_s.wav
265,192,17061,1,0,0:0:0:88:F#6S_Gb6S_s.wav
418,192,17118,1,0,0:0:0:88:E6S_s.wav
163,192,17176,1,0,0:0:0:99:D3S_s.wav
214,192,17176,1,0,0:0:0:99:E5S_s.wav
367,192,17176,1,0,0:0:0:88:B6S_s.wav
316,192,17233,1,0,0:0:0:88:E7S_s.wav
61,192,17290,1,0,0:0:0:99:D4S_s.wav
112,192,17290,1,0,0:0:0:99:F#5S_Gb5S_s.wav
469,192,17290,1,0,0:0:0:88:F#7S_Gb7S_s.wav
265,192,17347,1,0,0:0:0:88:E7S_s.wav
10,192,17405,1,0,0:0:0:99:D3S_s.wav
214,192,17405,1,0,0:0:0:99:C5S.wav
418,192,17405,1,0,0:0:0:88:G5S_s.wav
367,192,17462,1,0,0:0:0:88:D6S_s.wav
163,192,17519,1,0,0:0:0:99:D4S_s.wav
316,192,17519,1,0,0:0:0:88:F#6S_Gb6S_s.wav
112,192,17576,1,0,0:0:0:88:D6S_s.wav
61,192,17634,1,0,0:0:0:99:D3S_s.wav
469,192,17634,1,0,0:0:0:88:B6S_s.wav
265,192,17691,1,0,0:0:0:88:E7S_s.wav
214,192,17748,1,0,0:0:0:99:D4S_s.wav
418,192,17748,1,0,0:0:0:88:F#7S_Gb7S_s.wav
10,192,17805,1,0,0:0:0:88:E7S_s.wav
163,192,17863,1,0,0:0:0:99:D3S_s.wav
367,192,17863,1,0,0:0:0:88:G5S_s.wav
316,192,17920,1,0,0:0:0:88:D6S_s.wav
112,192,17977,1,0,0:0:0:99:D4S_s.wav
469,192,17977,1,0,0:0:0:88:F#6S_Gb6S_s.wav
61,192,18034,1,0,0:0:0:88:D6S_s.wav
214,192,18092,1,0,0:0:0:99:D3S_s.wav
265,192,18092,1,0,0:0:0:99:D5S_s.wav
418,192,18092,1,0,0:0:0:88:B6S_s.wav
10,192,18149,1,0,0:0:0:88:E7S_s.wav
163,192,18206,1,0,0:0:0:99:D4S_s.wav
316,192,18206,1,0,0:0:0:99:E5S_s.wav
367,192,18206,1,0,0:0:0:88:F#7S_Gb7S_s.wav
112,192,18263,1,0,0:0:0:88:E7S_s.wav
61,192,18321,1,0,0:0:0:99:A2S_s.wav
418,192,18321,1,0,0:0:0:99:A4S.wav
469,192,18321,1,0,0:0:0:88:C6S_s.wav
214,192,18378,1,0,0:0:0:88:E6S_s.wav
10,192,18435,1,0,0:0:0:99:A3S_s.wav
265,192,18435,1,0,0:0:0:88:G6S_s.wav
367,192,18492,1,0,0:0:0:88:E6S_s.wav
163,192,18550,1,0,0:0:0:99:A2S_s.wav
316,192,18550,1,0,0:0:0:88:G6S_s.wav
112,192,18607,1,0,0:0:0:88:E7S_s.wav
61,192,18664,1,0,0:0:0:99:A3S_s.wav
418,192,18664,1,0,0:0:0:88:F#7S_Gb7S_s.wav
469,192,18721,1,0,0:0:0:88:E7S_s.wav
214,192,18779,1,0,0:0:0:99:A2S_s.wav
265,192,18779,1,0,0:0:0:88:C6S_s.wav
10,192,18836,1,0,0:0:0:88:E6S_s.wav
163,192,18893,1,0,0:0:0:99:A3S_s.wav
316,192,18893,1,0,0:0:0:99:E5S_s.wav
367,192,18893,1,0,0:0:0:88:G6S_s.wav
112,192,18950,1,0,0:0:0:88:E6S_s.wav
61,192,19008,1,0,0:0:0:99:A2S_s.wav
418,192,19008,1,0,0:0:0:88:G6S_s.wav
469,192,19065,1,0,0:0:0:88:E7S_s.wav
10,192,19122,1,0,0:0:0:99:A3S_s.wav
214,192,19122,1,0,0:0:0:99:F#5S_Gb5S_s.wav
265,192,19122,1,0,0:0:0:88:F#7S_Gb7S_s.wav
367,192,19179,1,0,0:0:0:88:E7S_s.wav
112,192,19237,1,0,0:0:0:99:A2S_s.wav
163,192,19237,1,0,0:0:0:88:G5S_s.wav
316,192,19237,1,0,0:0:0:99:G5S_s.wav
418,192,19294,1,0,0:0:0:88:E6S_s.wav
10,192,19351,1,0,0:0:0:99:A3S_s.wav
61,192,19351,1,0,0:0:0:99:F#5S_Gb5S_s.wav
469,192,19351,1,0,0:0:0:88:F#6S_Gb6S_s.wav
265,192,19408,1,0,0:0:0:88:E6S_s.wav
163,192,19466,1,0,0:0:0:99:A2S_s.wav
214,192,19466,1,0,0:0:0:99:E5S_s.wav
367,192,19466,1,0,0:0:0:88:B6S_s.wav
316,192,19523,1,0,0:0:0:88:E7S_s.wav
10,192,19580,1,0,0:0:0:99:A3S_s.wav
112,192,19580,1,0,0:0:0:99:C6S_s.wav
418,192,19580,1,0,0:0:0:88:F#7S_Gb7S_s.wav
469,192,19637,1,0,0:0:0:88:E7S_s.wav
61,192,19695,1,0,0:0:0:99:A2S_s.wav
265,192,19695,1,0,0:0:0:88:G5S_s.wav
163,192,19752,1,0,0:0:0:88:E6S_s.wav
214,192,19809,1,0,0:0:0:99:A3S_s.wav
316,192,19809,1,0,0:0:0:99:B5S_s.wav
367,192,19809,1,0,0:0:0:88:F#6S_Gb6S_s.wav
10,192,19866,1,0,0:0:0:88:E6S_s.wav
112,192,19924,1,0,0:0:0:99:A2S_s.wav
418,192,19924,1,0,0:0:0:99:A5S_s.wav
469,192,19924,1,0,0:0:0:88:B6S_s.wav
61,192,19981,1,0,0:0:0:88:E7S_s.wav
163,192,20038,1,0,0:0:0:99:A3S_s.wav
265,192,20038,1,0,0:0:0:88:F#7S_Gb7S_s.wav
367,192,20095,1,0,0:0:0:88:E7S_s.wav
10,192,20153,1,0,0:0:0:99:C3S_s.wav
214,192,20153,1,0,0:0:0:99:C5S_s.wav
316,192,20153,1,0,0:0:0:88:C6S_s.wav
418,192,20210,1,0,0:0:0:88:E6S_s.wav
112,192,20267,1,0,0:0:0:99:C4S_s.wav
469,192,20267,1,0,0:0:0:88:G6S_s.wav
61,192,20324,1,0,0:0:0:88:E6S_s.wav
163,192,20382,1,0,0:0:0:99:C3S_s.wav
265,192,20382,1,0,0:0:0:99:D5S_s.wav
367,192,20382,1,0,0:0:0:88:G6S_s.wav
214,192,20439,1,0,0:0:0:88:E7S_s.wav
10,192,20496,1,0,0:0:0:99:C4S_s.wav
316,192,20496,1,0,0:0:0:99:E5S_s.wav
418,192,20496,1,0,0:0:0:88:F#7S_Gb7S_s.wav
112,192,20553,1,0,0:0:0:88:E7S_s.wav
61,192,20611,1,0,0:0:0:99:C3S_s.wav
469,192,20611,1,0,0:0:0:88:C6S_s.wav
265,192,20668,1,0,0:0:0:88:E6S_s.wav
163,192,20725,1,0,0:0:0:99:C4S_s.wav
214,192,20725,1,0,0:0:0:99:F#5S_Gb5S_s.wav
367,192,20725,1,0,0:0:0:88:G6S_s.wav
418,192,20782,1,0,0:0:0:88:E6S_s.wav
10,192,20840,1,0,0:0:0:99:C3S_s.wav
112,192,20840,1,0,0:0:0:99:G5S_s.wav
316,192,20840,1,0,0:0:0:88:G6S_s.wav
469,192,20897,1,0,0:0:0:88:E7S_s.wav
61,192,20954,1,0,0:0:0:99:C4S_s.wav
163,192,20954,1,0,0:0:0:99:E5S_s.wav
265,192,20954,1,0,0:0:0:88:F#7S_Gb7S_s.wav
367,192,21011,1,0,0:0:0:88:E7S_s.wav
10,192,21069,1,0,0:0:0:99:D3S_s.wav
214,192,21069,1,0,0:0:0:88:A5S_s.wav
418,192,21069,1,0,0:0:0:99:C6S_s.wav
316,192,21126,1,0,0:0:0:88:E6S_s.wav
61,192,21183,1,0,0:0:0:99:D4S_s.wav
112,192,21183,1,0,0:0:0:99:B5S_s.wav
469,192,21183,1,0,0:0:0:88:F#6S_Gb6S_s.wav
265,192,21240,1,0,0:0:0:88:E6S_s.wav
163,192,21298,1,0,0:0:0:99:D3S_s.wav
214,192,21298,1,0,0:0:0:99:A5S_s.wav
367,192,21298,1,0,0:0:0:88:B6S_s.wav
418,192,21355,1,0,0:0:0:88:E7S_s.wav
10,192,21412,1,0,0:0:0:99:D4S_s.wav
112,192,21412,1,0,0:0:0:99:G5S_s.wav
316,192,21412,1,0,0:0:0:88:F#7S_Gb7S_s.wav
469,192,21469,1,0,0:0:0:88:E7S_s.wav
61,192,21527,1,0,0:0:0:99:D3S_s.wav
163,192,21527,1,0,0:0:0:99:D5S_s.wav
265,192,21527,1,0,0:0:0:88:A5S_s.wav
367,192,21584,1,0,0:0:0:88:E6S_s.wav
10,192,21641,1,0,0:0:0:99:D4S_s.wav
214,192,21641,1,0,0:0:0:99:E5S_s.wav
418,192,21641,1,0,0:0:0:88:F#6S_Gb6S_s.wav
316,192,21698,1,0,0:0:0:88:E6S_s.wav
112,192,21756,1,0,0:0:0:99:D3S_s.wav
163,192,21756,1,0,0:0:0:99:F#5S_Gb5S_s.wav
469,192,21756,1,0,0:0:0:88:B6S_s.wav
265,192,21813,1,0,0:0:0:88:E7S_s.wav
10,192,21870,1,0,0:0:0:99:D4S_s.wav
61,192,21870,1,0,0:0:0:99:D6S_s.wav
367,192,21870,1,0,0:0:0:88:F#7S_Gb7S_s.wav
418,192,21927,1,0,0:0:0:88:E7S_s.wav
163,192,21985,1,0,0:0:0:99:E3S_s.wav
214,192,21985,1,0,0:0:0:99:E5S.wav
316,192,21985,1,0,0:0:0:88:B5S_s.wav
469,192,22042,1,0,0:0:0:88:E6S_s.wav
112,192,22099,1,0,0:0:0:99:E4S_s.wav
265,192,22099,1,0,0:0:0:88:G6S_s.wav
10,192,22156,1,0,0:0:0:88:E6S_s.wav
61,192,22214,1,0,0:0:0:99:E3S_s.wav
367,192,22214,1,0,0:0:0:88:G6S_s.wav
418,192,22271,1,0,0:0:0:88:E7S_s.wav
214,192,22328,1,0,0:0:0:99:E4S_s.wav
316,192,22328,1,0,0:0:0:88:G7S_s.wav
163,192,22385,1,0,0:0:0:88:E7S_s.wav
112,192,22443,1,0,0:0:0:99:E3S_s.wav
469,192,22443,1,0,0:0:0:88:B5S_s.wav
265,192,22500,1,0,0:0:0:88:E6S_s.wav
10,192,22557,1,0,0:0:0:99:E4S_s.wav
367,192,22557,1,0,0:0:0:88:G6S_s.wav
61,192,22614,1,0,0:0:0:88:E6S_s.wav
214,192,22672,1,0,0:0:0:99:E3S_s.wav
316,192,22672,1,0,0:0:0:99:F#5S_Gb5S_s.wav
418,192,22672,1,0,0:0:0:88:G6S_s.wav
163,192,22729,1,0,0:0:0:88:E7S_s.wav
112,192,22786,1,0,0:0:0:99:E4S_s.wav
265,192,22786,1,0,0:0:0:99:G5S_s.wav
469,192,22786,1,0,0:0:0:88:G7S_s.wav
10,192,22843,1,0,0:0:0:88:E7S_s.wav
61,192,22901,1,0,0:0:0:99:E3S_s.wav
367,192,22901,1,0,0:0:0:99:A5S_s.wav
418,192,22901,1,0,0:0:0:88:B5S_s.wav
214,192,22958,1,0,0:0:0:88:E6S_s.wav
163,192,23015,1,0,0:0:0:99:E4S_s.wav
316,192,23015,1,0,0:0:0:88:F#6S_Gb6S_s.wav
469,192,23072,1,0,0:0:0:88:E6S_s.wav
10,192,23130,1,0,0:0:0:99:E3S_s.wav
112,192,23130,1,0,0:0:0:99:G5S_s.wav
265,192,23130,1,0,0:0:0:88:B6S_s.wav
418,192,23187,1,0,0:0:0:88:E7S_s.wav
61,192,23244,1,0,0:0:0:99:E4S_s.wav
214,192,23244,1,0,0:0:0:99:F#5S_Gb5S_s.wav
367,192,23244,1,0,0:0:0:88:F#7S_Gb7S_s.wav
316,192,23301,1,0,0:0:0:88:E7S_s.wav
163,192,23359,1,0,0:0:0:99:E3S_s.wav
469,192,23359,1,0,0:0:0:88:B5S_s.wav
112,192,23416,1,0,0:0:0:88:E6S_s.wav
10,192,23473,1,0,0:0:0:99:E4S_s.wav
265,192,23473,1,0,0:0:0:99:G5S_s.wav
418,192,23473,1,0,0:0:0:88:F#6S_Gb6S_s.wav
214,192,23530,1,0,0:0:0:88:E6S_s.wav
61,192,23588,1,0,0:0:0:99:E3S_s.wav
316,192,23588,1,0,0:0:0:99:E5S_s.wav
367,192,23588,1,0,0:0:0:88:B6S_s.wav
163,192,23645,1,0,0:0:0:88:E7S_s.wav
112,192,23702,1,0,0:0:0:99:E4S_s.wav
469,192,23702,1,0,0:0:0:88:F#7S_Gb7S_s.wav
265,192,23759,1,0,0:0:0:88:E7S_s.wav
10,192,23817,1,0,0:0:0:99:D3S_s.wav
214,192,23817,1,0,0:0:0:99:D5S.wav
418,192,23817,1,0,0:0:0:88:A5S_s.wav
367,192,23874,1,0,0:0:0:88:E6S_s.wav
61,192,23931,1,0,0:0:0:99:D4S_s.wav
316,192,23931,1,0,0:0:0:88:F#6S_Gb6S_s.wav
163,192,23988,1,0,0:0:0:88:E6S_s.wav
112,192,24046,1,0,0:0:0:99:D3S_s.wav
469,192,24046,1,0,0:0:0:88:B6S_s.wav
265,192,24103,1,0,0:0:0:88:E7S_s.wav
10,192,24160,1,0,0:0:0:99:D4S_s.wav
418,192,24160,1,0,0:0:0:88:F#7S_Gb7S_s.wav
214,192,24217,1,0,0:0:0:88:E7S_s.wav
61,192,24275,1,0,0:0:0:99:D3S_s.wav
367,192,24275,1,0,0:0:0:88:A5S_s.wav
316,192,24332,1,0,0:0:0:88:E6S_s.wav
163,192,24389,1,0,0:0:0:99:D4S_s.wav
469,192,24389,1,0,0:0:0:88:F#6S_Gb6S_s.wav
112,192,24446,1,0,0:0:0:88:E6S_s.wav
10,192,24504,1,0,0:0:0:99:D3S_s.wav
265,192,24504,1,0,0:0:0:99:E5S_s.wav
418,192,24504,1,0,0:0:0:88:B6S_s.wav
214,192,24561,1,0,0:0:0:88:E7S_s.wav
61,192,24618,1,0,0:0:0:99:D4S_s.wav
316,192,24618,1,0,0:0:0:99:F#5S_Gb5S_s.wav
367,192,24618,1,0,0:0:0:88:F#7S_Gb7S_s.wav
163,192,24676,1,0,0:0:0:88:E7S_s.wav
112,192,24733,1,0,0:0:0:99:D3S_s.wav
265,192,24733,1,0,0:0:0:99:C5S.wav
469,192,24733,1,0,0:0:0:88:G5S_s.wav
10,192,24790,1,0,0:0:0:88:D6S_s.wav
214,192,24847,1,0,0:0:0:99:D4S_s.wav
418,192,24847,1,0,0:0:0:88:F#6S_Gb6S_s.wav
367,192,24905,1,0,0:0:0:88:D6S_s.wav
61,192,24962,1,0,0:0:0:99:D3S_s.wav
316,192,24962,1,0,0:0:0:88:B6S_s.wav
163,192,25019,1,0,0:0:0:88:E7S_s.wav
112,192,25076,1,0,0:0:0:99:D4S_s.wav
469,192,25076,1,0,0:0:0:88:F#7S_Gb7S_s.wav
265,192,25134,1,0,0:0:0:88:E7S_s.wav
10,192,25191,1,0,0:0:0:99:D3S_s.wav
418,192,25191,1,0,0:0:0:88:G5S_s.wav
214,192,25248,1,0,0:0:0:88:D6S_s.wav
61,192,25305,1,0,0:0:0:99:D4S_s.wav
367,192,25305,1,0,0:0:0:88:F#6S_Gb6S_s.wav
316,192,25363,1,0,0:0:0:88:D6S_s.wav
112,192,25420,1,0,0:0:0:99:D3S_s.wav
163,192,25420,1,0,0:0:0:99:D5S_s.wav
469,192,25420,1,0,0:0:0:88:B6S_s.wav
265,192,25477,1,0,0:0:0:88:E7S_s.wav
10,192,25534,1,0,0:0:0:99:D4S_s.wav
214,192,25534,1,0,0:0:0:99:E5S_s.wav
418,192,25534,1,0,0:0:0:88:F#7S_Gb7S_s.wav
367,192,25592,1,0,0:0:0:88:E7S_s.wav
61,192,25649,1,0,0:0:0:99:A2S_s.wav
112,192,25649,1,0,0:0:0:99:A4S.wav
316,192,25649,1,0,0:0:0:88:C6S_s.wav
469,192,25706,1,0,0:0:0:88:E6S_s.wav
163,192,25763,1,0,0:0:0:99:A3S_s.wav
265,192,25763,1,0,0:0:0:88:G6S_s.wav
10,192,25821,1,0,0:0:0:88:E6S_s.wav
214,192,25878,1,0,0:0:0:99:A2S_s.wav
418,192,25878,1,0,0:0:0:88:G6S_s.wav
367,192,25935,1,0,0:0:0:88:E7S_s.wav
112,192,25992,1,0,0:0:0:99:A3S_s.wav
316,192,25992,1,0,0:0:0:88:F#7S_Gb7S_s.wav
61,192,26050,1,0,0:0:0:88:E7S_s.wav
163,192,26107,1,0,0:0:0:99:A2S_s.wav
469,192,26107,1,0,0:0:0:88:C6S_s.wav
265,192,26164,1,0,0:0:0:88:E6S_s.wav
10,192,26221,1,0,0:0:0:99:A3S_s.wav
214,192,26221,1,0,0:0:0:99:E5S_s.wav
418,192,26221,1,0,0:0:0:88:G6S_s.wav
367,192,26279,1,0,0:0:0:88:E6S_s.wav
112,192,26336,1,0,0:0:0:99:A2S_s.wav
316,192,26336,1,0,0:0:0:88:G6S_s.wav
61,192,26393,1,0,0:0:0:88:E7S_s.wav
163,192,26450,1,0,0:0:0:99:A3S_s.wav
265,192,26450,1,0,0:0:0:99:F#5S_Gb5S_s.wav
469,192,26450,1,0,0:0:0:88:F#7S_Gb7S_s.wav
214,192,26508,1,0,0:0:0:88:E7S_s.wav
10,192,26565,1,0,0:0:0:99:A2S_s.wav
367,192,26565,1,0,0:0:0:88:G5S_s.wav
418,192,26565,1,0,0:0:0:99:G5S_s.wav
112,192,26622,1,0,0:0:0:88:E6S_s.wav
61,192,26679,1,0,0:0:0:99:A3S_s.wav
265,192,26679,1,0,0:0:0:99:F#5S_Gb5S_s.wav
316,192,26679,1,0,0:0:0:88:F#6S_Gb6S_s.wav
163,192,26737,1,0,0:0:0:88:E6S_s.wav
214,192,26794,1,0,0:0:0:99:A2S_s.wav
367,192,26794,1,0,0:0:0:99:E5S_s.wav
469,192,26794,1,0,0:0:0:88:B6S_s.wav
10,192,26851,1,0,0:0:0:88:E7S_s.wav
112,192,26908,1,0,0:0:0:99:A3S_s.wav
316,192,26908,1,0,0:0:0:99:C6S_s.wav
418,192,26908,1,0,0:0:0:88:F#7S_Gb7S_s.wav
61,192,26966,1,0,0:0:0:88:E7S_s.wav
163,192,27023,1,0,0:0:0:99:A2S_s.wav
265,192,27023,1,0,0:0:0:88:G5S_s.wav
469,192,27080,1,0,0:0:0:88:E6S_s.wav
10,192,27137,1,0,0:0:0:99:A3S_s.wav
214,192,27137,1,0,0:0:0:99:B5S_s.wav
367,192,27137,1,0,0:0:0:88:F#6S_Gb6S_s.wav
418,192,27195,1,0,0:0:0:88:E6S_s.wav
61,192,27252,1,0,0:0:0:99:A2S_s.wav
112,192,27252,1,0,0:0:0:99:A5S_s.wav
316,192,27252,1,0,0:0:0:88:B6S_s.wav
265,192,27309,1,0,0:0:0:88:E7S_s.wav
163,192,27366,1,0,0:0:0:99:A3S_s.wav
469,192,27366,1,0,0:0:0:88:F#7S_Gb7S_s.wav
214,192,27424,1,0,0:0:0:88:E7S_s.wav
10,192,27481,1,0,0:0:0:99:C3S_s.wav
367,192,27481,1,0,0:0:0:99:C5S_s.wav
418,192,27481,1,0,0:0:0:88:C6S_s.wav
61,192,27538,1,0,0:0:0:88:E6S_s.wav
112,192,27595,1,0,0:0:0:99:C4S_s.wav
316,192,27595,1,0,0:0:0:88:G6S_s.wav
265,192,27653,1,0,0:0:0:88:E6S_s.wav
163,192,27710,1,0,0:0:0:99:C3S_s.wav
214,192,27710,1,0,0:0:0:99:D5S_s.wav
469,192,27710,1,0,0:0:0:88:G6S_s.wav
367,192,27767,1,0,0:0:0:88:E7S_s.wav
10,192,27824,1,0,0:0:0:99:C4S_s.wav
61,192,27824,1,0,0:0:0:99:E5S_s.wav
418,192,27824,1,0,0:0:0:88:F#7S_Gb7S_s.wav
316,192,27882,1,0,0:0:0:88:E7S_s.wav
112,192,27939,1,0,0:0:0:99:C3S_s.wav
265,192,27939,1,0,0:0:0:88:C6S_s.wav
214,192,27996,1,0,0:0:0:88:E6S_s.wav
163,192,28053,1,0,0:0:0:99:C4S_s.wav
367,192,28053,1,0,0:0:0:99:F#5S_Gb5S_s.wav
469,192,28053,1,0,0:0:0:88:G6S_s.wav
61,192,28111,1,0,0:0:0:88:E6S_s.wav
10,192,28168,1,0,0:0:0:99:C3S_s.wav
316,192,28168,1,0,0:0:0:99:G5S_s.wav
418,192,28168,1,0,0:0:0:88:G6S_s.wav
112,192,28225,1,0,0:0:0:88:E7S_s.wav
214,192,28282,1,0,0:0:0:99:C4S_s.wav
265,192,28282,1,0,0:0:0:99:E5S_s.wav
469,192,28282,1,0,0:0:0:88:F#7S_Gb7S_s.wav
163,192,28340,1,0,0:0:0:88:E7S_s.wav
61,192,28397,1,0,0:0:0:99:D3S_s.wav
316,192,28397,1,0,0:0:0:88:A5S_s.wav
367,192,28397,1,0,0:0:0:99:C6S_s.wav
10,192,28454,1,0,0:0:0:88:E6S_s.wav
112,192,28511,1,0,0:0:0:99:D4S_s.wav
265,192,28511,1,0,0:0:0:99:B5S_s.wav
418,192,28511,1,0,0:0:0:88:F#6S_Gb6S_s.wav
214,192,28569,1,0,0:0:0:88:E6S_s.wav
163,192,28626,1,0,0:0:0:99:D3S_s.wav
316,192,28626,1,0,0:0:0:99:A5S_s.wav
469,192,28626,1,0,0:0:0:88:B6S_s.wav
61,192,28683,1,0,0:0:0:88:E7S_s.wav
10,192,28740,1,0,0:0:0:99:D4S_s.wav
265,192,28740,1,0,0:0:0:99:G5S_s.wav
367,192,28740,1,0,0:0:0:88:F#7S_Gb7S_s.wav
112,192,28798,1,0,0:0:0:88:E7S_s.wav
214,192,28855,1,0,0:0:0:99:D3S_s.wav
316,192,28855,1,0,0:0:0:99:D5S_s.wav
418,192,28855,1,0,0:0:0:88:A5S_s.wav
163,192,28912,1,0,0:0:0:88:E6S_s.wav
61,192,28969,1,0,0:0:0:99:D4S_s.wav
265,192,28969,1,0,0:0:0:99:E5S_s.wav
469,192,28969,1,0,0:0:0:88:F#6S_Gb6S_s.wav
10,192,29027,1,0,0:0:0:88:E6S_s.wav
112,192,29084,1,0,0:0:0:99:D3S_s.wav
316,192,29084,1,0,0:0:0:99:F#5S_Gb5S_s.wav
367,192,29084,1,0,0:0:0:88:B6S_s.wav
214,192,29141,1,0,0:0:0:88:E7S_s.wav
163,192,29198,1,0,0:0:0:99:D4S_s.wav
265,192,29198,1,0,0:0:0:99:D6S_s.wav
418,192,29198,1,0,0:0:0:88:F#7S_Gb7S_s.wav
61,192,29256,1,0,0:0:0:88:E7S_s.wav
10,192,29313,1,0,0:0:0:88:E3S_s.wav
316,192,29313,1,0,0:0:0:88:E5S.wav
469,192,29313,1,0,0:0:0:75:G6S_s.wav
112,192,29427,1,0,0:0:0:88:E4S_s.wav
367,192,29427,1,0,0:0:0:75:E6S_s.wav
214,192,29542,1,0,0:0:0:88:E3S_s.wav
265,192,29542,1,0,0:0:0:75:B5S_s.wav
163,192,29656,1,0,0:0:0:88:E4S_s.wav
418,192,29656,1,0,0:0:0:75:E6S_s.wav
61,192,29771,1,0,0:0:0:88:E3S_s.wav
316,192,29771,1,0,0:0:0:75:G6S_s.wav
10,192,29885,1,0,0:0:0:88:E4S_s.wav
469,192,29885,1,0,0:0:0:75:E6S_s.wav
112,192,30000,1,0,0:0:0:88:E3S_s.wav
214,192,30000,1,0,0:0:0:88:F#5S_Gb5S_s.wav
367,192,30000,1,0,0:0:0:75:B5S_s.wav
163,192,30114,1,0,0:0:0:88:E4S_s.wav
265,192,30114,1,0,0:0:0:88:G5S_s.wav
418,192,30114,1,0,0:0:0:75:E6S_s.wav
10,192,30229,1,0,0:0:0:88:E3S_s.wav
61,192,30229,1,0,0:0:0:88:A5S_s.wav
316,192,30229,1,0,0:0:0:75:G6S_s.wav
214,192,30343,1,0,0:0:0:88:E4S_s.wav
469,192,30343,1,0,0:0:0:75:E6S_s.wav
112,192,30458,1,0,0:0:0:88:E3S_s.wav
265,192,30458,1,0,0:0:0:88:G5S_s.wav
367,192,30458,1,0,0:0:0:75:B5S_s.wav
61,192,30572,1,0,0:0:0:88:E4S_s.wav
163,192,30572,1,0,0:0:0:88:F#5S_Gb5S_s.wav
418,192,30572,1,0,0:0:0:75:E6S_s.wav
10,192,30687,1,0,0:0:0:88:E3S_s.wav
316,192,30687,1,0,0:0:0:75:G6S_s.wav
214,192,30801,1,0,0:0:0:88:E4S_s.wav
265,192,30801,1,0,0:0:0:88:G5S_s.wav
469,192,30801,1,0,0:0:0:75:E6S_s.wav
112,192,30916,1,0,0:0:0:88:E3S_s.wav
163,192,30916,1,0,0:0:0:88:E5S_s.wav
367,192,30916,1,0,0:0:0:75:B5S_s.wav
61,192,31030,1,0,0:0:0:88:E4S_s.wav
418,192,31030,1,0,0:0:0:75:E6S_s.wav
10,192,31145,1,0,0:0:0:88:D3S_s.wav
214,192,31145,1,0,0:0:0:88:D5S.wav
316,192,31145,1,0,0:0:0:75:F#6S_Gb6S_s.wav
469,192,31145,1,0,0:0:0:88:A6S.wav
163,192,31259,1,0,0:0:0:88:D4S_s.wav
265,192,31259,1,0,0:0:0:75:D6S_s.wav
112,192,31374,1,0,0:0:0:88:D3S_s.wav
367,192,31374,1,0,0:0:0:75:A5S_s.wav
61,192,31488,1,0,0:0:0:88:D4S_s.wav
418,192,31488,1,0,0:0:0:75:D6S_s.wav
10,192,31603,1,0,0:0:0:88:D3S_s.wav
469,192,31603,1,0,0:0:0:75:F#6S_Gb6S_s.wav
214,192,31717,1,0,0:0:0:88:D4S_s.wav
316,192,31717,1,0,0:0:0:75:D6S_s.wav
112,192,31832,1,0,0:0:0:88:D3S_s.wav
163,192,31832,1,0,0:0:0:88:E5S_s.wav
265,192,31832,1,0,0:0:0:75:A5S_s.wav
367,192,31832,1,0,0:0:0:88:B6S_s.wav
10,192,31946,1,0,0:0:0:88:D4S_s.wav
61,192,31946,1,0,0:0:0:88:F#5S_Gb5S_s.wav
418,192,31946,1,0,0:0:0:75:D6S_s.wav
469,192,31946,1,0,0:0:0:88:C7S_s.wav
214,192,32061,1,0,0:0:0:88:D3S_s.wav
265,192,32061,1,0,0:0:0:88:C5S.wav
316,192,32061,1,0,0:0:0:75:F#6S_Gb6S_s.wav
112,192,32175,1,0,0:0:0:88:D4S_s.wav
163,192,32175,1,0,0:0:0:75:D6S_s.wav
367,192,32175,1,0,0:0:0:88:C7S_s.wav
10,192,32290,1,0,0:0:0:88:D3S_s.wav
418,192,32290,1,0,0:0:0:75:A5S_s.wav
469,192,32290,1,0,0:0:0:88:B6S_s.wav
61,192,32404,1,0,0:0:0:88:D4S_s.wav
316,192,32404,1,0,0:0:0:75:D6S_s.wav
112,192,32519,1,0,0:0:0:88:D3S_s.wav
214,192,32519,1,0,0:0:0:75:F#6S_Gb6S_s.wav
265,192,32519,1,0,0:0:0:88:G6S_s.wav
163,192,32633,1,0,0:0:0:88:D4S_s.wav
367,192,32633,1,0,0:0:0:75:D6S_s.wav
469,192,32633,1,0,0:0:0:88:F#6S_Gb6S_s.wav
10,192,32748,1,0,0:0:0:88:D3S_s.wav
61,192,32748,1,0,0:0:0:88:D5S_s.wav
316,192,32748,1,0,0:0:0:75:A5S_s.wav
418,192,32748,1,0,0:0:0:88:E6S_s.wav
112,192,32863,1,0,0:0:0:88:D4S_s.wav
214,192,32863,1,0,0:0:0:88:E5S_s.wav
265,192,32863,1,0,0:0:0:75:D6S_s.wav
469,192,32863,1,0,0:0:0:88:E6S.wav
61,192,32977,1,0,0:0:0:88:A2S_s.wav
163,192,32977,1,0,0:0:0:88:A4S.wav
367,192,32977,1,0,0:0:0:75:G6S_s.wav
10,192,33092,1,0,0:0:0:88:A3S_s.wav
418,192,33092,1,0,0:0:0:75:E6S_s.wav
112,192,33206,1,0,0:0:0:88:A2S_s.wav
316,192,33206,1,0,0:0:0:75:G5S_s.wav
214,192,33321,1,0,0:0:0:88:A3S_s.wav
265,192,33321,1,0,0:0:0:75:E6S_s.wav
61,192,33435,1,0,0:0:0:88:A2S_s.wav
469,192,33435,1,0,0:0:0:75:G6S_s.wav
163,192,33550,1,0,0:0:0:88:A3S_s.wav
367,192,33550,1,0,0:0:0:88:E5S_s.wav
418,192,33550,1,0,0:0:0:75:E6S_s.wav
10,192,33664,1,0,0:0:0:88:A2S_s.wav
316,192,33664,1,0,0:0:0:75:G5S_s.wav
112,192,33779,1,0,0:0:0:88:A3S_s.wav
214,192,33779,1,0,0:0:0:88:F#5S_Gb5S_s.wav
265,192,33779,1,0,0:0:0:75:E6S_s.wav
61,192,33893,1,0,0:0:0:88:A2S_s.wav
367,192,33893,1,0,0:0:0:88:G5S_s.wav
469,192,33893,1,0,0:0:0:75:G6S_s.wav
10,192,34008,1,0,0:0:0:88:A3S_s.wav
163,192,34008,1,0,0:0:0:88:F#5S_Gb5S_s.wav
418,192,34008,1,0,0:0:0:75:E6S_s.wav
214,192,34122,1,0,0:0:0:88:A2S_s.wav
265,192,34122,1,0,0:0:0:88:E5S_s.wav
316,192,34122,1,0,0:0:0:75:G5S_s.wav
61,192,34237,1,0,0:0:0:88:A3S_s.wav
112,192,34237,1,0,0:0:0:88:C6S_s.wav
367,192,34237,1,0,0:0:0:75:E6S_s.wav
10,192,34351,1,0,0:0:0:88:A2S_s.wav
469,192,34351,1,0,0:0:0:75:G6S_s.wav
163,192,34466,1,0,0:0:0:88:A3S_s.wav
265,192,34466,1,0,0:0:0:88:B5S_s.wav
418,192,34466,1,0,0:0:0:75:E6S_s.wav
61,192,34580,1,0,0:0:0:88:A2S_s.wav
214,192,34580,1,0,0:0:0:75:G5S_s.wav
316,192,34580,1,0,0:0:0:88:A5S_s.wav
112,192,34695,1,0,0:0:0:88:A3S_s.wav
367,192,34695,1,0,0:0:0:75:E6S_s.wav
10,192,34809,1,0,0:0:0:88:C3S_s.wav
265,192,34809,1,0,0:0:0:88:C5S_s.wav
469,192,34809,1,0,0:0:0:75:G6S_s.wav
163,192,34924,1,0,0:0:0:88:C4S_s.wav
418,192,34924,1,0,0:0:0:75:E6S_s.wav
61,192,35038,1,0,0:0:0:88:C3S_s.wav
214,192,35038,1,0,0:0:0:88:D5S_s.wav
316,192,35038,1,0,0:0:0:75:G5S_s.wav
112,192,35153,1,0,0:0:0:88:C4S_s.wav
265,192,35153,1,0,0:0:0:88:E5S_s.wav
367,192,35153,1,0,0:0:0:75:E6S_s.wav
10,192,35267,1,0,0:0:0:88:C3S_s.wav
469,192,35267,1,0,0:0:0:75:G6S_s.wav
163,192,35382,1,0,0:0:0:88:C4S_s.wav
214,192,35382,1,0,0:0:0:88:F#5S_Gb5S_s.wav
418,192,35382,1,0,0:0:0:75:E6S_s.wav
61,192,35496,1,0,0:0:0:88:C3S_s.wav
316,192,35496,1,0,0:0:0:75:G5S_s.wav
367,192,35496,1,0,0:0:0:88:G5S_s.wav
10,192,35611,1,0,0:0:0:88:C4S_s.wav
112,192,35611,1,0,0:0:0:88:E5S_s.wav
265,192,35611,1,0,0:0:0:75:E6S_s.wav
163,192,35725,1,0,0:0:0:88:D3S_s.wav
418,192,35725,1,0,0:0:0:88:D5S_s.wav
469,192,35725,1,0,0:0:0:88:C6S_s.wav
214,192,35782,1,0,0:0:0:88:F#5S_Gb5S_s.wav
61,192,35840,1,0,0:0:0:88:D4S_s.wav
316,192,35840,1,0,0:0:0:88:A5S_s.wav
367,192,35840,1,0,0:0:0:88:B5S_s.wav
112,192,35897,1,0,0:0:0:88:D6S_s.wav
10,192,35954,1,0,0:0:0:88:D3S_s.wav
265,192,35954,1,0,0:0:0:88:F#5S_Gb5S_s.wav
469,192,35954,1,0,0:0:0:88:A5S_s.wav
163,192,36011,1,0,0:0:0:88:A5S_s.wav
214,192,36069,1,0,0:0:0:88:D4S_s.wav
316,192,36069,1,0,0:0:0:88:G5S_s.wav
418,192,36069,1,0,0:0:0:88:D6S_s.wav
61,192,36126,1,0,0:0:0:88:F#6S_Gb6S_s.wav
112,192,36183,1,0,0:0:0:88:D3S_s.wav
367,192,36183,1,0,0:0:0:88:D5S_s.wav
469,192,36183,1,0,0:0:0:88:A5S_s.wav
10,192,36240,1,0,0:0:0:88:D6S_s.wav
163,192,36298,1,0,0:0:0:88:D4S_s.wav
265,192,36298,1,0,0:0:0:88:E5S_s.wav
316,192,36298,1,0,0:0:0:88:F#6S_Gb6S_s.wav
214,192,36355,1,0,0:0:0:88:A6S_s.wav
61,192,36412,1,0,0:0:0:88:D3S_s.wav
418,192,36412,1,0,0:0:0:88:F#5S_Gb5S_s.wav
469,192,36412,1,0,0:0:0:88:D6S_s.wav
112,192,36469,1,0,0:0:0:88:F#6S_Gb6S_s.wav
10,192,36527,1,0,0:0:0:88:D4S_s.wav
316,192,36527,1,0,0:0:0:88:D6S_s.wav
367,192,36527,1,0,0:0:0:88:A6S_s.wav
163,192,36584,1,0,0:0:0:88:D7S_s.wav
214,192,36641,1,0,0:0:0:88:E3S_s.wav
265,192,36641,1,0,0:0:0:88:E5S.wav
469,192,36641,1,0,0:0:0:75:G6S_s.wav
61,192,36756,1,0,0:0:0:88:E4S_s.wav
418,192,36756,1,0,0:0:0:75:E6S_s.wav
112,192,36870,1,0,0:0:0:88:E3S_s.wav
367,192,36870,1,0,0:0:0:75:B5S_s.wav
10,192,36985,1,0,0:0:0:88:E4S_s.wav
316,192,36985,1,0,0:0:0:75:E6S_s.wav
163,192,37099,1,0,0:0:0:88:E3S_s.wav
265,192,37099,1,0,0:0:0:75:G6S_s.wav
214,192,37214,1,0,0:0:0:88:E4S_s.wav
469,192,37214,1,0,0:0:0:75:E6S_s.wav
61,192,37328,1,0,0:0:0:88:E3S_s.wav
112,192,37328,1,0,0:0:0:88:F#5S_Gb5S_s.wav
418,192,37328,1,0,0:0:0:75:B5S_s.wav
10,192,37443,1,0,0:0:0:88:E4S_s.wav
316,192,37443,1,0,0:0:0:88:G5S_s.wav
367,192,37443,1,0,0:0:0:75:E6S_s.wav
163,192,37557,1,0,0:0:0:88:E3S_s.wav
214,192,37557,1,0,0:0:0:88:A5S_s.wav
265,192,37557,1,0,0:0:0:75:G6S_s.wav
61,192,37672,1,0,0:0:0:88:E4S_s.wav
469,192,37672,1,0,0:0:0:75:E6S_s.wav
112,192,37786,1,0,0:0:0:88:E3S_s.wav
367,192,37786,1,0,0:0:0:88:G5S_s.wav
418,192,37786,1,0,0:0:0:75:B5S_s.wav
10,192,37901,1,0,0:0:0:88:E4S_s.wav
214,192,37901,1,0,0:0:0:88:F#5S_Gb5S_s.wav
316,192,37901,1,0,0:0:0:75:E6S_s.wav
163,192,38015,1,0,0:0:0:88:E3S_s.wav
265,192,38015,1,0,0:0:0:75:G6S_s.wav
61,192,38130,1,0,0:0:0:88:E4S_s.wav
418,192,38130,1,0,0:0:0:88:G5S_s.wav
469,192,38130,1,0,0:0:0:75:E6S_s.wav
10,192,38244,1,0,0:0:0:88:E3S_s.wav
112,192,38244,1,0,0:0:0:88:E5S_s.wav
367,192,38244,1,0,0:0:0:75:B5S_s.wav
214,192,38359,1,0,0:0:0:88:E4S_s.wav
316,192,38359,1,0,0:0:0:75:E6S_s.wav
61,192,38473,1,0,0:0:0:88:D3S_s.wav
163,192,38473,1,0,0:0:0:88:D5S.wav
265,192,38473,1,0,0:0:0:75:F#6S_Gb6S_s.wav
418,192,38473,1,0,0:0:0:88:A6S.wav
112,192,38588,1,0,0:0:0:88:D4S_s.wav
469,192,38588,1,0,0:0:0:75:D6S_s.wav
10,192,38702,1,0,0:0:0:88:D3S_s.wav
367,192,38702,1,0,0:0:0:75:A5S_s.wav
214,192,38817,1,0,0:0:0:88:D4S_s.wav
316,192,38817,1,0,0:0:0:75:D6S_s.wav
163,192,38931,1,0,0:0:0:88:D3S_s.wav
418,192,38931,1,0,0:0:0:75:F#6S_Gb6S_s.wav
61,192,39046,1,0,0:0:0:88:D4S_s.wav
265,192,39046,1,0,0:0:0:75:D6S_s.wav
10,192,39160,1,0,0:0:0:88:D3S_s.wav
112,192,39160,1,0,0:0:0:88:E5S_s.wav
367,192,39160,1,0,0:0:0:75:A5S_s.wav
469,192,39160,1,0,0:0:0:88:B6S_s.wav
163,192,39275,1,0,0:0:0:88:D4S_s.wav
214,192,39275,1,0,0:0:0:88:F#5S_Gb5S_s.wav
316,192,39275,1,0,0:0:0:75:D6S_s.wav
418,192,39275,1,0,0:0:0:88:C7S_s.wav
61,192,39389,1,0,0:0:0:88:D3S_s.wav
265,192,39389,1,0,0:0:0:88:C5S.wav
469,192,39389,1,0,0:0:0:75:F#6S_Gb6S_s.wav
10,192,39504,1,0,0:0:0:88:D4S_s.wav
112,192,39504,1,0,0:0:0:75:D6S_s.wav
367,192,39504,1,0,0:0:0:88:C7S_s.wav
214,192,39618,1,0,0:0:0:88:D3S_s.wav
316,192,39618,1,0,0:0:0:75:A5S_s.wav
418,192,39618,1,0,0:0:0:88:B6S_s.wav
163,192,39733,1,0,0:0:0:88:D4S_s.wav
265,192,39733,1,0,0:0:0:75:D6S_s.wav
10,192,39847,1,0,0:0:0:88:D3S_s.wav
61,192,39847,1,0,0:0:0:75:F#6S_Gb6S_s.wav
469,192,39847,1,0,0:0:0:88:G6S_s.wav
112,192,39962,1,0,0:0:0:88:D4S_s.wav
316,192,39962,1,0,0:0:0:75:D6S_s.wav
367,192,39962,1,0,0:0:0:88:F#6S_Gb6S_s.wav
163,192,40076,1,0,0:0:0:88:D3S_s.wav
214,192,40076,1,0,0:0:0:88:D5S_s.wav
265,192,40076,1,0,0:0:0:75:A5S_s.wav
418,192,40076,1,0,0:0:0:88:E6S_s.wav
10,192,40191,1,0,0:0:0:88:D4S_s.wav
61,192,40191,1,0,0:0:0:88:E5S_s.wav
316,192,40191,1,0,0:0:0:75:D6S_s.wav
469,192,40191,1,0,0:0:0:88:E6S.wav
112,192,40305,1,0,0:0:0:88:A2S_s.wav
214,192,40305,1,0,0:0:0:88:A4S.wav
367,192,40305,1,0,0:0:0:75:G6S_s.wav
163,192,40420,1,0,0:0:0:88:A3S_s.wav
418,192,40420,1,0,0:0:0:75:E6S_s.wav
10,192,40534,1,0,0:0:0:88:A2S_s.wav
265,192,40534,1,0,0:0:0:75:G5S_s.wav
61,192,40649,1,0,0:0:0:88:A3S_s.wav
469,192,40649,1,0,0:0:0:75:E6S_s.wav
112,192,40763,1,0,0:0:0:88:A2S_s.wav
316,192,40763,1,0,0:0:0:75:G6S_s.wav
214,192,40878,1,0,0:0:0:88:A3S_s.wav
367,192,40878,1,0,0:0:0:88:E5S_s.wav
418,192,40878,1,0,0:0:0:75:E6S_s.wav
163,192,40992,1,0,0:0:0:88:A2S_s.wav
265,192,40992,1,0,0:0:0:75:G5S_s.wav
10,192,41107,1,0,0:0:0:88:A3S_s.wav
61,192,41107,1,0,0:0:0:88:F#5S_Gb5S_s.wav
469,192,41107,1,0,0:0:0:75:E6S_s.wav
112,192,41221,1,0,0:0:0:88:A2S_s.wav
316,192,41221,1,0,0:0:0:88:G5S_s.wav
418,192,41221,1,0,0:0:0:75:G6S_s.wav
163,192,41336,1,0,0:0:0:88:A3S_s.wav
214,192,41336,1,0,0:0:0:88:F#5S_Gb5S_s.wav
367,192,41336,1,0,0:0:0:75:E6S_s.wav
10,192,41450,1,0,0:0:0:88:A2S_s.wav
265,192,41450,1,0,0:0:0:88:E5S_s.wav
469,192,41450,1,0,0:0:0:75:G5S_s.wav
61,192,41565,1,0,0:0:0:88:A3S_s.wav
112,192,41565,1,0,0:0:0:88:C6S_s.wav
316,192,41565,1,0,0:0:0:75:E6S_s.wav
214,192,41679,1,0,0:0:0:88:A2S_s.wav
418,192,41679,1,0,0:0:0:75:G6S_s.wav
163,192,41794,1,0,0:0:0:88:A3S_s.wav
367,192,41794,1,0,0:0:0:88:B5S_s.wav
469,192,41794,1,0,0:0:0:75:E6S_s.wav
10,192,41908,1,0,0:0:0:88:A2S_s.wav
61,192,41908,1,0,0:0:0:75:G5S_s.wav
265,192,41908,1,0,0:0:0:88:A5S_s.wav
112,192,42023,1,0,0:0:0:88:A3S_s.wav
316,192,42023,1,0,0:0:0:75:E6S_s.wav
214,192,42137,1,0,0:0:0:88:C3S_s.wav
367,192,42137,1,0,0:0:0:88:C5S_s.wav
418,192,42137,1,0,0:0:0:75:G6S_s.wav
163,192,42252,1,0,0:0:0:88:C4S_s.wav
469,192,42252,1,0,0:0:0:75:E6S_s.wav
10,192,42366,1,0,0:0:0:88:C3S_s.wav
61,192,42366,1,0,0:0:0:88:D5S_s.wav
265,192,42366,1,0,0:0:0:75:G5S_s.wav
112,192,42481,1,0,0:0:0:88:C4S_s.wav
316,192,42481,1,0,0:0:0:88:E5S_s.wav
367,192,42481,1,0,0:0:0:75:E6S_s.wav
214,192,42595,1,0,0:0:0:88:C3S_s.wav
418,192,42595,1,0,0:0:0:75:G6S_s.wav
61,192,42710,1,0,0:0:0:88:C4S_s.wav
163,192,42710,1,0,0:0:0:88:F#5S_Gb5S_s.wav
469,192,42710,1,0,0:0:0:75:E6S_s.wav
10,192,42824,1,0,0:0:0:88:C3S_s.wav
265,192,42824,1,0,0:0:0:75:G5S_s.wav
316,192,42824,1,0,0:0:0:88:G5S_s.wav
112,192,42939,1,0,0:0:0:88:C4S_s.wav
214,192,42939,1,0,0:0:0:88:E5S_s.wav
367,192,42939,1,0,0:0:0:75:E6S_s.wav
163,192,43053,1,0,0:0:0:75:D3S_s.wav
418,192,43053,1,0,0:0:0:75:D5S_s.wav
469,192,43053,1,0,0:0:0:88:D6S_s.wav
61,192,43111,1,0,0:0:0:75:F#5S_Gb5S_s.wav
265,192,43111,1,0,0:0:0:88:F#6S_Gb6S_s.wav
10,192,43168,1,0,0:0:0:75:D4S_s.wav
112,192,43168,1,0,0:0:0:75:A5S_s.wav
316,192,43168,1,0,0:0:0:88:A6S_s.wav
214,192,43225,1,0,0:0:0:75:D6S_s.wav
367,192,43225,1,0,0:0:0:88:D7S_s.wav
163,192,43282,1,0,0:0:0:75:D3S_s.wav
418,192,43282,1,0,0:0:0:75:F#5S_Gb5S_s.wav
469,192,43282,1,0,0:0:0:88:F#6S_Gb6S_s.wav
61,192,43340,1,0,0:0:0:75:A5S_s.wav
265,192,43340,1,0,0:0:0:88:A6S_s.wav
10,192,43397,1,0,0:0:0:75:D4S_s.wav
112,192,43397,1,0,0:0:0:75:D6S_s.wav
316,192,43397,1,0,0:0:0:88:D7S_s.wav
214,192,43454,1,0,0:0:0:75:F#6S_Gb6S_s.wav
367,192,43454,1,0,0:0:0:88:F#7S_Gb7S_s.wav
163,192,43511,1,0,0:0:0:75:D3S_s.wav
418,192,43511,1,0,0:0:0:75:A5S_s.wav
469,192,43511,1,0,0:0:0:88:A6S_s.wav
61,192,43569,1,0,0:0:0:75:D6S_s.wav
265,192,43569,1,0,0:0:0:88:D7S_s.wav
10,192,43626,1,0,0:0:0:75:D4S_s.wav
112,192,43626,1,0,0:0:0:75:F#6S_Gb6S_s.wav
316,192,43626,1,0,0:0:0:88:F#7S_Gb7S_s.wav
214,192,43683,1,0,0:0:0:75:A6S_s.wav
367,192,43683,1,0,0:0:0:88:A7S_s.wav
163,192,43740,1,0,0:0:0:75:D3S_s.wav
418,192,43740,1,0,0:0:0:75:D6S_s.wav
469,192,43740,1,0,0:0:0:88:D7S_s.wav
61,192,43798,1,0,0:0:0:75:F#6S_Gb6S_s.wav
265,192,43798,1,0,0:0:0:88:F#7S_Gb7S_s.wav
10,192,43855,1,0,0:0:0:75:D4S_s.wav
112,192,43855,1,0,0:0:0:75:A6S_s.wav
316,192,43855,1,0,0:0:0:88:A7S_s.wav
214,192,43912,1,0,0:0:0:75:D7S_s.wav
367,192,43912,1,0,0:0:0:88:D8S_s.wav
469,192,43969,1,0,0:0:0:75:E3S_s.wav
163,192,44084,1,0,0:0:0:75:E4S_s.wav
418,192,44198,1,0,0:0:0:75:E3S_s.wav
61,192,44313,1,0,0:0:0:75:E4S_s.wav
265,192,44427,1,0,0:0:0:75:E3S_s.wav
112,192,44542,1,0,0:0:0:75:E4S_s.wav
316,192,44656,1,0,0:0:0:75:E3S_s.wav
10,192,44771,1,0,0:0:0:75:E4S_s.wav
367,192,44885,1,0,0:0:0:75:E3S_s.wav
214,192,45000,1,0,0:0:0:75:E4S_s.wav
469,192,45114,1,0,0:0:0:75:E3S_s.wav
163,192,45229,1,0,0:0:0:75:E4S_s.wav
418,192,45343,1,0,0:0:0:75:E3S_s.wav
61,192,45458,1,0,0:0:0:75:E4S_s.wav
265,192,45572,1,0,0:0:0:75:E3S_s.wav
112,192,45687,1,0,0:0:0:75:E4S_s.wav
316,192,45801,1,0,0:0:0:75:D3S_s.wav
10,192,45916,1,0,0:0:0:75:D4S_s.wav
367,192,46030,1,0,0:0:0:75:D3S_s.wav
214,192,46145,1,0,0:0:0:75:D4S_s.wav
469,192,46259,1,0,0:0:0:75:D3S_s.wav
163,192,46374,1,0,0:0:0:75:D4S_s.wav
418,192,46488,1,0,0:0:0:75:D3S_s.wav
61,192,46603,1,0,0:0:0:75:D4S_s.wav
265,192,46717,1,0,0:0:0:75:D3S_s.wav
112,192,46832,1,0,0:0:0:75:D4S_s.wav
316,192,46946,1,0,0:0:0:75:D3S_s.wav
10,192,47061,1,0,0:0:0:75:D4S_s.wav
367,192,47175,1,0,0:0:0:75:D3S_s.wav
214,192,47290,1,0,0:0:0:75:D4S_s.wav
469,192,47404,1,0,0:0:0:75:D3S_s.wav
163,192,47519,1,0,0:0:0:75:D4S_s.wav
418,192,47633,1,0,0:0:0:75:A2S_s.wav
61,192,47748,1,0,0:0:0:75:A3S_s.wav
265,192,47862,1,0,0:0:0:75:A2S_s.wav
112,192,47977,1,0,0:0:0:75:A3S_s.wav
316,192,48091,1,0,0:0:0:75:A2S_s.wav
10,192,48206,1,0,0:0:0:75:A3S_s.wav
367,192,48320,1,0,0:0:0:75:A2S_s.wav
214,192,48435,1,0,0:0:0:75:A3S_s.wav
469,192,48549,1,0,0:0:0:75:A2S_s.wav
163,192,48664,1,0,0:0:0:75:A3S_s.wav
418,192,48778,1,0,0:0:0:75:A2S_s.wav
61,192,48893,1,0,0:0:0:75:A3S_s.wav
265,192,49007,1,0,0:0:0:75:A2S_s.wav
112,192,49122,1,0,0:0:0:75:A3S_s.wav
316,192,49237,1,0,0:0:0:75:A2S_s.wav
10,192,49351,1,0,0:0:0:75:A3S_s.wav
367,192,49466,1,0,0:0:0:75:C3S_s.wav
214,192,49580,1,0,0:0:0:75:C4S_s.wav
469,192,49695,1,0,0:0:0:75:C3S_s.wav
163,192,49809,1,0,0:0:0:75:C4S_s.wav
418,192,49924,1,0,0:0:0:75:C3S_s.wav
61,192,50038,1,0,0:0:0:75:C4S_s.wav
265,192,50153,1,0,0:0:0:75:C3S_s.wav
112,192,50267,1,0,0:0:0:75:C4S_s.wav
316,192,50382,1,0,0:0:0:75:D3S_s.wav
10,192,50496,1,0,0:0:0:75:D4S_s.wav
367,192,50611,1,0,0:0:0:75:D3S_s.wav
214,192,50725,1,0,0:0:0:75:D4S_s.wav
469,192,50840,1,0,0:0:0:75:D3S_s.wav
163,192,50954,1,0,0:0:0:75:D4S_s.wav
418,192,51069,1,0,0:0:0:75:D3S_s.wav
61,192,51183,1,0,0:0:0:75:D4S_s.wav
265,192,51298,1,0,0:0:0:75:E3S_s.wav
112,192,51412,1,0,0:0:0:75:E4S_s.wav
316,192,51527,1,0,0:0:0:75:E3S_s.wav
10,192,51641,1,0,0:0:0:75:E4S_s.wav
367,192,51756,1,0,0:0:0:75:E3S_s.wav
214,192,51870,1,0,0:0:0:75:E4S_s.wav
469,192,51985,1,0,0:0:0:75:E3S_s.wav
163,192,52099,1,0,0:0:0:75:E4S_s.wav
418,192,52214,1,0,0:0:0:75:E3S_s.wav
61,192,52328,1,0,0:0:0:75:E4S_s.wav
265,192,52443,1,0,0:0:0:75:E3S_s.wav
112,192,52557,1,0,0:0:0:75:E4S_s.wav
316,192,52672,1,0,0:0:0:75:E3S_s.wav
10,192,52786,1,0,0:0:0:75:E4S_s.wav
367,192,52901,1,0,0:0:0:75:E3S_s.wav
214,192,53015,1,0,0:0:0:75:E4S_s.wav
469,192,53130,1,0,0:0:0:75:D3S_s.wav
163,192,53244,1,0,0:0:0:75:D4S_s.wav
418,192,53359,1,0,0:0:0:75:D3S_s.wav
61,192,53473,1,0,0:0:0:75:D4S_s.wav
265,192,53588,1,0,0:0:0:75:D3S_s.wav
112,192,53702,1,0,0:0:0:75:D4S_s.wav
316,192,53817,1,0,0:0:0:75:D3S_s.wav
10,192,53931,1,0,0:0:0:75:D4S_s.wav
367,192,54046,1,0,0:0:0:75:D3S_s.wav
214,192,54160,1,0,0:0:0:75:D4S_s.wav
469,192,54275,1,0,0:0:0:75:D3S_s.wav
163,192,54389,1,0,0:0:0:75:D4S_s.wav
418,192,54504,1,0,0:0:0:75:D3S_s.wav
61,192,54618,1,0,0:0:0:75:D4S_s.wav
265,192,54733,1,0,0:0:0:75:D3S_s.wav
112,192,54847,1,0,0:0:0:75:D4S_s.wav
316,192,54962,1,0,0:0:0:75:A2S_s.wav
10,192,55076,1,0,0:0:0:75:A3S_s.wav
367,192,55191,1,0,0:0:0:75:A2S_s.wav
214,192,55305,1,0,0:0:0:75:A3S_s.wav
469,192,55420,1,0,0:0:0:75:A2S_s.wav
163,192,55534,1,0,0:0:0:75:A3S_s.wav
418,192,55649,1,0,0:0:0:75:A2S_s.wav
61,192,55763,1,0,0:0:0:75:A3S_s.wav
265,192,55878,1,0,0:0:0:75:A2S_s.wav
112,192,55992,1,0,0:0:0:75:A3S_s.wav
316,192,56107,1,0,0:0:0:75:A2S_s.wav
10,192,56221,1,0,0:0:0:75:A3S_s.wav
367,192,56336,1,0,0:0:0:75:A2S_s.wav
214,192,56450,1,0,0:0:0:75:A3S_s.wav
469,192,56565,1,0,0:0:0:75:A2S_s.wav
163,192,56679,1,0,0:0:0:75:A3S_s.wav
418,192,56794,1,0,0:0:0:75:C3S_s.wav
61,192,56908,1,0,0:0:0:75:C4S_s.wav
265,192,57023,1,0,0:0:0:75:C3S_s.wav
112,192,57137,1,0,0:0:0:75:C4S_s.wav
316,192,57252,1,0,0:0:0:75:C3S_s.wav
10,192,57366,1,0,0:0:0:75:C4S_s.wav
367,192,57481,1,0,0:0:0:75:C3S_s.wav
214,192,57595,1,0,0:0:0:75:C4S_s.wav
469,192,57710,1,0,0:0:0:75:D3S_s.wav
163,192,57824,1,0,0:0:0:75:D4S_s.wav
418,192,57939,1,0,0:0:0:75:D3S_s.wav
61,192,58053,1,0,0:0:0:75:D4S_s.wav
265,192,58168,1,0,0:0:0:75:D3S_s.wav
112,192,58282,1,0,0:0:0:75:D4S_s.wav
316,192,58397,1,0,0:0:0:75:D3S_s.wav
10,192,58511,1,0,0:0:0:75:D4S_s.wav
214,192,58626,1,0,0:0:0:75:E3S_s.wav
367,192,58626,1,0,0:0:0:75:B5S.wav
469,192,58626,1,0,0:0:0:88:G6S.wav
163,192,58740,1,0,0:0:0:75:E4S_s.wav
418,192,58855,1,0,0:0:0:75:E3S_s.wav
61,192,58969,1,0,0:0:0:75:E4S_s.wav
112,192,59084,1,0,0:0:0:75:E3S_s.wav
265,192,59084,1,0,0:0:0:88:E6S.wav
316,192,59198,1,0,0:0:0:75:E4S_s.wav
10,192,59313,1,0,0:0:0:75:E3S_s.wav
367,192,59427,1,0,0:0:0:75:E4S_s.wav
214,192,59542,1,0,0:0:0:75:E3S_s.wav
469,192,59542,1,0,0:0:0:88:D7S.wav
163,192,59656,1,0,0:0:0:75:E4S_s.wav
418,192,59771,1,0,0:0:0:75:E3S_s.wav
61,192,59885,1,0,0:0:0:75:E4S_s.wav
265,192,60000,1,0,0:0:0:75:E3S_s.wav
112,192,60114,1,0,0:0:0:75:E4S_s.wav
316,192,60229,1,0,0:0:0:75:E3S_s.wav
10,192,60343,1,0,0:0:0:75:E4S_s.wav
214,192,60458,1,0,0:0:0:75:D3S_s.wav
367,192,60458,1,0,0:0:0:88:A6S.wav
469,192,60572,1,0,0:0:0:75:D4S_s.wav
163,192,60687,1,0,0:0:0:75:D3S_s.wav
418,192,60801,1,0,0:0:0:75:D4S_s.wav
61,192,60916,1,0,0:0:0:75:D3S_s.wav
265,192,61030,1,0,0:0:0:75:D4S_s.wav
112,192,61145,1,0,0:0:0:75:D3S_s.wav
316,192,61259,1,0,0:0:0:75:D4S_s.wav
10,192,61374,1,0,0:0:0:75:D3S_s.wav
367,192,61488,1,0,0:0:0:75:D4S_s.wav
214,192,61603,1,0,0:0:0:75:D3S_s.wav
469,192,61717,1,0,0:0:0:75:D4S_s.wav
163,192,61832,1,0,0:0:0:75:D3S_s.wav
418,192,61946,1,0,0:0:0:75:D4S_s.wav
61,192,62061,1,0,0:0:0:75:D3S_s.wav
265,192,62061,1,0,0:0:0:88:B6S_s.wav
112,192,62175,1,0,0:0:0:75:D4S_s.wav
10,192,62290,1,0,0:0:0:75:A2S_s.wav
316,192,62290,1,0,0:0:0:75:D6S.wav
367,192,62290,1,0,0:0:0:88:G6S.wav
214,192,62404,1,0,0:0:0:75:A3S_s.wav
469,192,62519,1,0,0:0:0:75:A2S_s.wav
163,192,62633,1,0,0:0:0:75:A3S_s.wav
418,192,62748,1,0,0:0:0:75:A2S_s.wav
61,192,62862,1,0,0:0:0:75:A3S_s.wav
265,192,62977,1,0,0:0:0:75:A2S_s.wav
112,192,63091,1,0,0:0:0:75:A3S_s.wav
10,192,63206,1,0,0:0:0:75:A2S_s.wav
367,192,63206,1,0,0:0:0:88:E6S.wav
316,192,63320,1,0,0:0:0:75:A3S_s.wav
214,192,63435,1,0,0:0:0:75:A2S_s.wav
469,192,63549,1,0,0:0:0:75:A3S_s.wav
163,192,63664,1,0,0:0:0:75:A2S_s.wav
418,192,63778,1,0,0:0:0:75:A3S_s.wav
61,192,63893,1,0,0:0:0:75:A2S_s.wav
265,192,64007,1,0,0:0:0:75:A3S_s.wav
10,192,64122,1,0,0:0:0:75:C3S_s.wav
112,192,64122,1,0,0:0:0:75:C6S.wav
367,192,64122,1,0,0:0:0:88:G6S.wav
316,192,64236,1,0,0:0:0:75:C4S_s.wav
214,192,64351,1,0,0:0:0:75:C3S_s.wav
469,192,64465,1,0,0:0:0:75:C4S_s.wav
163,192,64580,1,0,0:0:0:75:C3S_s.wav
418,192,64580,1,0,0:0:0:88:E6S.wav
61,192,64694,1,0,0:0:0:75:C4S_s.wav
265,192,64809,1,0,0:0:0:75:C3S_s.wav
112,192,64923,1,0,0:0:0:75:C4S_s.wav
10,192,65038,1,0,0:0:0:75:D3S_s.wav
367,192,65038,1,0,0:0:0:88:F#6S_Gb6S.wav
316,192,65152,1,0,0:0:0:75:D4S_s.wav
214,192,65267,1,0,0:0:0:75:D3S_s.wav
469,192,65381,1,0,0:0:0:75:D4S_s.wav
163,192,65496,1,0,0:0:0:75:D3S_s.wav
418,192,65496,1,0,0:0:0:88:D6S.wav
61,192,65611,1,0,0:0:0:75:D4S_s.wav
112,192,65725,1,0,0:0:0:75:D3S_s.wav
265,192,65725,1,0,0:0:0:75:D6S_s.wav
367,192,65840,1,0,0:0:0:75:D4S_s.wav
10,192,65954,1,0,0:0:0:75:E3S_s.wav
214,192,65954,1,0,0:0:0:75:B5S.wav
316,192,65954,1,0,0:0:0:88:G6S.wav
469,192,66069,1,0,0:0:0:75:E4S_s.wav
163,192,66183,1,0,0:0:0:75:E3S_s.wav
418,192,66298,1,0,0:0:0:75:E4S_s.wav
61,192,66412,1,0,0:0:0:75:E3S_s.wav
265,192,66412,1,0,0:0:0:88:E6S.wav
112,192,66527,1,0,0:0:0:75:E4S_s.wav
367,192,66641,1,0,0:0:0:75:E3S_s.wav
214,192,66756,1,0,0:0:0:75:E4S_s.wav
10,192,66870,1,0,0:0:0:75:E3S_s.wav
316,192,66870,1,0,0:0:0:88:D7S.wav
469,192,66985,1,0,0:0:0:75:E4S_s.wav
163,192,67099,1,0,0:0:0:75:E3S_s.wav
418,192,67214,1,0,0:0:0:75:E4S_s.wav
61,192,67328,1,0,0:0:0:75:E3S_s.wav
265,192,67443,1,0,0:0:0:75:E4S_s.wav
112,192,67557,1,0,0:0:0:75:E3S_s.wav
367,192,67672,1,0,0:0:0:75:E4S_s.wav
214,192,67786,1,0,0:0:0:75:D3S_s.wav
316,192,67786,1,0,0:0:0:88:A6S.wav
10,192,67901,1,0,0:0:0:75:D4S_s.wav
469,192,68015,1,0,0:0:0:75:D3S_s.wav
163,192,68130,1,0,0:0:0:75:D4S_s.wav
418,192,68244,1,0,0:0:0:75:D3S_s.wav
61,192,68359,1,0,0:0:0:75:D4S_s.wav
265,192,68473,1,0,0:0:0:75:D3S_s.wav
112,192,68588,1,0,0:0:0:75:D4S_s.wav
367,192,68702,1,0,0:0:0:75:D3S_s.wav
214,192,68817,1,0,0:0:0:75:D4S_s.wav
316,192,68931,1,0,0:0:0:75:D3S_s.wav
10,192,69046,1,0,0:0:0:75:D4S_s.wav
469,192,69160,1,0,0:0:0:75:D3S_s.wav
163,192,69275,1,0,0:0:0:75:D4S_s.wav
61,192,69389,1,0,0:0:0:75:D3S_s.wav
418,192,69389,1,0,0:0:0:88:B6S_s.wav
265,192,69504,1,0,0:0:0:75:D4S_s.wav
112,192,69618,1,0,0:0:0:75:A2S_s.wav
214,192,69618,1,0,0:0:0:75:D6S.wav
367,192,69618,1,0,0:0:0:88:G6S.wav
316,192,69733,1,0,0:0:0:75:A3S_s.wav
10,192,69847,1,0,0:0:0:75:A2S_s.wav
469,192,69962,1,0,0:0:0:75:A3S_s.wav
163,192,70076,1,0,0:0:0:75:A2S_s.wav
418,192,70191,1,0,0:0:0:75:A3S_s.wav
61,192,70305,1,0,0:0:0:75:A2S_s.wav
265,192,70420,1,0,0:0:0:75:A3S_s.wav
214,192,70534,1,0,0:0:0:75:A2S_s.wav
367,192,70534,1,0,0:0:0:88:E6S.wav
112,192,70649,1,0,0:0:0:75:A3S_s.wav
316,192,70763,1,0,0:0:0:75:A2S_s.wav
10,192,70878,1,0,0:0:0:75:A3S_s.wav
469,192,70992,1,0,0:0:0:75:A2S_s.wav
163,192,71107,1,0,0:0:0:75:A3S_s.wav
418,192,71221,1,0,0:0:0:75:A2S_s.wav
61,192,71336,1,0,0:0:0:75:A3S_s.wav
214,192,71450,1,0,0:0:0:75:C3S_s.wav
265,192,71450,1,0,0:0:0:75:C6S.wav
367,192,71450,1,0,0:0:0:88:G6S.wav
112,192,71565,1,0,0:0:0:75:C4S_s.wav
316,192,71679,1,0,0:0:0:75:C3S_s.wav
10,192,71794,1,0,0:0:0:75:C4S_s.wav
163,192,71908,1,0,0:0:0:75:C3S_s.wav
469,192,71908,1,0,0:0:0:88:E6S.wav
418,192,72023,1,0,0:0:0:75:C4S_s.wav
61,192,72137,1,0,0:0:0:75:C3S_s.wav
265,192,72252,1,0,0:0:0:75:C4S_s.wav
214,192,72366,1,0,0:0:0:75:D3S_s.wav
367,192,72366,1,0,0:0:0:88:F#6S_Gb6S.wav
112,192,72481,1,0,0:0:0:75:D4S_s.wav
316,192,72595,1,0,0:0:0:75:D3S_s.wav
10,192,72710,1,0,0:0:0:75:D4S_s.wav
163,192,72824,1,0,0:0:0:75:D3S_s.wav
469,192,72824,1,0,0:0:0:88:D6S.wav
418,192,72939,1,0,0:0:0:75:D4S_s.wav
61,192,73053,1,0,0:0:0:75:D3S_s.wav
265,192,73053,1,0,0:0:0:75:D6S_s.wav
214,192,73168,1,0,0:0:0:75:D4S_s.wav
112,192,73282,1,0,0:0:0:75:E3S_s.wav
367,192,73282,1,0,0:0:0:75:B5S_s.wav
10,192,73397,1,0,0:0:0:75:E4S_s.wav
316,192,73397,1,0,0:0:0:75:E6S_s.wav
163,192,73511,1,0,0:0:0:75:E3S_s.wav
469,192,73511,1,0,0:0:0:75:G6S_s.wav
61,192,73626,1,0,0:0:0:75:E4S_s.wav
418,192,73626,1,0,0:0:0:75:E6S_s.wav
214,192,73740,1,0,0:0:0:75:E3S_s.wav
265,192,73740,1,0,0:0:0:75:G6S_s.wav
112,192,73855,1,0,0:0:0:75:E4S_s.wav
367,192,73855,1,0,0:0:0:75:E7S_s.wav
10,192,73969,1,0,0:0:0:75:E3S_s.wav
316,192,73969,1,0,0:0:0:75:G7S_s.wav
163,192,74084,1,0,0:0:0:75:E4S_s.wav
469,192,74084,1,0,0:0:0:75:E7S_s.wav
61,192,74198,1,0,0:0:0:75:E3S_s.wav
418,192,74198,1,0,0:0:0:75:B5S_s.wav
214,192,74313,1,0,0:0:0:75:E4S_s.wav
265,192,74313,1,0,0:0:0:75:E6S_s.wav
112,192,74427,1,0,0:0:0:75:E3S_s.wav
367,192,74427,1,0,0:0:0:75:F#6S_Gb6S_s.wav
10,192,74542,1,0,0:0:0:75:E4S_s.wav
316,192,74542,1,0,0:0:0:75:E6S_s.wav
163,192,74656,1,0,0:0:0:75:E3S_s.wav
469,192,74656,1,0,0:0:0:75:B6S_s.wav
61,192,74771,1,0,0:0:0:75:E4S_s.wav
418,192,74771,1,0,0:0:0:75:E7S_s.wav
214,192,74885,1,0,0:0:0:75:E3S_s.wav
265,192,74885,1,0,0:0:0:75:F#7S_Gb7S_s.wav
112,192,75000,1,0,0:0:0:75:E4S_s.wav
367,192,75000,1,0,0:0:0:75:E7S_s.wav
10,192,75114,1,0,0:0:0:75:D3S_s.wav
316,192,75114,1,0,0:0:0:75:A5S_s.wav
163,192,75229,1,0,0:0:0:75:D4S_s.wav
469,192,75229,1,0,0:0:0:75:E6S_s.wav
61,192,75343,1,0,0:0:0:75:D3S_s.wav
418,192,75343,1,0,0:0:0:75:F#6S_Gb6S_s.wav
214,192,75458,1,0,0:0:0:75:D4S_s.wav
265,192,75458,1,0,0:0:0:75:E6S_s.wav
112,192,75572,1,0,0:0:0:75:D3S_s.wav
367,192,75572,1,0,0:0:0:75:B6S_s.wav
10,192,75687,1,0,0:0:0:75:D4S_s.wav
316,192,75687,1,0,0:0:0:75:E7S_s.wav
163,192,75801,1,0,0:0:0:75:D3S_s.wav
469,192,75801,1,0,0:0:0:75:F#7S_Gb7S_s.wav
61,192,75916,1,0,0:0:0:75:D4S_s.wav
418,192,75916,1,0,0:0:0:75:E7S_s.wav
214,192,76030,1,0,0:0:0:75:D3S_s.wav
265,192,76030,1,0,0:0:0:75:G5S_s.wav
112,192,76145,1,0,0:0:0:75:D4S_s.wav
367,192,76145,1,0,0:0:0:75:D6S_s.wav
10,192,76259,1,0,0:0:0:75:D3S_s.wav
316,192,76259,1,0,0:0:0:75:F#6S_Gb6S_s.wav
163,192,76374,1,0,0:0:0:75:D4S_s.wav
469,192,76374,1,0,0:0:0:75:D6S_s.wav
61,192,76488,1,0,0:0:0:75:D3S_s.wav
418,192,76488,1,0,0:0:0:75:B6S_s.wav
214,192,76603,1,0,0:0:0:75:D4S_s.wav
265,192,76603,1,0,0:0:0:75:E7S_s.wav
112,192,76717,1,0,0:0:0:75:D3S_s.wav
367,192,76717,1,0,0:0:0:75:F#7S_Gb7S_s.wav
10,192,76832,1,0,0:0:0:75:D4S_s.wav
316,192,76832,1,0,0:0:0:75:E7S_s.wav
163,192,76946,1,0,0:0:0:75:A2S_s.wav
469,192,76946,1,0,0:0:0:75:C6S_s.wav
61,192,77061,1,0,0:0:0:75:A3S_s.wav
418,192,77061,1,0,0:0:0:75:E6S_s.wav
214,192,77175,1,0,0:0:0:75:A2S_s.wav
265,192,77175,1,0,0:0:0:75:G6S_s.wav
112,192,77290,1,0,0:0:0:75:A3S_s.wav
367,192,77290,1,0,0:0:0:75:E6S_s.wav
10,192,77404,1,0,0:0:0:75:A2S_s.wav
316,192,77404,1,0,0:0:0:75:G6S_s.wav
163,192,77519,1,0,0:0:0:75:A3S_s.wav
469,192,77519,1,0,0:0:0:75:E7S_s.wav
61,192,77633,1,0,0:0:0:75:A2S_s.wav
418,192,77633,1,0,0:0:0:75:G7S_s.wav
214,192,77748,1,0,0:0:0:75:A3S_s.wav
265,192,77748,1,0,0:0:0:75:E7S_s.wav
112,192,77862,1,0,0:0:0:75:A2S_s.wav
367,192,77862,1,0,0:0:0:75:G5S_s.wav
10,192,77977,1,0,0:0:0:75:A3S_s.wav
316,192,77977,1,0,0:0:0:75:E6S_s.wav
163,192,78091,1,0,0:0:0:75:A2S_s.wav
469,192,78091,1,0,0:0:0:75:F#6S_Gb6S_s.wav
61,192,78206,1,0,0:0:0:75:A3S_s.wav
418,192,78206,1,0,0:0:0:75:E6S_s.wav
214,192,78320,1,0,0:0:0:75:A2S_s.wav
265,192,78320,1,0,0:0:0:75:B6S_s.wav
112,192,78435,1,0,0:0:0:75:A3S_s.wav
367,192,78435,1,0,0:0:0:75:E7S_s.wav
10,192,78549,1,0,0:0:0:75:A2S_s.wav
316,192,78549,1,0,0:0:0:75:F#7S_Gb7S_s.wav
163,192,78664,1,0,0:0:0:75:A3S_s.wav
469,192,78664,1,0,0:0:0:75:E7S_s.wav
61,192,78778,1,0,0:0:0:75:C3S_s.wav
418,192,78778,1,0,0:0:0:75:C6S_s.wav
214,192,78893,1,0,0:0:0:75:C4S_s.wav
265,192,78893,1,0,0:0:0:75:E6S_s.wav
112,192,79007,1,0,0:0:0:75:C3S_s.wav
367,192,79007,1,0,0:0:0:75:G6S_s.wav
10,192,79122,1,0,0:0:0:75:C4S_s.wav
316,192,79122,1,0,0:0:0:75:E6S_s.wav
163,192,79236,1,0,0:0:0:75:C3S_s.wav
469,192,79236,1,0,0:0:0:75:G6S_s.wav
61,192,79351,1,0,0:0:0:75:C4S_s.wav
418,192,79351,1,0,0:0:0:75:E7S_s.wav
214,192,79465,1,0,0:0:0:75:C3S_s.wav
265,192,79465,1,0,0:0:0:75:G7S_s.wav
112,192,79580,1,0,0:0:0:75:C4S_s.wav
367,192,79580,1,0,0:0:0:75:E7S_s.wav
10,192,79694,1,0,0:0:0:75:D3S_s.wav
316,192,79694,1,0,0:0:0:75:A5S_s.wav
163,192,79809,1,0,0:0:0:75:D4S_s.wav
469,192,79809,1,0,0:0:0:75:E6S_s.wav
61,192,79923,1,0,0:0:0:75:D3S_s.wav
418,192,79923,1,0,0:0:0:75:F#6S_Gb6S_s.wav
214,192,80038,1,0,0:0:0:75:D4S_s.wav
265,192,80038,1,0,0:0:0:75:E6S_s.wav
112,192,80152,1,0,0:0:0:75:D3S_s.wav
367,192,80152,1,0,0:0:0:75:A5S_s.wav
10,192,80267,1,0,0:0:0:75:D4S_s.wav
316,192,80267,1,0,0:0:0:75:E6S_s.wav
163,192,80381,1,0,0:0:0:75:D3S_s.wav
469,192,80381,1,0,0:0:0:75:F#6S_Gb6S_s.wav
61,192,80496,1,0,0:0:0:75:D4S_s.wav
418,192,80496,1,0,0:0:0:75:E6S_s.wav
214,192,80610,1,0,0:0:0:75:D3S_s.wav
265,192,80610,1,0,0:0:0:75:A5S_s.wav
112,192,80725,1,0,0:0:0:75:D4S_s.wav
367,192,80725,1,0,0:0:0:75:E6S_s.wav
10,192,80839,1,0,0:0:0:75:D3S_s.wav
316,192,80839,1,0,0:0:0:75:F#6S_Gb6S_s.wav
163,192,80954,1,0,0:0:0:75:D4S_s.wav
469,192,80954,1,0,0:0:0:75:E6S_s.wav
61,192,81068,1,0,0:0:0:75:D3S_s.wav
418,192,81068,1,0,0:0:0:75:A5S_s.wav
214,192,81183,1,0,0:0:0:75:D4S_s.wav
265,192,81183,1,0,0:0:0:75:E6S_s.wav
112,192,81297,1,0,0:0:0:75:D3S_s.wav
367,192,81297,1,0,0:0:0:75:F#6S_Gb6S_s.wav
10,192,81412,1,0,0:0:0:75:D4S_s.wav
316,192,81412,1,0,0:0:0:75:E6S_s.wav
163,192,81526,1,0,0:0:0:75:D3S_s.wav
469,192,81526,1,0,0:0:0:75:A5S_s.wav
61,192,81640,1,0,0:0:0:75:D4S_s.wav
418,192,81640,1,0,0:0:0:75:E6S_s.wav
214,192,81753,1,0,0:0:0:75:D3S_s.wav
265,192,81753,1,0,0:0:0:75:F#6S_Gb6S_s.wav
112,192,81867,1,0,0:0:0:75:D4S_s.wav
367,192,81867,1,0,0:0:0:75:E6S_s.wav
10,192,81981,1,0,0:0:0:75:D3S_s.wav
316,192,81981,1,0,0:0:0:75:A5S_s.wav
163,192,82092,1,0,0:0:0:75:D4S_s.wav
469,192,82092,1,0,0:0:0:75:E6S_s.wav
61,192,82203,1,0,0:0:0:75:D3S_s.wav
418,192,82203,1,0,0:0:0:75:F#6S_Gb6S_s.wav
214,192,82314,1,0,0:0:0:75:D4S_s.wav
265,192,82314,1,0,0:0:0:75:E6S_s.wav
112,192,82425,1,0,0:0:0:75:D3S_s.wav
316,192,82425,1,0,0:0:0:75:A5S_s.wav
367,192,82425,1,0,0:0:0:75:B5S_s.wav
10,192,82534,1,0,0:0:0:75:D4S_s.wav
469,192,82534,1,0,0:0:0:75:E6S_s.wav
61,192,82642,1,0,0:0:0:75:D3S_s.wav
163,192,82642,1,0,0:0:0:75:B5S_s.wav
418,192,82642,1,0,0:0:0:75:F#6S_Gb6S_s.wav
214,192,82751,1,0,0:0:0:75:D4S_s.wav
265,192,82751,1,0,0:0:0:75:E6S_s.wav
112,192,82860,1,0,0:0:0:75:D3S_s.wav
316,192,82860,1,0,0:0:0:75:A5S_s.wav
367,192,82860,1,0,0:0:0:75:B5S_s.wav
10,192,82967,1,0,0:0:0:75:D4S_s.wav
469,192,82967,1,0,0:0:0:75:E6S_s.wav
61,192,83074,1,0,0:0:0:75:D3S_s.wav
163,192,83074,1,0,0:0:0:75:B5S_s.wav
418,192,83074,1,0,0:0:0:75:F#6S_Gb6S_s.wav
214,192,83181,1,0,0:0:0:75:D4S_s.wav
265,192,83181,1,0,0:0:0:75:A5S_s.wav
316,192,83181,1,0,0:0:0:75:E6S_s.wav
112,192,83396,1,0,0:0:0:75:B5S_s.wav
367,192,83610,1,0,0:0:0:75:A5S.wav
10,192,83632,1,0,0:0:0:75:B5S.wav
469,192,83655,1,0,0:0:0:75:C6S.wav
163,192,83678,1,0,0:0:0:75:D6S.wav
418,192,83701,1,0,0:0:0:75:E6S.wav
61,192,83724,1,0,0:0:0:75:F#6S_Gb6S.wav
265,192,83747,1,0,0:0:0:75:G6S.wav
214,192,83770,1,0,0:0:0:75:A6S.wav
316,192,83792,1,0,0:0:0:75:B6S.wav
112,192,83815,1,0,0:0:0:75:C7S.wav
367,192,83838,1,0,0:0:0:75:D7S.wav
10,192,83861,1,0,0:0:0:75:E7S.wav
163,192,84146,1,0,0:0:0:99:F#3S_Gb3S_s.wav
418,192,84146,1,0,0:0:0:99:F#5S_Gb5S.wav
469,192,84146,1,0,0:0:0:88:C#6S_Db6S_s.wav
61,192,84199,1,0,0:0:0:88:F#6S_Gb6S_s.wav
214,192,84251,1,0,0:0:0:99:F#4S_Gb4S_s.wav
265,192,84251,1,0,0:0:0:88:A6S_s.wav
316,192,84304,1,0,0:0:0:88:F#6S_Gb6S_s.wav
112,192,84357,1,0,0:0:0:99:F#3S_Gb3S_s.wav
367,192,84357,1,0,0:0:0:88:A6S_s.wav
10,192,84409,1,0,0:0:0:88:F#7S_Gb7S_s.wav
163,192,84462,1,0,0:0:0:99:F#4S_Gb4S_s.wav
418,192,84462,1,0,0:0:0:88:A7S_s.wav
469,192,84514,1,0,0:0:0:88:F#7S_Gb7S_s.wav
61,192,84567,1,0,0:0:0:99:F#3S_Gb3S_s.wav
265,192,84567,1,0,0:0:0:88:C#6S_Db6S_s.wav
214,192,84620,1,0,0:0:0:88:F#6S_Gb6S_s.wav
112,192,84672,1,0,0:0:0:99:F#4S_Gb4S_s.wav
316,192,84672,1,0,0:0:0:88:A6S_s.wav
367,192,84725,1,0,0:0:0:88:F#6S_Gb6S_s.wav
10,192,84778,1,0,0:0:0:99:F#3S_Gb3S_s.wav
163,192,84778,1,0,0:0:0:99:G#5S_Ab5S_s.wav
418,192,84778,1,0,0:0:0:88:A6S_s.wav
469,192,84830,1,0,0:0:0:88:F#7S_Gb7S_s.wav
61,192,84883,1,0,0:0:0:99:F#4S_Gb4S_s.wav
214,192,84883,1,0,0:0:0:99:A5S_s.wav
265,192,84883,1,0,0:0:0:88:A7S_s.wav
316,192,84935,1,0,0:0:0:88:F#7S_Gb7S_s.wav
10,192,84988,1,0,0:0:0:99:F#3S_Gb3S_s.wav
112,192,84988,1,0,0:0:0:99:B5S_s.wav
367,192,84988,1,0,0:0:0:88:C#6S_Db6S_s.wav
418,192,85041,1,0,0:0:0:88:F#6S_Gb6S_s.wav
163,192,85093,1,0,0:0:0:99:F#4S_Gb4S_s.wav
469,192,85093,1,0,0:0:0:88:G#6S_Ab6S_s.wav
214,192,85146,1,0,0:0:0:88:F#6S_Gb6S_s.wav
61,192,85199,1,0,0:0:0:99:F#3S_Gb3S_s.wav
265,192,85199,1,0,0:0:0:99:A5S_s.wav
316,192,85199,1,0,0:0:0:88:C#7S_Db7S_s.wav
112,192,85251,1,0,0:0:0:88:F#7S_Gb7S_s.wav
10,192,85304,1,0,0:0:0:99:F#4S_Gb4S_s.wav
367,192,85304,1,0,0:0:0:99:G#5S_Ab5S_s.wav
418,192,85304,1,0,0:0:0:88:G#7S_Ab7S_s.wav
163,192,85357,1,0,0:0:0:88:F#7S_Gb7S_s.wav
214,192,85409,1,0,0:0:0:99:F#3S_Gb3S_s.wav
469,192,85409,1,0,0:0:0:88:C#6S_Db6S_s.wav
316,192,85462,1,0,0:0:0:88:F#6S_Gb6S_s.wav
61,192,85514,1,0,0:0:0:99:F#4S_Gb4S_s.wav
112,192,85514,1,0,0:0:0:99:A5S_s.wav
265,192,85514,1,0,0:0:0:88:G#6S_Ab6S_s.wav
367,192,85567,1,0,0:0:0:88:F#6S_Gb6S_s.wav
10,192,85620,1,0,0:0:0:99:F#3S_Gb3S_s.wav
163,192,85620,1,0,0:0:0:99:F#5S_Gb5S_s.wav
418,192,85620,1,0,0:0:0:88:C#7S_Db7S_s.wav
469,192,85672,1,0,0:0:0:88:F#7S_Gb7S_s.wav
214,192,85725,1,0,0:0:0:99:F#4S_Gb4S_s.wav
316,192,85725,1,0,0:0:0:88:G#7S_Ab7S_s.wav
112,192,85778,1,0,0:0:0:88:F#7S_Gb7S_s.wav
61,192,85830,1,0,0:0:0:99:E3S_s.wav
265,192,85830,1,0,0:0:0:99:E5S.wav
367,192,85830,1,0,0:0:0:88:B5S_s.wav
163,192,85883,1,0,0:0:0:88:F#6S_Gb6S_s.wav
10,192,85935,1,0,0:0:0:99:E4S_s.wav
418,192,85935,1,0,0:0:0:88:G#6S_Ab6S_s.wav
469,192,85988,1,0,0:0:0:88:F#6S_Gb6S_s.wav
214,192,86041,1,0,0:0:0:99:E3S_s.wav
316,192,86041,1,0,0:0:0:88:C#7S_Db7S_s.wav
112,192,86093,1,0,0:0:0:88:F#7S_Gb7S_s.wav
61,192,86146,1,0,0:0:0:99:E4S_s.wav
265,192,86146,1,0,0:0:0:88:G#7S_Ab7S_s.wav
367,192,86199,1,0,0:0:0:88:F#7S_Gb7S_s.wav
163,192,86251,1,0,0:0:0:99:E3S_s.wav
418,192,86251,1,0,0:0:0:88:B5S_s.wav
10,192,86304,1,0,0:0:0:88:F#6S_Gb6S_s.wav
214,192,86357,1,0,0:0:0:99:E4S_s.wav
469,192,86357,1,0,0:0:0:88:G#6S_Ab6S_s.wav
316,192,86409,1,0,0:0:0:88:F#6S_Gb6S_s.wav
61,192,86462,1,0,0:0:0:99:E3S_s.wav
112,192,86462,1,0,0:0:0:99:F#5S_Gb5S_s.wav
265,192,86462,1,0,0:0:0:88:C#7S_Db7S_s.wav
367,192,86514,1,0,0:0:0:88:F#7S_Gb7S_s.wav
10,192,86567,1,0,0:0:0:99:E4S_s.wav
163,192,86567,1,0,0:0:0:99:G#5S_Ab5S_s.wav
418,192,86567,1,0,0:0:0:88:G#7S_Ab7S_s.wav
469,192,86620,1,0,0:0:0:88:F#7S_Gb7S_s.wav
61,192,86672,1,0,0:0:0:99:E3S_s.wav
214,192,86672,1,0,0:0:0:99:D5S.wav
316,192,86672,1,0,0:0:0:88:A5S_s.wav
265,192,86725,1,0,0:0:0:88:E6S_s.wav
112,192,86778,1,0,0:0:0:99:E4S_s.wav
367,192,86778,1,0,0:0:0:88:G#6S_Ab6S_s.wav
10,192,86830,1,0,0:0:0:88:E6S_s.wav
163,192,86883,1,0,0:0:0:99:E3S_s.wav
418,192,86883,1,0,0:0:0:88:C#7S_Db7S_s.wav
469,192,86935,1,0,0:0:0:88:F#7S_Gb7S_s.wav
214,192,86988,1,0,0:0:0:99:E4S_s.wav
316,192,86988,1,0,0:0:0:88:G#7S_Ab7S_s.wav
61,192,87041,1,0,0:0:0:88:F#7S_Gb7S_s.wav
112,192,87093,1,0,0:0:0:99:E3S_s.wav
265,192,87093,1,0,0:0:0:88:A5S_s.wav
367,192,87146,1,0,0:0:0:88:E6S_s.wav
10,192,87199,1,0,0:0:0:99:E4S_s.wav
418,192,87199,1,0,0:0:0:88:G#6S_Ab6S_s.wav
163,192,87251,1,0,0:0:0:88:E6S_s.wav
214,192,87304,1,0,0:0:0:99:E3S_s.wav
316,192,87304,1,0,0:0:0:99:E5S_s.wav
469,192,87304,1,0,0:0:0:88:C#7S_Db7S_s.wav
61,192,87357,1,0,0:0:0:88:F#7S_Gb7S_s.wav
112,192,87409,1,0,0:0:0:99:E4S_s.wav
265,192,87409,1,0,0:0:0:99:F#5S_Gb5S_s.wav
367,192,87409,1,0,0:0:0:88:G#7S_Ab7S_s.wav
10,192,87462,1,0,0:0:0:88:F#7S_Gb7S_s.wav
163,192,87514,1,0,0:0:0:99:B2S_s.wav
418,192,87514,1,0,0:0:0:99:B4S.wav
469,192,87514,1,0,0:0:0:88:D6S_s.wav
214,192,87567,1,0,0:0:0:88:F#6S_Gb6S_s.wav
61,192,87620,1,0,0:0:0:99:B3S_s.wav
316,192,87620,1,0,0:0:0:88:A6S_s.wav
265,192,87672,1,0,0:0:0:88:F#6S_Gb6S_s.wav
112,192,87725,1,0,0:0:0:99:B2S_s.wav
367,192,87725,1,0,0:0:0:88:A6S_s.wav
10,192,87778,1,0,0:0:0:88:F#7S_Gb7S_s.wav
163,192,87830,1,0,0:0:0:99:B3S_s.wav
418,192,87830,1,0,0:0:0:88:G#7S_Ab7S_s.wav
469,192,87883,1,0,0:0:0:88:F#7S_Gb7S_s.wav
214,192,87935,1,0,0:0:0:99:B2S_s.wav
316,192,87935,1,0,0:0:0:88:D6S_s.wav
61,192,87988,1,0,0:0:0:88:F#6S_Gb6S_s.wav
112,192,88041,1,0,0:0:0:99:B3S_s.wav
265,192,88041,1,0,0:0:0:99:F#5S_Gb5S_s.wav
367,192,88041,1,0,0:0:0:88:A6S_s.wav
10,192,88093,1,0,0:0:0:88:F#6S_Gb6S_s.wav
163,192,88146,1,0,0:0:0:99:B2S_s.wav
418,192,88146,1,0,0:0:0:88:A6S_s.wav
469,192,88199,1,0,0:0:0:88:F#7S_Gb7S_s.wav
61,192,88251,1,0,0:0:0:99:B3S_s.wav
214,192,88251,1,0,0:0:0:99:G#5S_Ab5S_s.wav
316,192,88251,1,0,0:0:0:88:G#7S_Ab7S_s.wav
265,192,88304,1,0,0:0:0:88:F#7S_Gb7S_s.wav
10,192,88357,1,0,0:0:0:99:B2S_s.wav
112,192,88357,1,0,0:0:0:88:A5S_s.wav
367,192,88357,1,0,0:0:0:99:A5S_s.wav
418,192,88409,1,0,0:0:0:88:F#6S_Gb6S_s.wav
163,192,88462,1,0,0:0:0:99:B3S_s.wav
214,192,88462,1,0,0:0:0:99:G#5S_Ab5S_s.wav
469,192,88462,1,0,0:0:0:88:G#6S_Ab6S_s.wav
316,192,88514,1,0,0:0:0:88:F#6S_Gb6S_s.wav
10,192,88567,1,0,0:0:0:99:B2S_s.wav
61,192,88567,1,0,0:0:0:99:F#5S_Gb5S_s.wav
265,192,88567,1,0,0:0:0:88:C#7S_Db7S_s.wav
367,192,88620,1,0,0:0:0:88:F#7S_Gb7S_s.wav
112,192,88672,1,0,0:0:0:99:B3S_s.wav
163,192,88672,1,0,0:0:0:99:D6S_s.wav
418,192,88672,1,0,0:0:0:88:G#7S_Ab7S_s.wav
469,192,88725,1,0,0:0:0:88:F#7S_Gb7S_s.wav
214,192,88778,1,0,0:0:0:99:B2S_s.wav
316,192,88778,1,0,0:0:0:88:A5S_s.wav
10,192,88830,1,0,0:0:0:88:F#6S_Gb6S_s.wav
61,192,88883,1,0,0:0:0:99:B3S_s.wav
265,192,88883,1,0,0:0:0:99:C#6S_Db6S_s.wav
367,192,88883,1,0,0:0:0:88:G#6S_Ab6S_s.wav
112,192,88935,1,0,0:0:0:88:F#6S_Gb6S_s.wav
163,192,88988,1,0,0:0:0:99:B2S_s.wav
418,192,88988,1,0,0:0:0:99:B5S_s.wav
469,192,88988,1,0,0:0:0:88:C#7S_Db7S_s.wav
214,192,89041,1,0,0:0:0:88:F#7S_Gb7S_s.wav
10,192,89093,1,0,0:0:0:99:B3S_s.wav
316,192,89093,1,0,0:0:0:88:G#7S_Ab7S_s.wav
367,192,89146,1,0,0:0:0:88:F#7S_Gb7S_s.wav
61,192,89199,1,0,0:0:0:99:D3S_s.wav
112,192,89199,1,0,0:0:0:99:D5S_s.wav
265,192,89199,1,0,0:0:0:88:D6S_s.wav
418,192,89251,1,0,0:0:0:88:F#6S_Gb6S_s.wav
163,192,89304,1,0,0:0:0:99:D4S_s.wav
469,192,89304,1,0,0:0:0:88:A6S_s.wav
214,192,89357,1,0,0:0:0:88:F#6S_Gb6S_s.wav
10,192,89409,1,0,0:0:0:99:D3S_s.wav
316,192,89409,1,0,0:0:0:99:E5S_s.wav
367,192,89409,1,0,0:0:0:88:A6S_s.wav
61,192,89462,1,0,0:0:0:88:F#7S_Gb7S_s.wav
112,192,89514,1,0,0:0:0:99:D4S_s.wav
265,192,89514,1,0,0:0:0:99:F#5S_Gb5S_s.wav
418,192,89514,1,0,0:0:0:88:G#7S_Ab7S_s.wav
163,192,89567,1,0,0:0:0:88:F#7S_Gb7S_s.wav
214,192,89620,1,0,0:0:0:99:D3S_s.wav
469,192,89620,1,0,0:0:0:88:D6S_s.wav
316,192,89672,1,0,0:0:0:88:F#6S_Gb6S_s.wav
10,192,89725,1,0,0:0:0:99:D4S_s.wav
61,192,89725,1,0,0:0:0:99:G#5S_Ab5S_s.wav
367,192,89725,1,0,0:0:0:88:A6S_s.wav
265,192,89778,1,0,0:0:0:88:F#6S_Gb6S_s.wav
112,192,89830,1,0,0:0:0:99:D3S_s.wav
163,192,89830,1,0,0:0:0:99:A5S_s.wav
418,192,89830,1,0,0:0:0:88:A6S_s.wav
469,192,89883,1,0,0:0:0:88:F#7S_Gb7S_s.wav
61,192,89935,1,0,0:0:0:99:D4S_s.wav
214,192,89935,1,0,0:0:0:99:F#5S_Gb5S_s.wav
316,192,89935,1,0,0:0:0:88:G#7S_Ab7S_s.wav
367,192,89988,1,0,0:0:0:88:F#7S_Gb7S_s.wav
10,192,90041,1,0,0:0:0:99:E3S_s.wav
112,192,90041,1,0,0:0:0:88:B5S_s.wav
265,192,90041,1,0,0:0:0:99:D6S_s.wav
418,192,90093,1,0,0:0:0:88:F#6S_Gb6S_s.wav
163,192,90146,1,0,0:0:0:99:E4S_s.wav
214,192,90146,1,0,0:0:0:99:C#6S_Db6S_s.wav
469,192,90146,1,0,0:0:0:88:G#6S_Ab6S_s.wav
316,192,90199,1,0,0:0:0:88:F#6S_Gb6S_s.wav
10,192,90251,1,0,0:0:0:99:E3S_s.wav
61,192,90251,1,0,0:0:0:99:B5S_s.wav
367,192,90251,1,0,0:0:0:88:C#7S_Db7S_s.wav
265,192,90304,1,0,0:0:0:88:F#7S_Gb7S_s.wav
112,192,90357,1,0,0:0:0:99:E4S_s.wav
214,192,90357,1,0,0:0:0:99:A5S_s.wav
418,192,90357,1,0,0:0:0:88:G#7S_Ab7S_s.wav
469,192,90409,1,0,0:0:0:88:F#7S_Gb7S_s.wav
10,192,90462,1,0,0:0:0:99:E3S_s.wav
163,192,90462,1,0,0:0:0:99:E5S_s.wav
316,192,90462,1,0,0:0:0:88:B5S_s.wav
367,192,90514,1,0,0:0:0:88:F#6S_Gb6S_s.wav
61,192,90567,1,0,0:0:0:99:E4S_s.wav
112,192,90567,1,0,0:0:0:99:F#5S_Gb5S_s.wav
265,192,90567,1,0,0:0:0:88:G#6S_Ab6S_s.wav
418,192,90620,1,0,0:0:0:88:F#6S_Gb6S_s.wav
163,192,90672,1,0,0:0:0:99:E3S_s.wav
214,192,90672,1,0,0:0:0:99:G#5S_Ab5S_s.wav
469,192,90672,1,0,0:0:0:88:C#7S_Db7S_s.wav
316,192,90725,1,0,0:0:0:88:F#7S_Gb7S_s.wav
10,192,90778,1,0,0:0:0:99:E4S_s.wav
61,192,90778,1,0,0:0:0:99:E6S_s.wav
367,192,90778,1,0,0:0:0:88:G#7S_Ab7S_s.wav
265,192,90830,1,0,0:0:0:88:F#7S_Gb7S_s.wav
112,192,90883,1,0,0:0:0:99:F#3S_Gb3S_s.wav
214,192,90883,1,0,0:0:0:99:F#5S_Gb5S.wav
418,192,90883,1,0,0:0:0:88:C#6S_Db6S_s.wav
469,192,90936,1,0,0:0:0:88:F#6S_Gb6S_s.wav
163,192,90988,1,0,0:0:0:99:F#4S_Gb4S_s.wav
316,192,90988,1,0,0:0:0:88:A6S_s.wav
61,192,91041,1,0,0:0:0:88:F#6S_Gb6S_s.wav
10,192,91094,1,0,0:0:0:99:F#3S_Gb3S_s.wav
367,192,91094,1,0,0:0:0:88:A6S_s.wav
265,192,91146,1,0,0:0:0:88:F#7S_Gb7S_s.wav
112,192,91199,1,0,0:0:0:99:F#4S_Gb4S_s.wav
418,192,91199,1,0,0:0:0:88:A7S_s.wav
214,192,91251,1,0,0:0:0:88:F#7S_Gb7S_s.wav
163,192,91304,1,0,0:0:0:99:F#3S_Gb3S_s.wav
469,192,91304,1,0,0:0:0:88:C#6S_Db6S_s.wav
316,192,91357,1,0,0:0:0:88:F#6S_Gb6S_s.wav
61,192,91409,1,0,0:0:0:99:F#4S_Gb4S_s.wav
367,192,91409,1,0,0:0:0:88:A6S_s.wav
10,192,91462,1,0,0:0:0:88:F#6S_Gb6S_s.wav
112,192,91515,1,0,0:0:0:99:F#3S_Gb3S_s.wav
265,192,91515,1,0,0:0:0:99:G#5S_Ab5S_s.wav
418,192,91515,1,0,0:0:0:88:A6S_s.wav
214,192,91567,1,0,0:0:0:88:F#7S_Gb7S_s.wav
163,192,91620,1,0,0:0:0:99:F#4S_Gb4S_s.wav
316,192,91620,1,0,0:0:0:99:A5S_s.wav
469,192,91620,1,0,0:0:0:88:A7S_s.wav
61,192,91672,1,0,0:0:0:88:F#7S_Gb7S_s.wav
10,192,91725,1,0,0:0:0:99:F#3S_Gb3S_s.wav
367,192,91725,1,0,0:0:0:99:B5S_s.wav
418,192,91725,1,0,0:0:0:88:C#6S_Db6S_s.wav
112,192,91778,1,0,0:0:0:88:F#6S_Gb6S_s.wav
214,192,91830,1,0,0:0:0:99:F#4S_Gb4S_s.wav
265,192,91830,1,0,0:0:0:88:G#6S_Ab6S_s.wav
469,192,91883,1,0,0:0:0:88:F#6S_Gb6S_s.wav
61,192,91936,1,0,0:0:0:99:F#3S_Gb3S_s.wav
163,192,91936,1,0,0:0:0:99:A5S_s.wav
316,192,91936,1,0,0:0:0:88:C#7S_Db7S_s.wav
367,192,91988,1,0,0:0:0:88:F#7S_Gb7S_s.wav
10,192,92041,1,0,0:0:0:99:F#4S_Gb4S_s.wav
112,192,92041,1,0,0:0:0:99:G#5S_Ab5S_s.wav
418,192,92041,1,0,0:0:0:88:G#7S_Ab7S_s.wav
265,192,92094,1,0,0:0:0:88:F#7S_Gb7S_s.wav
214,192,92146,1,0,0:0:0:99:F#3S_Gb3S_s.wav
469,192,92146,1,0,0:0:0:88:C#6S_Db6S_s.wav
163,192,92199,1,0,0:0:0:88:F#6S_Gb6S_s.wav
61,192,92251,1,0,0:0:0:99:F#4S_Gb4S_s.wav
316,192,92251,1,0,0:0:0:99:A5S_s.wav
367,192,92251,1,0,0:0:0:88:G#6S_Ab6S_s.wav
112,192,92304,1,0,0:0:0:88:F#6S_Gb6S_s.wav
10,192,92357,1,0,0:0:0:99:F#3S_Gb3S_s.wav
265,192,92357,1,0,0:0:0:99:F#5S_Gb5S_s.wav
418,192,92357,1,0,0:0:0:88:C#7S_Db7S_s.wav
214,192,92409,1,0,0:0:0:88:F#7S_Gb7S_s.wav
163,192,92462,1,0,0:0:0:99:F#4S_Gb4S_s.wav
469,192,92462,1,0,0:0:0:88:G#7S_Ab7S_s.wav
316,192,92515,1,0,0:0:0:88:F#7S_Gb7S_s.wav
61,192,92567,1,0,0:0:0:99:E3S_s.wav
112,192,92567,1,0,0:0:0:99:E5S.wav
367,192,92567,1,0,0:0:0:88:B5S_s.wav
418,192,92620,1,0,0:0:0:88:F#6S_Gb6S_s.wav
10,192,92672,1,0,0:0:0:99:E4S_s.wav
265,192,92672,1,0,0:0:0:88:G#6S_Ab6S_s.wav
214,192,92725,1,0,0:0:0:88:F#6S_Gb6S_s.wav
163,192,92778,1,0,0:0:0:99:E3S_s.wav
469,192,92778,1,0,0:0:0:88:C#7S_Db7S_s.wav
316,192,92830,1,0,0:0:0:88:F#7S_Gb7S_s.wav
112,192,92883,1,0,0:0:0:99:E4S_s.wav
367,192,92883,1,0,0:0:0:88:G#7S_Ab7S_s.wav
61,192,92936,1,0,0:0:0:88:F#7S_Gb7S_s.wav
10,192,92988,1,0,0:0:0:99:E3S_s.wav
418,192,92988,1,0,0:0:0:88:B5S_s.wav
265,192,93041,1,0,0:0:0:88:F#6S_Gb6S_s.wav
214,192,93094,1,0,0:0:0:99:E4S_s.wav
469,192,93094,1,0,0:0:0:88:G#6S_Ab6S_s.wav
163,192,93146,1,0,0:0:0:88:F#6S_Gb6S_s.wav
112,192,93199,1,0,0:0:0:99:E3S_s.wav
316,192,93199,1,0,0:0:0:99:F#5S_Gb5S_s.wav
367,192,93199,1,0,0:0:0:88:C#7S_Db7S_s.wav
61,192,93251,1,0,0:0:0:88:F#7S_Gb7S_s.wav
10,192,93304,1,0,0:0:0:99:E4S_s.wav
265,192,93304,1,0,0:0:0:99:G#5S_Ab5S_s.wav
418,192,93304,1,0,0:0:0:88:G#7S_Ab7S_s.wav
214,192,93357,1,0,0:0:0:88:F#7S_Gb7S_s.wav
163,192,93409,1,0,0:0:0:99:E3S_s.wav
367,192,93409,1,0,0:0:0:99:D5S.wav
469,192,93409,1,0,0:0:0:88:A5S_s.wav
112,192,93462,1,0,0:0:0:88:E6S_s.wav
61,192,93515,1,0,0:0:0:99:E4S_s.wav
316,192,93515,1,0,0:0:0:88:G#6S_Ab6S_s.wav
418,192,93567,1,0,0:0:0:88:E6S_s.wav
10,192,93620,1,0,0:0:0:99:E3S_s.wav
265,192,93620,1,0,0:0:0:88:C#7S_Db7S_s.wav
214,192,93672,1,0,0:0:0:88:F#7S_Gb7S_s.wav
163,192,93725,1,0,0:0:0:99:E4S_s.wav
469,192,93725,1,0,0:0:0:88:G#7S_Ab7S_s.wav
367,192,93778,1,0,0:0:0:88:F#7S_Gb7S_s.wav
112,192,93830,1,0,0:0:0:99:E3S_s.wav
316,192,93830,1,0,0:0:0:88:A5S_s.wav
61,192,93883,1,0,0:0:0:88:E6S_s.wav
10,192,93936,1,0,0:0:0:99:E4S_s.wav
418,192,93936,1,0,0:0:0:88:G#6S_Ab6S_s.wav
265,192,93988,1,0,0:0:0:88:E6S_s.wav
163,192,94041,1,0,0:0:0:99:E3S_s.wav
214,192,94041,1,0,0:0:0:99:E5S_s.wav
469,192,94041,1,0,0:0:0:88:C#7S_Db7S_s.wav
367,192,94094,1,0,0:0:0:88:F#7S_Gb7S_s.wav
61,192,94146,1,0,0:0:0:99:E4S_s.wav
112,192,94146,1,0,0:0:0:99:F#5S_Gb5S_s.wav
316,192,94146,1,0,0:0:0:88:G#7S_Ab7S_s.wav
418,192,94199,1,0,0:0:0:88:F#7S_Gb7S_s.wav
10,192,94251,1,0,0:0:0:99:B2S_s.wav
163,192,94251,1,0,0:0:0:99:B4S.wav
265,192,94251,1,0,0:0:0:88:D6S_s.wav
469,192,94304,1,0,0:0:0:88:F#6S_Gb6S_s.wav
214,192,94357,1,0,0:0:0:99:B3S_s.wav
367,192,94357,1,0,0:0:0:88:A6S_s.wav
112,192,94409,1,0,0:0:0:88:F#6S_Gb6S_s.wav
61,192,94462,1,0,0:0:0:99:B2S_s.wav
316,192,94462,1,0,0:0:0:88:A6S_s.wav
418,192,94515,1,0,0:0:0:88:F#7S_Gb7S_s.wav
163,192,94567,1,0,0:0:0:99:B3S_s.wav
265,192,94567,1,0,0:0:0:88:G#7S_Ab7S_s.wav
10,192,94620,1,0,0:0:0:88:F#7S_Gb7S_s.wav
214,192,94672,1,0,0:0:0:99:B2S_s.wav
469,192,94672,1,0,0:0:0:88:D6S_s.wav
367,192,94725,1,0,0:0:0:88:F#6S_Gb6S_s.wav
61,192,94778,1,0,0:0:0:99:B3S_s.wav
112,192,94778,1,0,0:0:0:99:F#5S_Gb5S_s.wav
316,192,94778,1,0,0:0:0:88:A6S_s.wav
418,192,94830,1,0,0:0:0:88:F#6S_Gb6S_s.wav
163,192,94883,1,0,0:0:0:99:B2S_s.wav
265,192,94883,1,0,0:0:0:88:A6S_s.wav
10,192,94936,1,0,0:0:0:88:F#7S_Gb7S_s.wav
214,192,94988,1,0,0:0:0:99:B3S_s.wav
367,192,94988,1,0,0:0:0:99:G#5S_Ab5S_s.wav
469,192,94988,1,0,0:0:0:88:G#7S_Ab7S_s.wav
112,192,95041,1,0,0:0:0:88:F#7S_Gb7S_s.wav
61,192,95094,1,0,0:0:0:99:B2S_s.wav
316,192,95094,1,0,0:0:0:88:A5S_s.wav
418,192,95094,1,0,0:0:0:99:A5S_s.wav
163,192,95146,1,0,0:0:0:88:F#6S_Gb6S_s.wav
10,192,95199,1,0,0:0:0:99:B3S_s.wav
265,192,95199,1,0,0:0:0:99:G#5S_Ab5S_s.wav
469,192,95199,1,0,0:0:0:88:G#6S_Ab6S_s.wav
214,192,95251,1,0,0:0:0:88:F#6S_Gb6S_s.wav
112,192,95304,1,0,0:0:0:99:B2S_s.wav
316,192,95304,1,0,0:0:0:99:F#5S_Gb5S_s.wav
367,192,95304,1,0,0:0:0:88:C#7S_Db7S_s.wav
61,192,95357,1,0,0:0:0:88:F#7S_Gb7S_s.wav
163,192,95409,1,0,0:0:0:99:B3S_s.wav
418,192,95409,1,0,0:0:0:99:D6S_s.wav
469,192,95409,1,0,0:0:0:88:G#7S_Ab7S_s.wav
10,192,95462,1,0,0:0:0:88:F#7S_Gb7S_s.wav
214,192,95515,1,0,0:0:0:99:B2S_s.wav
265,192,95515,1,0,0:0:0:88:A5S_s.wav
367,192,95567,1,0,0:0:0:88:F#6S_Gb6S_s.wav
61,192,95620,1,0,0:0:0:99:B3S_s.wav
112,192,95620,1,0,0:0:0:99:C#6S_Db6S_s.wav
316,192,95620,1,0,0:0:0:88:G#6S_Ab6S_s.wav
418,192,95672,1,0,0:0:0:88:F#6S_Gb6S_s.wav
10,192,95725,1,0,0:0:0:99:B2S_s.wav
163,192,95725,1,0,0:0:0:99:B5S_s.wav
469,192,95725,1,0,0:0:0:88:C#7S_Db7S_s.wav
265,192,95778,1,0,0:0:0:88:F#7S_Gb7S_s.wav
214,192,95830,1,0,0:0:0:99:B3S_s.wav
367,192,95830,1,0,0:0:0:88:G#7S_Ab7S_s.wav
61,192,95883,1,0,0:0:0:88:F#7S_Gb7S_s.wav
112,192,95936,1,0,0:0:0:99:D3S_s.wav
316,192,95936,1,0,0:0:0:99:D5S_s.wav
418,192,95936,1,0,0:0:0:88:D6S_s.wav
10,192,95988,1,0,0:0:0:88:F#6S_Gb6S_s.wav
163,192,96041,1,0,0:0:0:99:D4S_s.wav
469,192,96041,1,0,0:0:0:88:A6S_s.wav
265,192,96094,1,0,0:0:0:88:F#6S_Gb6S_s.wav
61,192,96146,1,0,0:0:0:99:D3S_s.wav
214,192,96146,1,0,0:0:0:99:E5S_s.wav
367,192,96146,1,0,0:0:0:88:A6S_s.wav
418,192,96199,1,0,0:0:0:88:F#7S_Gb7S_s.wav
10,192,96251,1,0,0:0:0:99:D4S_s.wav
112,192,96251,1,0,0:0:0:99:F#5S_Gb5S_s.wav
316,192,96251,1,0,0:0:0:88:G#7S_Ab7S_s.wav
469,192,96304,1,0,0:0:0:88:F#7S_Gb7S_s.wav
163,192,96357,1,0,0:0:0:99:D3S_s.wav
265,192,96357,1,0,0:0:0:88:D6S_s.wav
61,192,96409,1,0,0:0:0:88:F#6S_Gb6S_s.wav
214,192,96462,1,0,0:0:0:99:D4S_s.wav
367,192,96462,1,0,0:0:0:99:G#5S_Ab5S_s.wav
418,192,96462,1,0,0:0:0:88:A6S_s.wav
10,192,96515,1,0,0:0:0:88:F#6S_Gb6S_s.wav
112,192,96567,1,0,0:0:0:99:D3S_s.wav
316,192,96567,1,0,0:0:0:99:A5S_s.wav
469,192,96567,1,0,0:0:0:88:A6S_s.wav
163,192,96620,1,0,0:0:0:88:F#7S_Gb7S_s.wav
61,192,96672,1,0,0:0:0:99:D4S_s.wav
265,192,96672,1,0,0:0:0:99:F#5S_Gb5S_s.wav
418,192,96672,1,0,0:0:0:88:G#7S_Ab7S_s.wav
214,192,96725,1,0,0:0:0:88:F#7S_Gb7S_s.wav
10,192,96778,1,0,0:0:0:99:E3S_s.wav
367,192,96778,1,0,0:0:0:88:B5S_s.wav
469,192,96778,1,0,0:0:0:99:D6S_s.wav
112,192,96830,1,0,0:0:0:88:F#6S_Gb6S_s.wav
163,192,96883,1,0,0:0:0:99:E4S_s.wav
265,192,96883,1,0,0:0:0:99:C#6S_Db6S_s.wav
316,192,96883,1,0,0:0:0:88:G#6S_Ab6S_s.wav
61,192,96936,1,0,0:0:0:88:F#6S_Gb6S_s.wav
214,192,96988,1,0,0:0:0:99:E3S_s.wav
418,192,96988,1,0,0:0:0:99:B5S_s.wav
469,192,96988,1,0,0:0:0:88:C#7S_Db7S_s.wav
10,192,97041,1,0,0:0:0:88:F#7S_Gb7S_s.wav
112,192,97094,1,0,0:0:0:99:E4S_s.wav
265,192,97094,1,0,0:0:0:99:A5S_s.wav
367,192,97094,1,0,0:0:0:88:G#7S_Ab7S_s.wav
163,192,97146,1,0,0:0:0:88:F#7S_Gb7S_s.wav
61,192,97199,1,0,0:0:0:99:E3S_s.wav
316,192,97199,1,0,0:0:0:99:E5S_s.wav
418,192,97199,1,0,0:0:0:88:B5S_s.wav
214,192,97251,1,0,0:0:0:88:F#6S_Gb6S_s.wav
10,192,97304,1,0,0:0:0:99:E4S_s.wav
367,192,97304,1,0,0:0:0:99:F#5S_Gb5S_s.wav
469,192,97304,1,0,0:0:0:88:G#6S_Ab6S_s.wav
112,192,97357,1,0,0:0:0:88:F#6S_Gb6S_s.wav
163,192,97409,1,0,0:0:0:99:E3S_s.wav
265,192,97409,1,0,0:0:0:99:G#5S_Ab5S_s.wav
418,192,97409,1,0,0:0:0:88:C#7S_Db7S_s.wav
61,192,97462,1,0,0:0:0:88:F#7S_Gb7S_s.wav
214,192,97515,1,0,0:0:0:99:E4S_s.wav
316,192,97515,1,0,0:0:0:99:E6S_s.wav
367,192,97515,1,0,0:0:0:88:G#7S_Ab7S_s.wav
10,192,97567,1,0,0:0:0:88:F#7S_Gb7S_s.wav
112,192,97620,1,0,0:0:0:99:F#3S_Gb3S_s.wav
418,192,97620,1,0,0:0:0:99:F#5S_Gb5S.wav
469,192,97620,1,0,0:0:0:88:A6S_s.wav
163,192,97725,1,0,0:0:0:99:F#4S_Gb4S_s.wav
265,192,97725,1,0,0:0:0:88:F#6S_Gb6S_s.wav
61,192,97830,1,0,0:0:0:99:F#3S_Gb3S_s.wav
367,192,97830,1,0,0:0:0:88:C#6S_Db6S_s.wav
214,192,97936,1,0,0:0:0:99:F#4S_Gb4S_s.wav
316,192,97936,1,0,0:0:0:88:F#6S_Gb6S_s.wav
10,192,98041,1,0,0:0:0:99:F#3S_Gb3S_s.wav
418,192,98041,1,0,0:0:0:88:A6S_s.wav
112,192,98146,1,0,0:0:0:99:F#4S_Gb4S_s.wav
469,192,98146,1,0,0:0:0:88:F#6S_Gb6S_s.wav
61,192,98251,1,0,0:0:0:99:F#3S_Gb3S_s.wav
163,192,98251,1,0,0:0:0:99:G#5S_Ab5S_s.wav
265,192,98251,1,0,0:0:0:88:C#6S_Db6S_s.wav
214,192,98357,1,0,0:0:0:99:F#4S_Gb4S_s.wav
316,192,98357,1,0,0:0:0:99:A5S_s.wav
367,192,98357,1,0,0:0:0:88:F#6S_Gb6S_s.wav
10,192,98462,1,0,0:0:0:99:F#3S_Gb3S_s.wav
112,192,98462,1,0,0:0:0:99:B5S_s.wav
418,192,98462,1,0,0:0:0:88:A6S_s.wav
61,192,98567,1,0,0:0:0:99:F#4S_Gb4S_s.wav
469,192,98567,1,0,0:0:0:88:F#6S_Gb6S_s.wav
163,192,98672,1,0,0:0:0:99:F#3S_Gb3S_s.wav
265,192,98672,1,0,0:0:0:99:A5S_s.wav
316,192,98672,1,0,0:0:0:88:C#6S_Db6S_s.wav
10,192,98778,1,0,0:0:0:99:F#4S_Gb4S_s.wav
214,192,98778,1,0,0:0:0:99:G#5S_Ab5S_s.wav
367,192,98778,1,0,0:0:0:88:F#6S_Gb6S_s.wav
112,192,98883,1,0,0:0:0:99:F#3S_Gb3S_s.wav
418,192,98883,1,0,0:0:0:88:A6S_s.wav
61,192,98988,1,0,0:0:0:99:F#4S_Gb4S_s.wav
316,192,98988,1,0,0:0:0:99:A5S_s.wav
469,192,98988,1,0,0:0:0:88:F#6S_Gb6S_s.wav
10,192,99094,1,0,0:0:0:99:F#3S_Gb3S_s.wav
163,192,99094,1,0,0:0:0:99:F#5S_Gb5S_s.wav
265,192,99094,1,0,0:0:0:88:C#6S_Db6S_s.wav
214,192,99199,1,0,0:0:0:99:F#4S_Gb4S_s.wav
367,192,99199,1,0,0:0:0:88:F#6S_Gb6S_s.wav
61,192,99304,1,0,0:0:0:99:E3S_s.wav
112,192,99304,1,0,0:0:0:99:E5S.wav
418,192,99304,1,0,0:0:0:88:G#6S_Ab6S_s.wav
469,192,99304,1,0,0:0:0:99:B6S.wav
10,192,99409,1,0,0:0:0:99:E4S_s.wav
316,192,99409,1,0,0:0:0:88:E6S_s.wav
163,192,99515,1,0,0:0:0:99:E3S_s.wav
265,192,99515,1,0,0:0:0:88:B5S_s.wav
214,192,99620,1,0,0:0:0:99:E4S_s.wav
367,192,99620,1,0,0:0:0:88:E6S_s.wav
112,192,99725,1,0,0:0:0:99:E3S_s.wav
469,192,99725,1,0,0:0:0:88:G#6S_Ab6S_s.wav
61,192,99830,1,0,0:0:0:99:E4S_s.wav
418,192,99830,1,0,0:0:0:88:E6S_s.wav
10,192,99936,1,0,0:0:0:99:E3S_s.wav
163,192,99936,1,0,0:0:0:99:F#5S_Gb5S_s.wav
265,192,99936,1,0,0:0:0:88:B5S_s.wav
316,192,99936,1,0,0:0:0:99:C#7S_Db7S_s.wav
112,192,100041,1,0,0:0:0:99:E4S_s.wav
214,192,100041,1,0,0:0:0:99:G#5S_Ab5S_s.wav
367,192,100041,1,0,0:0:0:88:E6S_s.wav
469,192,100041,1,0,0:0:0:99:D7S_s.wav
61,192,100146,1,0,0:0:0:99:E3S_s.wav
265,192,100146,1,0,0:0:0:99:D5S.wav
418,192,100146,1,0,0:0:0:88:G#6S_Ab6S_s.wav
10,192,100251,1,0,0:0:0:99:E4S_s.wav
163,192,100251,1,0,0:0:0:88:E6S_s.wav
316,192,100251,1,0,0:0:0:99:D7S_s.wav
214,192,100357,1,0,0:0:0:99:E3S_s.wav
367,192,100357,1,0,0:0:0:88:B5S_s.wav
469,192,100357,1,0,0:0:0:99:C#7S_Db7S_s.wav
112,192,100462,1,0,0:0:0:99:E4S_s.wav
265,192,100462,1,0,0:0:0:88:E6S_s.wav
61,192,100567,1,0,0:0:0:99:E3S_s.wav
163,192,100567,1,0,0:0:0:88:G#6S_Ab6S_s.wav
418,192,100567,1,0,0:0:0:99:A6S_s.wav
10,192,100672,1,0,0:0:0:99:E4S_s.wav
316,192,100672,1,0,0:0:0:88:E6S_s.wav
469,192,100672,1,0,0:0:0:99:G#6S_Ab6S_s.wav
112,192,100778,1,0,0:0:0:99:E3S_s.wav
214,192,100778,1,0,0:0:0:99:E5S_s.wav
265,192,100778,1,0,0:0:0:88:B5S_s.wav
367,192,100778,1,0,0:0:0:99:F#6S_Gb6S_s.wav
61,192,100883,1,0,0:0:0:99:E4S_s.wav
163,192,100883,1,0,0:0:0:99:F#5S_Gb5S_s.wav
316,192,100883,1,0,0:0:0:88:E6S_s.wav
418,192,100883,1,0,0:0:0:99:F#6S_Gb6S.wav
10,192,100988,1,0,0:0:0:99:B2S_s.wav
112,192,100988,1,0,0:0:0:99:B4S.wav
469,192,100988,1,0,0:0:0:88:A6S_s.wav
214,192,101094,1,0,0:0:0:99:B3S_s.wav
367,192,101094,1,0,0:0:0:88:F#6S_Gb6S_s.wav
163,192,101199,1,0,0:0:0:99:B2S_s.wav
265,192,101199,1,0,0:0:0:88:A5S_s.wav
61,192,101304,1,0,0:0:0:99:B3S_s.wav
316,192,101304,1,0,0:0:0:88:F#6S_Gb6S_s.wav
10,192,101409,1,0,0:0:0:99:B2S_s.wav
418,192,101409,1,0,0:0:0:88:A6S_s.wav
112,192,101515,1,0,0:0:0:99:B3S_s.wav
367,192,101515,1,0,0:0:0:99:F#5S_Gb5S_s.wav
469,192,101515,1,0,0:0:0:88:F#6S_Gb6S_s.wav
214,192,101620,1,0,0:0:0:99:B2S_s.wav
265,192,101620,1,0,0:0:0:88:A5S_s.wav
61,192,101725,1,0,0:0:0:99:B3S_s.wav
163,192,101725,1,0,0:0:0:99:G#5S_Ab5S_s.wav
316,192,101725,1,0,0:0:0:88:F#6S_Gb6S_s.wav
10,192,101830,1,0,0:0:0:99:B2S_s.wav
418,192,101830,1,0,0:0:0:99:A5S_s.wav
469,192,101830,1,0,0:0:0:88:A6S_s.wav
112,192,101936,1,0,0:0:0:99:B3S_s.wav
214,192,101936,1,0,0:0:0:99:G#5S_Ab5S_s.wav
367,192,101936,1,0,0:0:0:88:F#6S_Gb6S_s.wav
163,192,102041,1,0,0:0:0:99:B2S_s.wav
265,192,102041,1,0,0:0:0:99:F#5S_Gb5S_s.wav
316,192,102041,1,0,0:0:0:88:A5S_s.wav
10,192,102146,1,0,0:0:0:99:B3S_s.wav
61,192,102146,1,0,0:0:0:99:D6S_s.wav
469,192,102146,1,0,0:0:0:88:F#6S_Gb6S_s.wav
112,192,102251,1,0,0:0:0:99:B2S_s.wav
418,192,102251,1,0,0:0:0:88:A6S_s.wav
214,192,102357,1,0,0:0:0:99:B3S_s.wav
265,192,102357,1,0,0:0:0:99:C#6S_Db6S_s.wav
367,192,102357,1,0,0:0:0:88:F#6S_Gb6S_s.wav
61,192,102462,1,0,0:0:0:99:B2S_s.wav
163,192,102462,1,0,0:0:0:88:A5S_s.wav
316,192,102462,1,0,0:0:0:99:B5S_s.wav
10,192,102567,1,0,0:0:0:99:B3S_s.wav
469,192,102567,1,0,0:0:0:88:F#6S_Gb6S_s.wav
112,192,102672,1,0,0:0:0:99:D3S_s.wav
265,192,102672,1,0,0:0:0:99:D5S_s.wav
418,192,102672,1,0,0:0:0:88:A6S_s.wav
214,192,102778,1,0,0:0:0:99:D4S_s.wav
367,192,102778,1,0,0:0:0:88:F#6S_Gb6S_s.wav
61,192,102883,1,0,0:0:0:99:D3S_s.wav
163,192,102883,1,0,0:0:0:99:E5S_s.wav
316,192,102883,1,0,0:0:0:88:A5S_s.wav
10,192,102988,1,0,0:0:0:99:D4S_s.wav
265,192,102988,1,0,0:0:0:99:F#5S_Gb5S_s.wav
469,192,102988,1,0,0:0:0:88:F#6S_Gb6S_s.wav
112,192,103094,1,0,0:0:0:99:D3S_s.wav
418,192,103094,1,0,0:0:0:88:A6S_s.wav
61,192,103199,1,0,0:0:0:99:D4S_s.wav
214,192,103199,1,0,0:0:0:99:G#5S_Ab5S_s.wav
367,192,103199,1,0,0:0:0:88:F#6S_Gb6S_s.wav
163,192,103304,1,0,0:0:0:99:D3S_s.wav
265,192,103304,1,0,0:0:0:88:A5S_s.wav
316,192,103304,1,0,0:0:0:99:A5S_s.wav
10,192,103409,1,0,0:0:0:99:D4S_s.wav
112,192,103409,1,0,0:0:0:99:F#5S_Gb5S_s.wav
469,192,103409,1,0,0:0:0:88:F#6S_Gb6S_s.wav
214,192,103515,1,0,0:0:0:99:D3S_s.wav
367,192,103515,1,0,0:0:0:99:D5S_s.wav
418,192,103515,1,0,0:0:0:99:D6S_s.wav
61,192,103567,1,0,0:0:0:99:F#5S_Gb5S_s.wav
163,192,103620,1,0,0:0:0:99:D4S_s.wav
265,192,103620,1,0,0:0:0:99:A5S_s.wav
316,192,103620,1,0,0:0:0:99:C#6S_Db6S_s.wav
10,192,103672,1,0,0:0:0:99:D6S_s.wav
112,192,103725,1,0,0:0:0:99:D3S_s.wav
367,192,103725,1,0,0:0:0:99:F#5S_Gb5S_s.wav
469,192,103725,1,0,0:0:0:99:B5S_s.wav
214,192,103778,1,0,0:0:0:99:A5S_s.wav
61,192,103830,1,0,0:0:0:99:D4S_s.wav
265,192,103830,1,0,0:0:0:99:A5S_s.wav
418,192,103830,1,0,0:0:0:99:D6S_s.wav
163,192,103883,1,0,0:0:0:99:F#6S_Gb6S_s.wav
10,192,103936,1,0,0:0:0:99:D3S_s.wav
316,192,103936,1,0,0:0:0:99:E5S_s.wav
469,192,103936,1,0,0:0:0:99:A5S_s.wav
112,192,103988,1,0,0:0:0:99:D6S_s.wav
214,192,104041,1,0,0:0:0:99:D4S_s.wav
265,192,104041,1,0,0:0:0:99:F#5S_Gb5S_s.wav
367,192,104041,1,0,0:0:0:99:F#6S_Gb6S_s.wav
61,192,104094,1,0,0:0:0:99:A6S_s.wav
163,192,104146,1,0,0:0:0:99:D3S_s.wav
316,192,104146,1,0,0:0:0:99:G#5S_Ab5S_s.wav
418,192,104146,1,0,0:0:0:99:D6S_s.wav
10,192,104199,1,0,0:0:0:99:F#6S_Gb6S_s.wav
112,192,104251,1,0,0:0:0:99:D4S_s.wav
367,192,104251,1,0,0:0:0:99:E6S_s.wav
469,192,104251,1,0,0:0:0:99:A6S_s.wav
214,192,104304,1,0,0:0:0:99:D7S_s.wav
61,192,104357,1,0,0:0:0:99:F#3S_Gb3S_s.wav
265,192,104357,1,0,0:0:0:99:F#5S_Gb5S.wav
418,192,104357,1,0,0:0:0:88:A6S_s.wav
163,192,104462,1,0,0:0:0:99:F#4S_Gb4S_s.wav
316,192,104462,1,0,0:0:0:88:F#6S_Gb6S_s.wav
10,192,104567,1,0,0:0:0:99:F#3S_Gb3S_s.wav
469,192,104567,1,0,0:0:0:88:C#6S_Db6S_s.wav
112,192,104672,1,0,0:0:0:99:F#4S_Gb4S_s.wav
367,192,104672,1,0,0:0:0:88:F#6S_Gb6S_s.wav
214,192,104778,1,0,0:0:0:99:F#3S_Gb3S_s.wav
418,192,104778,1,0,0:0:0:88:A6S_s.wav
61,192,104883,1,0,0:0:0:99:F#4S_Gb4S_s.wav
265,192,104883,1,0,0:0:0:88:F#6S_Gb6S_s.wav
10,192,104988,1,0,0:0:0:99:F#3S_Gb3S_s.wav
163,192,104988,1,0,0:0:0:99:G#5S_Ab5S_s.wav
316,192,104988,1,0,0:0:0:88:C#6S_Db6S_s.wav
112,192,105094,1,0,0:0:0:99:F#4S_Gb4S_s.wav
367,192,105094,1,0,0:0:0:99:A5S_s.wav
469,192,105094,1,0,0:0:0:88:F#6S_Gb6S_s.wav
61,192,105199,1,0,0:0:0:99:F#3S_Gb3S_s.wav
214,192,105199,1,0,0:0:0:99:B5S_s.wav
418,192,105199,1,0,0:0:0:88:A6S_s.wav
10,192,105304,1,0,0:0:0:99:F#4S_Gb4S_s.wav
265,192,105304,1,0,0:0:0:88:F#6S_Gb6S_s.wav
163,192,105409,1,0,0:0:0:99:F#3S_Gb3S_s.wav
316,192,105409,1,0,0:0:0:99:A5S_s.wav
469,192,105409,1,0,0:0:0:88:C#6S_Db6S_s.wav
61,192,105515,1,0,0:0:0:99:F#4S_Gb4S_s.wav
112,192,105515,1,0,0:0:0:99:G#5S_Ab5S_s.wav
367,192,105515,1,0,0:0:0:88:F#6S_Gb6S_s.wav
214,192,105620,1,0,0:0:0:99:F#3S_Gb3S_s.wav
418,192,105620,1,0,0:0:0:88:A6S_s.wav
10,192,105725,1,0,0:0:0:99:F#4S_Gb4S_s.wav
265,192,105725,1,0,0:0:0:99:A5S_s.wav
469,192,105725,1,0,0:0:0:88:F#6S_Gb6S_s.wav
61,192,105830,1,0,0:0:0:99:F#3S_Gb3S_s.wav
163,192,105830,1,0,0:0:0:99:F#5S_Gb5S_s.wav
316,192,105830,1,0,0:0:0:88:C#6S_Db6S_s.wav
112,192,105936,1,0,0:0:0:99:F#4S_Gb4S_s.wav
367,192,105936,1,0,0:0:0:88:F#6S_Gb6S_s.wav
10,192,106041,1,0,0:0:0:99:E3S_s.wav
214,192,106041,1,0,0:0:0:99:E5S.wav
265,192,106041,1,0,0:0:0:88:G#6S_Ab6S_s.wav
418,192,106041,1,0,0:0:0:99:B6S.wav
163,192,106146,1,0,0:0:0:99:E4S_s.wav
469,192,106146,1,0,0:0:0:88:E6S_s.wav
61,192,106251,1,0,0:0:0:99:E3S_s.wav
316,192,106251,1,0,0:0:0:88:B5S_s.wav
112,192,106357,1,0,0:0:0:99:E4S_s.wav
367,192,106357,1,0,0:0:0:88:E6S_s.wav
214,192,106462,1,0,0:0:0:99:E3S_s.wav
418,192,106462,1,0,0:0:0:88:G#6S_Ab6S_s.wav
10,192,106567,1,0,0:0:0:99:E4S_s.wav
265,192,106567,1,0,0:0:0:88:E6S_s.wav
61,192,106672,1,0,0:0:0:99:E3S_s.wav
163,192,106672,1,0,0:0:0:99:F#5S_Gb5S_s.wav
316,192,106672,1,0,0:0:0:88:B5S_s.wav
469,192,106672,1,0,0:0:0:99:C#7S_Db7S_s.wav
112,192,106778,1,0,0:0:0:99:E4S_s.wav
214,192,106778,1,0,0:0:0:99:G#5S_Ab5S_s.wav
367,192,106778,1,0,0:0:0:88:E6S_s.wav
418,192,106778,1,0,0:0:0:99:D7S_s.wav
10,192,106883,1,0,0:0:0:99:E3S_s.wav
265,192,106883,1,0,0:0:0:99:D5S.wav
316,192,106883,1,0,0:0:0:88:G#6S_Ab6S_s.wav
61,192,106988,1,0,0:0:0:99:E4S_s.wav
163,192,106988,1,0,0:0:0:88:E6S_s.wav
469,192,106988,1,0,0:0:0:99:D7S_s.wav
214,192,107094,1,0,0:0:0:99:E3S_s.wav
367,192,107094,1,0,0:0:0:88:B5S_s.wav
418,192,107094,1,0,0:0:0:99:C#7S_Db7S_s.wav
112,192,107199,1,0,0:0:0:99:E4S_s.wav
316,192,107199,1,0,0:0:0:88:E6S_s.wav
10,192,107304,1,0,0:0:0:99:E3S_s.wav
163,192,107304,1,0,0:0:0:88:G#6S_Ab6S_s.wav
265,192,107304,1,0,0:0:0:99:A6S_s.wav
61,192,107409,1,0,0:0:0:99:E4S_s.wav
418,192,107409,1,0,0:0:0:88:E6S_s.wav
469,192,107409,1,0,0:0:0:99:G#6S_Ab6S_s.wav
112,192,107515,1,0,0:0:0:99:E3S_s.wav
214,192,107515,1,0,0:0:0:99:E5S_s.wav
316,192,107515,1,0,0:0:0:88:B5S_s.wav
367,192,107515,1,0,0:0:0:99:F#6S_Gb6S_s.wav
10,192,107620,1,0,0:0:0:99:E4S_s.wav
163,192,107620,1,0,0:0:0:99:F#5S_Gb5S_s.wav
265,192,107620,1,0,0:0:0:88:E6S_s.wav
469,192,107620,1,0,0:0:0:99:F#6S_Gb6S.wav
61,192,107725,1,0,0:0:0:99:B2S_s.wav
214,192,107725,1,0,0:0:0:99:B4S.wav
418,192,107725,1,0,0:0:0:88:A6S_s.wav
112,192,107830,1,0,0:0:0:99:B3S_s.wav
316,192,107830,1,0,0:0:0:88:F#6S_Gb6S_s.wav
163,192,107936,1,0,0:0:0:99:B2S_s.wav
367,192,107936,1,0,0:0:0:88:A5S_s.wav
10,192,108041,1,0,0:0:0:99:B3S_s.wav
265,192,108041,1,0,0:0:0:88:F#6S_Gb6S_s.wav
61,192,108146,1,0,0:0:0:99:B2S_s.wav
469,192,108146,1,0,0:0:0:88:A6S_s.wav
214,192,108251,1,0,0:0:0:99:B3S_s.wav
316,192,108251,1,0,0:0:0:99:F#5S_Gb5S_s.wav
418,192,108251,1,0,0:0:0:88:F#6S_Gb6S_s.wav
112,192,108357,1,0,0:0:0:99:B2S_s.wav
367,192,108357,1,0,0:0:0:88:A5S_s.wav
10,192,108462,1,0,0:0:0:99:B3S_s.wav
163,192,108462,1,0,0:0:0:99:G#5S_Ab5S_s.wav
265,192,108462,1,0,0:0:0:88:F#6S_Gb6S_s.wav
61,192,108567,1,0,0:0:0:99:B2S_s.wav
418,192,108567,1,0,0:0:0:99:A5S_s.wav
469,192,108567,1,0,0:0:0:88:A6S_s.wav
112,192,108672,1,0,0:0:0:99:B3S_s.wav
214,192,108672,1,0,0:0:0:99:G#5S_Ab5S_s.wav
316,192,108672,1,0,0:0:0:88:F#6S_Gb6S_s.wav
163,192,108778,1,0,0:0:0:99:B2S_s.wav
265,192,108778,1,0,0:0:0:99:F#5S_Gb5S_s.wav
367,192,108778,1,0,0:0:0:88:A5S_s.wav
10,192,108883,1,0,0:0:0:99:B3S_s.wav
61,192,108883,1,0,0:0:0:99:D6S_s.wav
418,192,108883,1,0,0:0:0:88:F#6S_Gb6S_s.wav
214,192,108988,1,0,0:0:0:99:B2S_s.wav
469,192,108988,1,0,0:0:0:88:A6S_s.wav
112,192,109093,1,0,0:0:0:99:B3S_s.wav
316,192,109093,1,0,0:0:0:99:C#6S_Db6S_s.wav
367,192,109093,1,0,0:0:0:88:F#6S_Gb6S_s.wav
10,192,109199,1,0,0:0:0:99:B2S_s.wav
163,192,109199,1,0,0:0:0:88:A5S_s.wav
265,192,109199,1,0,0:0:0:99:B5S_s.wav
61,192,109304,1,0,0:0:0:99:B3S_s.wav
418,192,109304,1,0,0:0:0:88:F#6S_Gb6S_s.wav
214,192,109409,1,0,0:0:0:99:D3S_s.wav
367,192,109409,1,0,0:0:0:99:D5S_s.wav
469,192,109409,1,0,0:0:0:88:A6S_s.wav
112,192,109515,1,0,0:0:0:99:D4S_s.wav
316,192,109515,1,0,0:0:0:88:F#6S_Gb6S_s.wav
10,192,109620,1,0,0:0:0:99:D3S_s.wav
163,192,109620,1,0,0:0:0:99:E5S_s.wav
265,192,109620,1,0,0:0:0:88:A5S_s.wav
61,192,109725,1,0,0:0:0:99:D4S_s.wav
418,192,109725,1,0,0:0:0:99:F#5S_Gb5S_s.wav
469,192,109725,1,0,0:0:0:88:F#6S_Gb6S_s.wav
214,192,109830,1,0,0:0:0:99:D3S_s.wav
367,192,109830,1,0,0:0:0:88:A6S_s.wav
112,192,109936,1,0,0:0:0:99:D4S_s.wav
163,192,109936,1,0,0:0:0:99:G#5S_Ab5S_s.wav
316,192,109936,1,0,0:0:0:88:F#6S_Gb6S_s.wav
10,192,110041,1,0,0:0:0:99:D3S_s.wav
265,192,110041,1,0,0:0:0:88:A5S_s.wav
418,192,110041,1,0,0:0:0:99:A5S_s.wav
61,192,110146,1,0,0:0:0:99:D4S_s.wav
214,192,110146,1,0,0:0:0:99:F#5S_Gb5S_s.wav
469,192,110146,1,0,0:0:0:88:F#6S_Gb6S_s.wav
112,192,110251,1,0,0:0:0:99:D3S_s.wav
316,192,110251,1,0,0:0:0:99:D5S_s.wav
367,192,110251,1,0,0:0:0:99:D6S_s.wav
163,192,110304,1,0,0:0:0:99:F#5S_Gb5S_s.wav
418,192,110304,1,0,0:0:0:99:F#6S_Gb6S_s.wav
10,192,110357,1,0,0:0:0:99:D4S_s.wav
61,192,110357,1,0,0:0:0:99:A5S_s.wav
265,192,110357,1,0,0:0:0:99:A6S_s.wav
214,192,110409,1,0,0:0:0:99:D6S_s.wav
469,192,110409,1,0,0:0:0:99:D7S_s.wav
112,192,110462,1,0,0:0:0:99:D3S_s.wav
316,192,110462,1,0,0:0:0:99:F#5S_Gb5S_s.wav
367,192,110462,1,0,0:0:0:99:F#6S_Gb6S_s.wav
163,192,110515,1,0,0:0:0:99:A5S_s.wav
418,192,110515,1,0,0:0:0:99:A6S_s.wav
10,192,110567,1,0,0:0:0:99:D4S_s.wav
61,192,110567,1,0,0:0:0:99:D6S_s.wav
265,192,110567,1,0,0:0:0:99:D7S_s.wav
214,192,110620,1,0,0:0:0:99:F#6S_Gb6S_s.wav
469,192,110620,1,0,0:0:0:99:F#7S_Gb7S_s.wav
112,192,110672,1,0,0:0:0:99:D3S_s.wav
316,192,110672,1,0,0:0:0:99:A5S_s.wav
367,192,110672,1,0,0:0:0:99:A6S_s.wav
163,192,110725,1,0,0:0:0:99:D6S_s.wav
418,192,110725,1,0,0:0:0:99:D7S_s.wav
10,192,110778,1,0,0:0:0:99:D4S_s.wav
61,192,110778,1,0,0:0:0:99:F#6S_Gb6S_s.wav
265,192,110778,1,0,0:0:0:99:F#7S_Gb7S_s.wav
214,192,110830,1,0,0:0:0:99:A6S_s.wav
469,192,110830,1,0,0:0:0:99:A7S_s.wav
112,192,110883,1,0,0:0:0:99:D3S_s.wav
316,192,110883,1,0,0:0:0:99:D6S_s.wav
367,192,110883,1,0,0:0:0:99:D7S_s.wav
163,192,110936,1,0,0:0:0:99:F#6S_Gb6S_s.wav
418,192,110936,1,0,0:0:0:99:F#7S_Gb7S_s.wav
10,192,110988,1,0,0:0:0:99:D4S_s.wav
61,192,110988,1,0,0:0:0:99:A6S_s.wav
265,192,110988,1,0,0:0:0:99:A7S_s.wav
214,192,111041,1,0,0:0:0:99:D7S_s.wav
469,192,111041,1,0,0:0:0:99:D8S_s.wav
112,192,111093,1,0,0:0:0:99:F#3S_Gb3S_s.wav
316,192,111093,1,0,0:0:0:99:C#6S_Db6S_s.wav
367,192,111093,1,0,0:0:0:62:C#7S_Db7S_s.wav
163,192,111146,1,0,0:0:0:99:F#6S_Gb6S_s.wav
418,192,111146,1,0,0:0:0:62:F#7S_Gb7S_s.wav
10,192,111200,1,0,0:0:0:99:F#3S_Gb3S_s.wav
61,192,111200,1,0,0:0:0:99:A6S_s.wav
265,192,111200,1,0,0:0:0:62:A7S_s.wav
214,192,111253,1,0,0:0:0:99:F#6S_Gb6S_s.wav
469,192,111253,1,0,0:0:0:62:F#7S_Gb7S_s.wav
112,192,111307,1,0,0:0:0:99:F#3S_Gb3S_s.wav
316,192,111307,1,0,0:0:0:99:C#6S_Db6S_s.wav
367,192,111307,1,0,0:0:0:62:C#7S_Db7S_s.wav
163,192,111360,1,0,0:0:0:99:F#6S_Gb6S_s.wav
418,192,111360,1,0,0:0:0:62:F#7S_Gb7S_s.wav
10,192,111413,1,0,0:0:0:99:F#3S_Gb3S_s.wav
61,192,111413,1,0,0:0:0:99:A6S_s.wav
265,192,111413,1,0,0:0:0:62:A7S_s.wav
214,192,111467,1,0,0:0:0:99:F#6S_Gb6S_s.wav
469,192,111467,1,0,0:0:0:62:F#7S_Gb7S_s.wav
112,192,111520,1,0,0:0:0:99:C#6S_Db6S_s.wav
316,192,111520,1,0,0:0:0:62:A6S_s.wav
367,192,111520,1,0,0:0:0:62:C#7S_Db7S_s.wav
163,192,111573,1,0,0:0:0:99:F#6S_Gb6S_s.wav
418,192,111573,1,0,0:0:0:62:F#7S_Gb7S_s.wav
10,192,111627,1,0,0:0:0:99:F#3S_Gb3S_s.wav
61,192,111627,1,0,0:0:0:99:A6S_s.wav
265,192,111627,1,0,0:0:0:62:A7S_s.wav
214,192,111680,1,0,0:0:0:99:F#6S_Gb6S_s.wav
469,192,111680,1,0,0:0:0:62:F#7S_Gb7S_s.wav
112,192,111734,1,0,0:0:0:99:F#3S_Gb3S_s.wav
316,192,111734,1,0,0:0:0:99:C#6S_Db6S_s.wav
367,192,111734,1,0,0:0:0:62:C#7S_Db7S_s.wav
163,192,111787,1,0,0:0:0:99:F#6S_Gb6S_s.wav
418,192,111787,1,0,0:0:0:62:F#7S_Gb7S_s.wav
10,192,111840,1,0,0:0:0:99:F#3S_Gb3S_s.wav
61,192,111840,1,0,0:0:0:99:A6S_s.wav
265,192,111840,1,0,0:0:0:62:A7S_s.wav
214,192,111894,1,0,0:0:0:99:F#6S_Gb6S_s.wav
469,192,111894,1,0,0:0:0:62:F#7S_Gb7S_s.wav
112,192,111947,1,0,0:0:0:99:F#3S_Gb3S_s.wav
316,192,111947,1,0,0:0:0:99:A5S_s.wav
367,192,111947,1,0,0:0:0:62:A6S_s.wav
163,192,112001,1,0,0:0:0:99:C#6S_Db6S_s.wav
418,192,112001,1,0,0:0:0:62:C#7S_Db7S_s.wav
10,192,112055,1,0,0:0:0:99:F#3S_Gb3S_s.wav
61,192,112055,1,0,0:0:0:99:F#6S_Gb6S_s.wav
265,192,112055,1,0,0:0:0:62:F#7S_Gb7S_s.wav
214,192,112109,1,0,0:0:0:99:A6S_s.wav
469,192,112109,1,0,0:0:0:62:A7S_s.wav
112,192,112164,1,0,0:0:0:99:F#3S_Gb3S_s.wav
316,192,112164,1,0,0:0:0:99:C#6S_Db6S_s.wav
367,192,112164,1,0,0:0:0:62:C#7S_Db7S_s.wav
163,192,112218,1,0,0:0:0:99:F#6S_Gb6S_s.wav
418,192,112218,1,0,0:0:0:62:F#7S_Gb7S_s.wav
10,192,112272,1,0,0:0:0:99:F#3S_Gb3S_s.wav
61,192,112272,1,0,0:0:0:99:A6S_s.wav
265,192,112272,1,0,0:0:0:62:A7S_s.wav
214,192,112326,1,0,0:0:0:99:C#7S_Db7S_s.wav
469,192,112326,1,0,0:0:0:62:C#8S_Db8S_s.wav
112,192,112380,1,0,0:0:0:99:F#3S_Gb3S_s.wav
316,192,112380,1,0,0:0:0:99:A6S_s.wav
367,192,112380,1,0,0:0:0:62:A7S_s.wav
163,192,112434,1,0,0:0:0:99:C#7S_Db7S_s.wav
418,192,112434,1,0,0:0:0:62:C#8S_Db8S_s.wav
10,192,112489,1,0,0:0:0:99:F#3S_Gb3S_s.wav
61,192,112489,1,0,0:0:0:99:F#7S_Gb7S_s.wav
265,192,112489,1,0,0:0:0:62:F#8S_Gb8S_s.wav
214,192,112543,1,0,0:0:0:99:A7S_s.wav
469,192,112543,1,0,0:0:0:62:A8S_s.wav
112,192,112597,1,0,0:0:0:99:F#3S_Gb3S_s.wav
316,192,112597,1,0,0:0:0:99:C#7S_Db7S_s.wav
367,192,112597,1,0,0:0:0:62:C#8S_Db8S_s.wav
163,192,112651,1,0,0:0:0:99:F#7S_Gb7S_s.wav
418,192,112651,1,0,0:0:0:62:F#8S_Gb8S_s.wav
10,192,112705,1,0,0:0:0:99:F#3S_Gb3S_s.wav
61,192,112705,1,0,0:0:0:99:A7S_s.wav
265,192,112705,1,0,0:0:0:62:A8S_s.wav
214,192,112759,1,0,0:0:0:99:C#8S_Db8S_s.wav
469,192,112759,1,0,0:0:0:62:null_s.wav
112,192,112813,1,0,0:0:0:99:E3S_s.wav
316,192,112813,1,0,0:0:0:99:G#5S_Ab5S_s.wav
367,192,112813,1,0,0:0:0:62:G#6S_Ab6S_s.wav
163,192,112868,1,0,0:0:0:99:B5S_s.wav
418,192,112868,1,0,0:0:0:62:B6S_s.wav
10,192,112922,1,0,0:0:0:99:E3S_s.wav
61,192,112922,1,0,0:0:0:99:E6S_s.wav
265,192,112922,1,0,0:0:0:62:E7S_s.wav
214,192,112977,1,0,0:0:0:99:G#6S_Ab6S_s.wav
469,192,112977,1,0,0:0:0:62:G#7S_Ab7S_s.wav
112,192,113032,1,0,0:0:0:99:E3S_s.wav
316,192,113032,1,0,0:0:0:99:B5S_s.wav
367,192,113032,1,0,0:0:0:62:B6S_s.wav
163,192,113087,1,0,0:0:0:99:E6S_s.wav
418,192,113087,1,0,0:0:0:62:E7S_s.wav
10,192,113141,1,0,0:0:0:99:E3S_s.wav
61,192,113141,1,0,0:0:0:99:G#6S_Ab6S_s.wav
265,192,113141,1,0,0:0:0:62:G#7S_Ab7S_s.wav
214,192,113196,1,0,0:0:0:99:B6S_s.wav
469,192,113196,1,0,0:0:0:62:B7S_s.wav
112,192,113251,1,0,0:0:0:99:E3S_s.wav
316,192,113251,1,0,0:0:0:99:G#6S_Ab6S_s.wav
367,192,113251,1,0,0:0:0:62:G#7S_Ab7S_s.wav
163,192,113306,1,0,0:0:0:99:B6S_s.wav
418,192,113306,1,0,0:0:0:62:B7S_s.wav
10,192,113360,1,0,0:0:0:99:E3S_s.wav
61,192,113360,1,0,0:0:0:99:E7S_s.wav
265,192,113360,1,0,0:0:0:62:E8S_s.wav
214,192,113415,1,0,0:0:0:99:G#7S_Ab7S_s.wav
469,192,113415,1,0,0:0:0:62:G#8S_Ab8S_s.wav
112,192,113470,1,0,0:0:0:99:E3S_s.wav
316,192,113470,1,0,0:0:0:99:B6S_s.wav
367,192,113470,1,0,0:0:0:62:B7S_s.wav
163,192,113525,1,0,0:0:0:99:E7S_s.wav
418,192,113525,1,0,0:0:0:62:E8S_s.wav
10,192,113579,1,0,0:0:0:99:E3S_s.wav
61,192,113579,1,0,0:0:0:99:G#7S_Ab7S_s.wav
265,192,113579,1,0,0:0:0:62:G#8S_Ab8S_s.wav
214,192,113634,1,0,0:0:0:99:B7S_s.wav
469,192,113634,1,0,0:0:0:62:B8S_s.wav
112,192,113689,1,0,0:0:0:99:E3S_s.wav
316,192,113689,1,0,0:0:0:99:B5S_s.wav
367,192,113689,1,0,0:0:0:62:B6S_s.wav
163,192,113744,1,0,0:0:0:99:E6S_s.wav
418,192,113744,1,0,0:0:0:62:E7S_s.wav
10,192,113800,1,0,0:0:0:99:E3S_s.wav
61,192,113800,1,0,0:0:0:99:G#6S_Ab6S_s.wav
265,192,113800,1,0,0:0:0:62:G#7S_Ab7S_s.wav
214,192,113855,1,0,0:0:0:99:B6S_s.wav
469,192,113855,1,0,0:0:0:62:B7S_s.wav
112,192,113910,1,0,0:0:0:99:E3S_s.wav
316,192,113910,1,0,0:0:0:99:E6S_s.wav
367,192,113910,1,0,0:0:0:62:E7S_s.wav
163,192,113966,1,0,0:0:0:99:G#6S_Ab6S_s.wav
418,192,113966,1,0,0:0:0:62:G#7S_Ab7S_s.wav
10,192,114021,1,0,0:0:0:99:E3S_s.wav
61,192,114021,1,0,0:0:0:99:B6S_s.wav
265,192,114021,1,0,0:0:0:62:B7S_s.wav
214,192,114076,1,0,0:0:0:99:E7S_s.wav
469,192,114076,1,0,0:0:0:62:E8S_s.wav
112,192,114132,1,0,0:0:0:99:E3S_s.wav
316,192,114132,1,0,0:0:0:99:B6S_s.wav
367,192,114132,1,0,0:0:0:62:B7S_s.wav
163,192,114187,1,0,0:0:0:99:E7S_s.wav
418,192,114187,1,0,0:0:0:62:E8S_s.wav
10,192,114243,1,0,0:0:0:99:E3S_s.wav
61,192,114243,1,0,0:0:0:99:G#7S_Ab7S_s.wav
265,192,114243,1,0,0:0:0:62:G#8S_Ab8S_s.wav
214,192,114298,1,0,0:0:0:99:B7S_s.wav
469,192,114298,1,0,0:0:0:62:B8S_s.wav
112,192,114353,1,0,0:0:0:99:E3S_s.wav
316,192,114353,1,0,0:0:0:99:G#6S_Ab6S_s.wav
367,192,114353,1,0,0:0:0:62:G#7S_Ab7S_s.wav
163,192,114409,1,0,0:0:0:99:B6S_s.wav
418,192,114409,1,0,0:0:0:62:B7S_s.wav
10,192,114464,1,0,0:0:0:99:E3S_s.wav
61,192,114464,1,0,0:0:0:99:E7S_s.wav
265,192,114464,1,0,0:0:0:62:E8S_s.wav
214,192,114519,1,0,0:0:0:99:G#7S_Ab7S_s.wav
469,192,114519,1,0,0:0:0:62:G#8S_Ab8S_s.wav
112,192,114575,1,0,0:0:0:62:A6S_s.wav
316,192,114575,1,0,0:0:0:99:A6S_s.wav
367,192,114575,1,0,0:0:0:62:A7S_s.wav
163,192,114631,1,0,0:0:0:99:A5S_s.wav
418,192,114631,1,0,0:0:0:62:A6S_s.wav
10,192,114687,1,0,0:0:0:99:A6S_s.wav
61,192,114687,1,0,0:0:0:62:C#7S_Db7S_s.wav
265,192,114687,1,0,0:0:0:62:A7S_s.wav
214,192,114743,1,0,0:0:0:99:F#6S_Gb6S_s.wav
469,192,114743,1,0,0:0:0:62:F#7S_Gb7S_s.wav
112,192,114799,1,0,0:0:0:62:A6S_s.wav
316,192,114799,1,0,0:0:0:99:A6S_s.wav
367,192,114799,1,0,0:0:0:62:A7S_s.wav
163,192,114855,1,0,0:0:0:99:A5S_s.wav
418,192,114855,1,0,0:0:0:62:A6S_s.wav
10,192,114911,1,0,0:0:0:99:C#3S_Db3S_s.wav
61,192,114911,1,0,0:0:0:99:C#6S_Db6S_s.wav
265,192,114911,1,0,0:0:0:62:C#7S_Db7S_s.wav
214,192,114967,1,0,0:0:0:99:F#6S_Gb6S_s.wav
367,192,114967,1,0,0:0:0:99:A6S_s.wav
469,192,114967,1,0,0:0:0:62:F#7S_Gb7S_s.wav
112,192,115023,1,0,0:0:0:99:A5S_s.wav
163,192,115023,1,0,0:0:0:62:A6S_s.wav
316,192,115023,1,0,0:0:0:62:A7S_s.wav
10,192,115079,1,0,0:0:0:99:A5S_s.wav
265,192,115079,1,0,0:0:0:62:A6S_s.wav
418,192,115079,1,0,0:0:0:99:A6S_s.wav
61,192,115135,1,0,0:0:0:99:C#6S_Db6S_s.wav
214,192,115135,1,0,0:0:0:62:C#7S_Db7S_s.wav
367,192,115135,1,0,0:0:0:62:A7S_s.wav
163,192,115191,1,0,0:0:0:99:F#6S_Gb6S_s.wav
316,192,115191,1,0,0:0:0:99:A6S_s.wav
469,192,115191,1,0,0:0:0:62:F#7S_Gb7S_s.wav
10,192,115247,1,0,0:0:0:99:A5S_s.wav
112,192,115247,1,0,0:0:0:62:A6S_s.wav
265,192,115247,1,0,0:0:0:62:A7S_s.wav
214,192,115303,1,0,0:0:0:99:A5S_s.wav
418,192,115303,1,0,0:0:0:62:A6S_s.wav
61,192,115359,1,0,0:0:0:99:C#3S_Db3S_s.wav
316,192,115359,1,0,0:0:0:99:C#6S_Db6S_s.wav
367,192,115359,1,0,0:0:0:62:C#7S_Db7S_s.wav
163,192,115415,1,0,0:0:0:99:F#6S_Gb6S_s.wav
469,192,115415,1,0,0:0:0:62:F#7S_Gb7S_s.wav
10,192,115471,1,0,0:0:0:62:F#6S_Gb6S_s.wav
112,192,115471,1,0,0:0:0:99:F#6S_Gb6S_s.wav
265,192,115471,1,0,0:0:0:62:F#7S_Gb7S_s.wav
214,192,115528,1,0,0:0:0:99:A5S_s.wav
418,192,115528,1,0,0:0:0:62:A6S_s.wav
61,192,115585,1,0,0:0:0:99:F#6S_Gb6S_s.wav
316,192,115585,1,0,0:0:0:62:C#7S_Db7S_s.wav
367,192,115585,1,0,0:0:0:62:F#7S_Gb7S_s.wav
163,192,115641,1,0,0:0:0:99:F#6S_Gb6S_s.wav
469,192,115641,1,0,0:0:0:62:F#7S_Gb7S_s.wav
10,192,115698,1,0,0:0:0:62:F#6S_Gb6S_s.wav
112,192,115698,1,0,0:0:0:99:F#6S_Gb6S_s.wav
265,192,115698,1,0,0:0:0:62:F#7S_Gb7S_s.wav
214,192,115755,1,0,0:0:0:99:A5S_s.wav
418,192,115755,1,0,0:0:0:62:A6S_s.wav
61,192,115812,1,0,0:0:0:99:C#3S_Db3S_s.wav
316,192,115812,1,0,0:0:0:99:C#6S_Db6S_s.wav
367,192,115812,1,0,0:0:0:62:C#7S_Db7S_s.wav
163,192,115869,1,0,0:0:0:99:F#6S_Gb6S_s.wav
469,192,115869,1,0,0:0:0:62:F#7S_Gb7S_s.wav
10,192,115926,1,0,0:0:0:62:F#6S_Gb6S_s.wav
112,192,115926,1,0,0:0:0:99:F#6S_Gb6S_s.wav
265,192,115926,1,0,0:0:0:62:F#7S_Gb7S_s.wav
214,192,115982,1,0,0:0:0:99:A5S_s.wav
418,192,115982,1,0,0:0:0:62:A6S_s.wav
61,192,116039,1,0,0:0:0:99:F#6S_Gb6S_s.wav
316,192,116039,1,0,0:0:0:62:C#7S_Db7S_s.wav
367,192,116039,1,0,0:0:0:62:F#7S_Gb7S_s.wav
163,192,116096,1,0,0:0:0:99:F#6S_Gb6S_s.wav
469,192,116096,1,0,0:0:0:62:F#7S_Gb7S_s.wav
10,192,116153,1,0,0:0:0:62:F#6S_Gb6S_s.wav
112,192,116153,1,0,0:0:0:99:F#6S_Gb6S_s.wav
265,192,116153,1,0,0:0:0:62:F#7S_Gb7S_s.wav
214,192,116210,1,0,0:0:0:99:A5S_s.wav
418,192,116210,1,0,0:0:0:62:A6S_s.wav
61,192,116266,1,0,0:0:0:99:C#3S_Db3S_s.wav
316,192,116266,1,0,0:0:0:99:C#6S_Db6S_s.wav
367,192,116266,1,0,0:0:0:62:C#7S_Db7S_s.wav
163,192,116323,1,0,0:0:0:99:F#6S_Gb6S_s.wav
469,192,116323,1,0,0:0:0:62:F#7S_Gb7S_s.wav
10,192,116380,1,0,0:0:0:62:A6S_s.wav
112,192,116380,1,0,0:0:0:99:A6S_s.wav
265,192,116380,1,0,0:0:0:62:A7S_s.wav
214,192,116438,1,0,0:0:0:99:A5S_s.wav
418,192,116438,1,0,0:0:0:62:A6S_s.wav
61,192,116495,1,0,0:0:0:99:A6S_s.wav
316,192,116495,1,0,0:0:0:62:C#7S_Db7S_s.wav
367,192,116495,1,0,0:0:0:62:A7S_s.wav
163,192,116553,1,0,0:0:0:99:F#6S_Gb6S_s.wav
469,192,116553,1,0,0:0:0:62:F#7S_Gb7S_s.wav
10,192,116611,1,0,0:0:0:62:A6S_s.wav
112,192,116611,1,0,0:0:0:99:A6S_s.wav
265,192,116611,1,0,0:0:0:62:A7S_s.wav
214,192,116668,1,0,0:0:0:99:A5S_s.wav
418,192,116668,1,0,0:0:0:62:A6S_s.wav
61,192,116726,1,0,0:0:0:99:A2S_s.wav
316,192,116726,1,0,0:0:0:99:C#6S_Db6S_s.wav
367,192,116726,1,0,0:0:0:62:C#7S_Db7S_s.wav
10,192,116784,1,0,0:0:0:99:F#6S_Gb6S_s.wav
163,192,116784,1,0,0:0:0:99:A6S_s.wav
469,192,116784,1,0,0:0:0:62:F#7S_Gb7S_s.wav
112,192,116842,1,0,0:0:0:99:A5S_s.wav
265,192,116842,1,0,0:0:0:62:A6S_s.wav
418,192,116842,1,0,0:0:0:62:A7S_s.wav
61,192,116899,1,0,0:0:0:99:A5S_s.wav
214,192,116899,1,0,0:0:0:62:A6S_s.wav
367,192,116899,1,0,0:0:0:99:A6S_s.wav
10,192,116957,1,0,0:0:0:99:C#6S_Db6S_s.wav
316,192,116957,1,0,0:0:0:62:C#7S_Db7S_s.wav
469,192,116957,1,0,0:0:0:62:A7S_s.wav
112,192,117015,1,0,0:0:0:99:F#6S_Gb6S_s.wav
163,192,117015,1,0,0:0:0:99:A6S_s.wav
418,192,117015,1,0,0:0:0:62:F#7S_Gb7S_s.wav
61,192,117072,1,0,0:0:0:99:A5S_s.wav
265,192,117072,1,0,0:0:0:62:A6S_s.wav
367,192,117072,1,0,0:0:0:62:A7S_s.wav
214,192,117130,1,0,0:0:0:99:A5S_s.wav
316,192,117130,1,0,0:0:0:62:A6S_s.wav
10,192,117188,1,0,0:0:0:99:A2S_s.wav
163,192,117188,1,0,0:0:0:99:C#6S_Db6S_s.wav
469,192,117188,1,0,0:0:0:62:C#7S_Db7S_s.wav
112,192,117245,1,0,0:0:0:99:F#6S_Gb6S_s.wav
418,192,117245,1,0,0:0:0:62:F#7S_Gb7S_s.wav
61,192,117303,1,0,0:0:0:62:F#6S_Gb6S_s.wav
265,192,117303,1,0,0:0:0:99:F#6S_Gb6S_s.wav
367,192,117303,1,0,0:0:0:62:F#7S_Gb7S_s.wav
214,192,117362,1,0,0:0:0:99:A5S_s.wav
316,192,117362,1,0,0:0:0:62:A6S_s.wav
10,192,117420,1,0,0:0:0:99:F#6S_Gb6S_s.wav
163,192,117420,1,0,0:0:0:62:C#7S_Db7S_s.wav
469,192,117420,1,0,0:0:0:62:F#7S_Gb7S_s.wav
112,192,117479,1,0,0:0:0:99:F#6S_Gb6S_s.wav
418,192,117479,1,0,0:0:0:62:F#7S_Gb7S_s.wav
61,192,117537,1,0,0:0:0:62:F#6S_Gb6S_s.wav
265,192,117537,1,0,0:0:0:99:F#6S_Gb6S_s.wav
367,192,117537,1,0,0:0:0:62:F#7S_Gb7S_s.wav
214,192,117596,1,0,0:0:0:99:A5S_s.wav
316,192,117596,1,0,0:0:0:62:A6S_s.wav
10,192,117655,1,0,0:0:0:99:A2S_s.wav
163,192,117655,1,0,0:0:0:99:C#6S_Db6S_s.wav
469,192,117655,1,0,0:0:0:62:C#7S_Db7S_s.wav
112,192,117713,1,0,0:0:0:99:F#6S_Gb6S_s.wav
418,192,117713,1,0,0:0:0:62:F#7S_Gb7S_s.wav
61,192,117772,1,0,0:0:0:62:F#6S_Gb6S_s.wav
265,192,117772,1,0,0:0:0:99:F#6S_Gb6S_s.wav
367,192,117772,1,0,0:0:0:62:F#7S_Gb7S_s.wav
214,192,117830,1,0,0:0:0:99:A5S_s.wav
316,192,117830,1,0,0:0:0:62:A6S_s.wav
10,192,117889,1,0,0:0:0:99:F#6S_Gb6S_s.wav
163,192,117889,1,0,0:0:0:62:C#7S_Db7S_s.wav
469,192,117889,1,0,0:0:0:62:F#7S_Gb7S_s.wav
112,192,117948,1,0,0:0:0:99:F#6S_Gb6S_s.wav
418,192,117948,1,0,0:0:0:62:F#7S_Gb7S_s.wav
61,192,118006,1,0,0:0:0:62:F#6S_Gb6S_s.wav
265,192,118006,1,0,0:0:0:99:F#6S_Gb6S_s.wav
367,192,118006,1,0,0:0:0:62:F#7S_Gb7S_s.wav
214,192,118065,1,0,0:0:0:99:A5S_s.wav
316,192,118065,1,0,0:0:0:62:A6S_s.wav
10,192,118123,1,0,0:0:0:99:A2S_s.wav
163,192,118123,1,0,0:0:0:99:C#6S_Db6S_s.wav
469,192,118123,1,0,0:0:0:62:C#7S_Db7S_s.wav
112,192,118182,1,0,0:0:0:99:F#6S_Gb6S_s.wav
418,192,118182,1,0,0:0:0:62:F#7S_Gb7S_s.wav
61,192,118241,1,0,0:0:0:99:F#3S_Gb3S_s.wav
265,192,118241,1,0,0:0:0:99:C#6S_Db6S_s.wav
367,192,118241,1,0,0:0:0:62:C#7S_Db7S_s.wav
214,192,118301,1,0,0:0:0:99:F#6S_Gb6S_s.wav
316,192,118301,1,0,0:0:0:62:F#7S_Gb7S_s.wav
10,192,118360,1,0,0:0:0:99:F#3S_Gb3S_s.wav
163,192,118360,1,0,0:0:0:99:A6S_s.wav
469,192,118360,1,0,0:0:0:62:A7S_s.wav
112,192,118420,1,0,0:0:0:99:F#6S_Gb6S_s.wav
418,192,118420,1,0,0:0:0:62:F#7S_Gb7S_s.wav
61,192,118479,1,0,0:0:0:99:F#3S_Gb3S_s.wav
265,192,118479,1,0,0:0:0:99:C#6S_Db6S_s.wav
367,192,118479,1,0,0:0:0:62:C#7S_Db7S_s.wav
214,192,118539,1,0,0:0:0:99:F#6S_Gb6S_s.wav
316,192,118539,1,0,0:0:0:62:F#7S_Gb7S_s.wav
10,192,118598,1,0,0:0:0:99:F#3S_Gb3S_s.wav
163,192,118598,1,0,0:0:0:99:A6S_s.wav
469,192,118598,1,0,0:0:0:62:A7S_s.wav
112,192,118658,1,0,0:0:0:99:F#6S_Gb6S_s.wav
418,192,118658,1,0,0:0:0:62:F#7S_Gb7S_s.wav
61,192,118717,1,0,0:0:0:99:C#6S_Db6S_s.wav
265,192,118717,1,0,0:0:0:62:A6S_s.wav
367,192,118717,1,0,0:0:0:62:C#7S_Db7S_s.wav
214,192,118777,1,0,0:0:0:99:F#6S_Gb6S_s.wav
316,192,118777,1,0,0:0:0:62:F#7S_Gb7S_s.wav
10,192,118836,1,0,0:0:0:99:F#3S_Gb3S_s.wav
163,192,118836,1,0,0:0:0:99:A6S_s.wav
469,192,118836,1,0,0:0:0:62:A7S_s.wav
112,192,118896,1,0,0:0:0:99:F#6S_Gb6S_s.wav
418,192,118896,1,0,0:0:0:62:F#7S_Gb7S_s.wav
61,192,118955,1,0,0:0:0:99:F#3S_Gb3S_s.wav
265,192,118955,1,0,0:0:0:99:C#6S_Db6S_s.wav
367,192,118955,1,0,0:0:0:62:C#7S_Db7S_s.wav
214,192,119015,1,0,0:0:0:99:F#6S_Gb6S_s.wav
316,192,119015,1,0,0:0:0:62:F#7S_Gb7S_s.wav
10,192,119074,1,0,0:0:0:99:F#3S_Gb3S_s.wav
163,192,119074,1,0,0:0:0:99:A6S_s.wav
469,192,119074,1,0,0:0:0:62:A7S_s.wav
112,192,119134,1,0,0:0:0:99:F#6S_Gb6S_s.wav
418,192,119134,1,0,0:0:0:62:F#7S_Gb7S_s.wav
61,192,119193,1,0,0:0:0:99:F#3S_Gb3S_s.wav
265,192,119193,1,0,0:0:0:99:A5S_s.wav
367,192,119193,1,0,0:0:0:62:A6S_s.wav
214,192,119254,1,0,0:0:0:99:C#6S_Db6S_s.wav
316,192,119254,1,0,0:0:0:62:C#7S_Db7S_s.wav
10,192,119314,1,0,0:0:0:99:F#3S_Gb3S_s.wav
163,192,119314,1,0,0:0:0:99:F#6S_Gb6S_s.wav
469,192,119314,1,0,0:0:0:62:F#7S_Gb7S_s.wav
112,192,119375,1,0,0:0:0:99:A6S_s.wav
418,192,119375,1,0,0:0:0:62:A7S_s.wav
61,192,119436,1,0,0:0:0:99:F#3S_Gb3S_s.wav
265,192,119436,1,0,0:0:0:99:C#6S_Db6S_s.wav
367,192,119436,1,0,0:0:0:62:C#7S_Db7S_s.wav
214,192,119497,1,0,0:0:0:99:F#6S_Gb6S_s.wav
316,192,119497,1,0,0:0:0:62:F#7S_Gb7S_s.wav
10,192,119557,1,0,0:0:0:99:F#3S_Gb3S_s.wav
163,192,119557,1,0,0:0:0:99:A6S_s.wav
469,192,119557,1,0,0:0:0:62:A7S_s.wav
112,192,119618,1,0,0:0:0:99:C#7S_Db7S_s.wav
418,192,119618,1,0,0:0:0:62:C#8S_Db8S_s.wav
61,192,119679,1,0,0:0:0:99:F#3S_Gb3S_s.wav
265,192,119679,1,0,0:0:0:99:A6S_s.wav
367,192,119679,1,0,0:0:0:62:A7S_s.wav
214,192,119740,1,0,0:0:0:99:C#7S_Db7S_s.wav
316,192,119740,1,0,0:0:0:62:C#8S_Db8S_s.wav
10,192,119800,1,0,0:0:0:99:F#3S_Gb3S_s.wav
163,192,119800,1,0,0:0:0:99:F#7S_Gb7S_s.wav
469,192,119800,1,0,0:0:0:62:F#8S_Gb8S_s.wav
112,192,119861,1,0,0:0:0:99:A7S_s.wav
418,192,119861,1,0,0:0:0:62:A8S_s.wav
61,192,119922,1,0,0:0:0:99:F#3S_Gb3S_s.wav
265,192,119922,1,0,0:0:0:99:C#7S_Db7S_s.wav
367,192,119922,1,0,0:0:0:62:C#8S_Db8S_s.wav
214,192,119982,1,0,0:0:0:99:F#7S_Gb7S_s.wav
316,192,119982,1,0,0:0:0:62:F#8S_Gb8S_s.wav
10,192,120043,1,0,0:0:0:99:F#3S_Gb3S_s.wav
163,192,120043,1,0,0:0:0:99:A7S_s.wav
469,192,120043,1,0,0:0:0:62:A8S_s.wav
112,192,120104,1,0,0:0:0:99:C#8S_Db8S_s.wav
418,192,120104,1,0,0:0:0:62:null_s.wav
61,192,120165,1,0,0:0:0:99:E3S_s.wav
265,192,120165,1,0,0:0:0:99:G#5S_Ab5S_s.wav
367,192,120165,1,0,0:0:0:62:G#6S_Ab6S_s.wav
214,192,120227,1,0,0:0:0:99:B5S_s.wav
316,192,120227,1,0,0:0:0:62:B6S_s.wav
10,192,120288,1,0,0:0:0:99:E3S_s.wav
163,192,120288,1,0,0:0:0:99:E6S_s.wav
469,192,120288,1,0,0:0:0:62:E7S_s.wav
112,192,120350,1,0,0:0:0:99:G#6S_Ab6S_s.wav
418,192,120350,1,0,0:0:0:62:G#7S_Ab7S_s.wav
61,192,120412,1,0,0:0:0:99:E3S_s.wav
265,192,120412,1,0,0:0:0:99:B5S_s.wav
367,192,120412,1,0,0:0:0:62:B6S_s.wav
214,192,120474,1,0,0:0:0:99:E6S_s.wav
316,192,120474,1,0,0:0:0:62:E7S_s.wav
10,192,120535,1,0,0:0:0:99:E3S_s.wav
163,192,120535,1,0,0:0:0:99:G#6S_Ab6S_s.wav
469,192,120535,1,0,0:0:0:62:G#7S_Ab7S_s.wav
112,192,120597,1,0,0:0:0:99:B6S_s.wav
418,192,120597,1,0,0:0:0:62:B7S_s.wav
61,192,120659,1,0,0:0:0:99:E3S_s.wav
265,192,120659,1,0,0:0:0:99:G#6S_Ab6S_s.wav
367,192,120659,1,0,0:0:0:62:G#7S_Ab7S_s.wav
214,192,120721,1,0,0:0:0:99:B6S_s.wav
316,192,120721,1,0,0:0:0:62:B7S_s.wav
10,192,120782,1,0,0:0:0:99:E3S_s.wav
163,192,120782,1,0,0:0:0:99:E7S_s.wav
469,192,120782,1,0,0:0:0:62:E8S_s.wav
112,192,120844,1,0,0:0:0:99:G#7S_Ab7S_s.wav
418,192,120844,1,0,0:0:0:62:G#8S_Ab8S_s.wav
61,192,120906,1,0,0:0:0:99:E3S_s.wav
265,192,120906,1,0,0:0:0:99:B6S_s.wav
367,192,120906,1,0,0:0:0:62:B7S_s.wav
214,192,120967,1,0,0:0:0:99:E7S_s.wav
316,192,120967,1,0,0:0:0:62:E8S_s.wav
10,192,121029,1,0,0:0:0:99:E3S_s.wav
163,192,121029,1,0,0:0:0:99:G#7S_Ab7S_s.wav
469,192,121029,1,0,0:0:0:62:G#8S_Ab8S_s.wav
112,192,121091,1,0,0:0:0:99:B7S_s.wav
418,192,121091,1,0,0:0:0:62:B8S_s.wav
61,192,121153,1,0,0:0:0:99:E3S_s.wav
265,192,121153,1,0,0:0:0:99:B5S_s.wav
367,192,121153,1,0,0:0:0:62:B6S_s.wav
214,192,121218,1,0,0:0:0:99:E6S_s.wav
316,192,121218,1,0,0:0:0:62:E7S_s.wav
10,192,121283,1,0,0:0:0:99:E3S_s.wav
163,192,121283,1,0,0:0:0:99:G#6S_Ab6S_s.wav
469,192,121283,1,0,0:0:0:62:G#7S_Ab7S_s.wav
112,192,121348,1,0,0:0:0:99:B6S_s.wav
418,192,121348,1,0,0:0:0:62:B7S_s.wav
61,192,121413,1,0,0:0:0:99:E3S_s.wav
265,192,121413,1,0,0:0:0:99:E6S_s.wav
367,192,121413,1,0,0:0:0:62:E7S_s.wav
214,192,121478,1,0,0:0:0:99:G#6S_Ab6S_s.wav
316,192,121478,1,0,0:0:0:62:G#7S_Ab7S_s.wav
10,192,121543,1,0,0:0:0:99:E3S_s.wav
163,192,121543,1,0,0:0:0:99:B6S_s.wav
469,192,121543,1,0,0:0:0:62:B7S_s.wav
112,192,121608,1,0,0:0:0:99:E7S_s.wav
418,192,121608,1,0,0:0:0:62:E8S_s.wav
61,192,121672,1,0,0:0:0:99:E3S_s.wav
265,192,121672,1,0,0:0:0:99:B6S_s.wav
367,192,121672,1,0,0:0:0:62:B7S_s.wav
214,192,121737,1,0,0:0:0:99:E7S_s.wav
316,192,121737,1,0,0:0:0:62:E8S_s.wav
10,192,121802,1,0,0:0:0:99:E3S_s.wav
163,192,121802,1,0,0:0:0:99:G#7S_Ab7S_s.wav
469,192,121802,1,0,0:0:0:62:G#8S_Ab8S_s.wav
112,192,121867,1,0,0:0:0:99:B7S_s.wav
418,192,121867,1,0,0:0:0:62:B8S_s.wav
61,192,121932,1,0,0:0:0:99:E3S_s.wav
265,192,121932,1,0,0:0:0:99:G#6S_Ab6S_s.wav
367,192,121932,1,0,0:0:0:62:G#7S_Ab7S_s.wav
214,192,121997,1,0,0:0:0:99:B6S_s.wav
316,192,121997,1,0,0:0:0:62:B7S_s.wav
10,192,122062,1,0,0:0:0:99:E3S_s.wav
163,192,122062,1,0,0:0:0:99:E7S_s.wav
469,192,122062,1,0,0:0:0:62:E8S_s.wav
112,192,122127,1,0,0:0:0:99:G#7S_Ab7S_s.wav
418,192,122127,1,0,0:0:0:62:G#8S_Ab8S_s.wav
61,192,122192,1,0,0:0:0:62:A6S_s.wav
265,192,122192,1,0,0:0:0:99:A6S_s.wav
367,192,122192,1,0,0:0:0:62:A7S_s.wav
214,192,122256,1,0,0:0:0:99:A5S_s.wav
316,192,122256,1,0,0:0:0:62:A6S_s.wav
10,192,122320,1,0,0:0:0:99:A6S_s.wav
163,192,122320,1,0,0:0:0:62:C#7S_Db7S_s.wav
469,192,122320,1,0,0:0:0:62:A7S_s.wav
112,192,122383,1,0,0:0:0:99:F#6S_Gb6S_s.wav
418,192,122383,1,0,0:0:0:62:F#7S_Gb7S_s.wav
61,192,122447,1,0,0:0:0:62:A6S_s.wav
265,192,122447,1,0,0:0:0:99:A6S_s.wav
367,192,122447,1,0,0:0:0:62:A7S_s.wav
214,192,122511,1,0,0:0:0:99:A5S_s.wav
316,192,122511,1,0,0:0:0:62:A6S_s.wav
10,192,122575,1,0,0:0:0:99:F#3S_Gb3S_s.wav
163,192,122575,1,0,0:0:0:99:C#6S_Db6S_s.wav
469,192,122575,1,0,0:0:0:62:C#7S_Db7S_s.wav
112,192,122639,1,0,0:0:0:99:F#6S_Gb6S_s.wav
367,192,122639,1,0,0:0:0:99:A6S_s.wav
418,192,122639,1,0,0:0:0:62:F#7S_Gb7S_s.wav
61,192,122703,1,0,0:0:0:99:A5S_s.wav
214,192,122703,1,0,0:0:0:62:A6S_s.wav
265,192,122703,1,0,0:0:0:62:A7S_s.wav
163,192,122766,1,0,0:0:0:99:A5S_s.wav
316,192,122766,1,0,0:0:0:62:A6S_s.wav
469,192,122766,1,0,0:0:0:99:A6S_s.wav
10,192,122830,1,0,0:0:0:99:C#6S_Db6S_s.wav
112,192,122830,1,0,0:0:0:62:C#7S_Db7S_s.wav
418,192,122830,1,0,0:0:0:62:A7S_s.wav
214,192,122894,1,0,0:0:0:99:F#6S_Gb6S_s.wav
265,192,122894,1,0,0:0:0:99:A6S_s.wav
367,192,122894,1,0,0:0:0:62:F#7S_Gb7S_s.wav
61,192,122958,1,0,0:0:0:99:A5S_s.wav
163,192,122958,1,0,0:0:0:62:A6S_s.wav
316,192,122958,1,0,0:0:0:62:A7S_s.wav
112,192,123022,1,0,0:0:0:99:A5S_s.wav
469,192,123022,1,0,0:0:0:62:A6S_s.wav
10,192,123086,1,0,0:0:0:99:F#3S_Gb3S_s.wav
367,192,123086,1,0,0:0:0:99:C#6S_Db6S_s.wav
418,192,123086,1,0,0:0:0:62:C#7S_Db7S_s.wav
214,192,123149,1,0,0:0:0:99:F#6S_Gb6S_s.wav
265,192,123149,1,0,0:0:0:62:F#7S_Gb7S_s.wav
61,192,123213,1,0,0:0:0:62:F#6S_Gb6S_s.wav
163,192,123213,1,0,0:0:0:99:F#6S_Gb6S_s.wav
316,192,123213,1,0,0:0:0:62:F#7S_Gb7S_s.wav
112,192,123278,1,0,0:0:0:99:A5S_s.wav
469,192,123278,1,0,0:0:0:62:A6S_s.wav
10,192,123342,1,0,0:0:0:99:F#6S_Gb6S_s.wav
367,192,123342,1,0,0:0:0:62:C#7S_Db7S_s.wav
418,192,123342,1,0,0:0:0:62:F#7S_Gb7S_s.wav
214,192,123407,1,0,0:0:0:99:F#6S_Gb6S_s.wav
265,192,123407,1,0,0:0:0:62:F#7S_Gb7S_s.wav
61,192,123472,1,0,0:0:0:62:F#6S_Gb6S_s.wav
163,192,123472,1,0,0:0:0:99:F#6S_Gb6S_s.wav
316,192,123472,1,0,0:0:0:62:F#7S_Gb7S_s.wav
112,192,123536,1,0,0:0:0:99:A5S_s.wav
469,192,123536,1,0,0:0:0:62:A6S_s.wav
10,192,123601,1,0,0:0:0:99:F#3S_Gb3S_s.wav
367,192,123601,1,0,0:0:0:99:C#6S_Db6S_s.wav
418,192,123601,1,0,0:0:0:62:C#7S_Db7S_s.wav
214,192,123666,1,0,0:0:0:99:F#6S_Gb6S_s.wav
265,192,123666,1,0,0:0:0:62:F#7S_Gb7S_s.wav
61,192,123730,1,0,0:0:0:62:F#6S_Gb6S_s.wav
163,192,123730,1,0,0:0:0:99:F#6S_Gb6S_s.wav
316,192,123730,1,0,0:0:0:62:F#7S_Gb7S_s.wav
112,192,123795,1,0,0:0:0:99:A5S_s.wav
469,192,123795,1,0,0:0:0:62:A6S_s.wav
10,192,123860,1,0,0:0:0:99:F#6S_Gb6S_s.wav
367,192,123860,1,0,0:0:0:62:C#7S_Db7S_s.wav
418,192,123860,1,0,0:0:0:62:F#7S_Gb7S_s.wav
214,192,123924,1,0,0:0:0:99:F#6S_Gb6S_s.wav
265,192,123924,1,0,0:0:0:62:F#7S_Gb7S_s.wav
61,192,123989,1,0,0:0:0:62:F#6S_Gb6S_s.wav
163,192,123989,1,0,0:0:0:99:F#6S_Gb6S_s.wav
316,192,123989,1,0,0:0:0:62:F#7S_Gb7S_s.wav
112,192,124054,1,0,0:0:0:99:A5S_s.wav
469,192,124054,1,0,0:0:0:62:A6S_s.wav
10,192,124118,1,0,0:0:0:99:F#3S_Gb3S_s.wav
367,192,124118,1,0,0:0:0:99:C#6S_Db6S_s.wav
418,192,124118,1,0,0:0:0:62:C#7S_Db7S_s.wav
214,192,124183,1,0,0:0:0:99:F#6S_Gb6S_s.wav
265,192,124183,1,0,0:0:0:62:F#7S_Gb7S_s.wav
61,192,124247,1,0,0:0:0:62:A6S_s.wav
163,192,124247,1,0,0:0:0:99:A6S_s.wav
316,192,124247,1,0,0:0:0:62:A7S_s.wav
112,192,124313,1,0,0:0:0:99:A5S_s.wav
469,192,124313,1,0,0:0:0:62:A6S_s.wav
10,192,124379,1,0,0:0:0:99:A6S_s.wav
367,192,124379,1,0,0:0:0:62:C#7S_Db7S_s.wav
418,192,124379,1,0,0:0:0:62:A7S_s.wav
214,192,124444,1,0,0:0:0:99:F#6S_Gb6S_s.wav
265,192,124444,1,0,0:0:0:62:F#7S_Gb7S_s.wav
61,192,124510,1,0,0:0:0:62:A6S_s.wav
163,192,124510,1,0,0:0:0:99:A6S_s.wav
316,192,124510,1,0,0:0:0:62:A7S_s.wav
112,192,124576,1,0,0:0:0:99:A5S_s.wav
469,192,124576,1,0,0:0:0:62:A6S_s.wav
10,192,124642,1,0,0:0:0:99:F#3S_Gb3S_s.wav
367,192,124642,1,0,0:0:0:99:C#6S_Db6S_s.wav
418,192,124642,1,0,0:0:0:62:C#7S_Db7S_s.wav
214,192,124708,1,0,0:0:0:99:F#6S_Gb6S_s.wav
265,192,124708,1,0,0:0:0:62:F#7S_Gb7S_s.wav
61,192,124773,1,0,0:0:0:62:A6S_s.wav
163,192,124773,1,0,0:0:0:99:A6S_s.wav
316,192,124773,1,0,0:0:0:62:A7S_s.wav
112,192,124839,1,0,0:0:0:99:A5S_s.wav
469,192,124839,1,0,0:0:0:62:A6S_s.wav
10,192,124905,1,0,0:0:0:99:A6S_s.wav
367,192,124905,1,0,0:0:0:62:C#7S_Db7S_s.wav
418,192,124905,1,0,0:0:0:62:A7S_s.wav
214,192,124971,1,0,0:0:0:99:F#6S_Gb6S_s.wav
265,192,124971,1,0,0:0:0:62:F#7S_Gb7S_s.wav
61,192,125036,1,0,0:0:0:62:A6S_s.wav
163,192,125036,1,0,0:0:0:99:A6S_s.wav
316,192,125036,1,0,0:0:0:62:A7S_s.wav
112,192,125102,1,0,0:0:0:99:A5S_s.wav
469,192,125102,1,0,0:0:0:62:A6S_s.wav
10,192,125168,1,0,0:0:0:99:F#3S_Gb3S_s.wav
367,192,125168,1,0,0:0:0:99:C#6S_Db6S_s.wav
418,192,125168,1,0,0:0:0:62:C#7S_Db7S_s.wav
214,192,125234,1,0,0:0:0:99:F#6S_Gb6S_s.wav
265,192,125234,1,0,0:0:0:62:F#7S_Gb7S_s.wav
61,192,125300,1,0,0:0:0:62:F#6S_Gb6S_s.wav
163,192,125300,1,0,0:0:0:99:F#6S_Gb6S_s.wav
316,192,125300,1,0,0:0:0:62:F#7S_Gb7S_s.wav
112,192,125367,1,0,0:0:0:99:A5S_s.wav
469,192,125367,1,0,0:0:0:62:A6S_s.wav
10,192,125434,1,0,0:0:0:99:F#6S_Gb6S_s.wav
367,192,125434,1,0,0:0:0:62:C#7S_Db7S_s.wav
418,192,125434,1,0,0:0:0:62:F#7S_Gb7S_s.wav
214,192,125501,1,0,0:0:0:99:F#6S_Gb6S_s.wav
265,192,125501,1,0,0:0:0:62:F#7S_Gb7S_s.wav
61,192,125568,1,0,0:0:0:62:F#6S_Gb6S_s.wav
163,192,125568,1,0,0:0:0:99:F#6S_Gb6S_s.wav
316,192,125568,1,0,0:0:0:62:F#7S_Gb7S_s.wav
112,192,125635,1,0,0:0:0:99:A5S_s.wav
469,192,125635,1,0,0:0:0:62:A6S_s.wav
10,192,125702,1,0,0:0:0:99:F#3S_Gb3S_s.wav
367,192,125702,1,0,0:0:0:99:C#6S_Db6S_s.wav
418,192,125702,1,0,0:0:0:62:C#7S_Db7S_s.wav
214,192,125769,1,0,0:0:0:99:F#6S_Gb6S_s.wav
265,192,125769,1,0,0:0:0:62:F#7S_Gb7S_s.wav
61,192,125836,1,0,0:0:0:62:F#6S_Gb6S_s.wav
163,192,125836,1,0,0:0:0:99:F#6S_Gb6S_s.wav
316,192,125836,1,0,0:0:0:62:F#7S_Gb7S_s.wav
112,192,125903,1,0,0:0:0:99:A5S_s.wav
469,192,125903,1,0,0:0:0:62:A6S_s.wav
10,192,125970,1,0,0:0:0:99:F#6S_Gb6S_s.wav
367,192,125970,1,0,0:0:0:62:C#7S_Db7S_s.wav
418,192,125970,1,0,0:0:0:62:F#7S_Gb7S_s.wav
214,192,126037,1,0,0:0:0:99:F#6S_Gb6S_s.wav
265,192,126037,1,0,0:0:0:62:F#7S_Gb7S_s.wav
61,192,126104,1,0,0:0:0:62:F#6S_Gb6S_s.wav
163,192,126104,1,0,0:0:0:99:F#6S_Gb6S_s.wav
316,192,126104,1,0,0:0:0:62:F#7S_Gb7S_s.wav
112,192,126171,1,0,0:0:0:99:A5S_s.wav
469,192,126171,1,0,0:0:0:62:A6S_s.wav
10,192,126237,1,0,0:0:0:99:F#3S_Gb3S_s.wav
367,192,126237,1,0,0:0:0:99:C#6S_Db6S_s.wav
418,192,126237,1,0,0:0:0:62:C#7S_Db7S_s.wav
214,192,126304,1,0,0:0:0:99:F#6S_Gb6S_s.wav
265,192,126304,1,0,0:0:0:99:F#7S_Gb7S_s.wav
